  0
SECTION
  2
HEADER
  9
$ACADVER
  1
AC1014
  9
$ACADMAINTVER
 70
     9
  9
$DWGCODEPAGE
  3
ANSI_1252
  9
$INSBASE
 10
0.0
 20
0.0
 30
0.0
  9
$EXTMIN
 10
-300.0003284741069
 20
-464.1669951407731
 30
0.0
  9
$EXTMAX
 10
1114.16633819249
 20
303.9078505389758
 30
0.0
  9
$LIMMIN
 10
0.0
 20
0.0
  9
$LIMMAX
 10
420.0
 20
297.0
  9
$ORTHOMODE
 70
     1
  9
$REGENMODE
 70
     1
  9
$FILLMODE
 70
     1
  9
$QTEXTMODE
 70
     0
  9
$MIRRTEXT
 70
     1
  9
$DRAGMODE
 70
     2
  9
$LTSCALE
 40
1.0
  9
$OSMODE
 70
   167
  9
$ATTMODE
 70
     1
  9
$TEXTSIZE
 40
2.5
  9
$TRACEWID
 40
1.0
  9
$TEXTSTYLE
  7
STANDARD
  9
$CLAYER
  8
0
  9
$CELTYPE
  6
BYLAYER
  9
$CECOLOR
 62
   256
  9
$CELTSCALE
 40
1.0
  9
$DELOBJ
 70
     1
  9
$DISPSILH
 70
     0
  9
$DIMSCALE
 40
1.0
  9
$DIMASZ
 40
25.0
  9
$DIMEXO
 40
5.0
  9
$DIMDLI
 40
3.75
  9
$DIMRND
 40
0.0
  9
$DIMDLE
 40
0.0
  9
$DIMEXE
 40
1.25
  9
$DIMTP
 40
0.0
  9
$DIMTM
 40
0.0
  9
$DIMTXT
 40
25.0
  9
$DIMCEN
 40
2.5
  9
$DIMTSZ
 40
0.0
  9
$DIMTOL
 70
     0
  9
$DIMLIM
 70
     0
  9
$DIMTIH
 70
     0
  9
$DIMTOH
 70
     0
  9
$DIMSE1
 70
     0
  9
$DIMSE2
 70
     0
  9
$DIMTAD
 70
     1
  9
$DIMZIN
 70
     8
  9
$DIMBLK
  1

  9
$DIMASO
 70
     1
  9
$DIMSHO
 70
     1
  9
$DIMPOST
  1

  9
$DIMAPOST
  1

  9
$DIMALT
 70
     0
  9
$DIMALTD
 70
     3
  9
$DIMALTF
 40
0.03937007874016
  9
$DIMLFAC
 40
1.0
  9
$DIMTOFL
 70
     1
  9
$DIMTVP
 40
0.0
  9
$DIMTIX
 70
     0
  9
$DIMSOXD
 70
     0
  9
$DIMSAH
 70
     0
  9
$DIMBLK1
  1

  9
$DIMBLK2
  1

  9
$DIMSTYLE
  2
STANDART
  9
$DIMCLRD
 70
     0
  9
$DIMCLRE
 70
     0
  9
$DIMCLRT
 70
     0
  9
$DIMTFAC
 40
1.0
  9
$DIMGAP
 40
5.0
  9
$DIMJUST
 70
     0
  9
$DIMSD1
 70
     0
  9
$DIMSD2
 70
     0
  9
$DIMTOLJ
 70
     0
  9
$DIMTZIN
 70
     8
  9
$DIMALTZ
 70
     0
  9
$DIMALTTZ
 70
     0
  9
$DIMFIT
 70
     3
  9
$DIMUPT
 70
     0
  9
$DIMUNIT
 70
     2
  9
$DIMDEC
 70
     2
  9
$DIMTDEC
 70
     2
  9
$DIMALTU
 70
     2
  9
$DIMALTTD
 70
     3
  9
$DIMTXSTY
  7
STANDARD
  9
$DIMAUNIT
 70
     0
  9
$LUNITS
 70
     2
  9
$LUPREC
 70
     3
  9
$SKETCHINC
 40
1.0
  9
$FILLETRAD
 40
1.0
  9
$AUNITS
 70
     0
  9
$AUPREC
 70
     3
  9
$MENU
  1
.
  9
$ELEVATION
 40
0.0
  9
$PELEVATION
 40
0.0
  9
$THICKNESS
 40
0.0
  9
$LIMCHECK
 70
     0
  9
$BLIPMODE
 70
     0
  9
$CHAMFERA
 40
10.0
  9
$CHAMFERB
 40
10.0
  9
$CHAMFERC
 40
20.0
  9
$CHAMFERD
 40
0.0
  9
$SKPOLY
 70
     0
  9
$TDCREATE
 40
2453671.631321793
  9
$TDUPDATE
 40
2453672.541093773
  9
$TDINDWG
 40
0.1675479282
  9
$TDUSRTIMER
 40
0.1675479282
  9
$USRTIMER
 70
     1
  9
$ANGBASE
 50
0.0
  9
$ANGDIR
 70
     0
  9
$PDMODE
 70
     0
  9
$PDSIZE
 40
0.0
  9
$PLINEWID
 40
0.0
  9
$COORDS
 70
     0
  9
$SPLFRAME
 70
     0
  9
$SPLINETYPE
 70
     6
  9
$SPLINESEGS
 70
     8
  9
$ATTDIA
 70
     0
  9
$ATTREQ
 70
     0
  9
$HANDLING
 70
 22529
  9
$HANDSEED
  5
AD2
  9
$SURFTAB1
 70
     6
  9
$SURFTAB2
 70
     6
  9
$SURFTYPE
 70
     6
  9
$SURFU
 70
     6
  9
$SURFV
 70
     6
  9
$UCSNAME
  2

  9
$UCSORG
 10
0.0
 20
0.0
 30
0.0
  9
$UCSXDIR
 10
1.0
 20
0.0
 30
0.0
  9
$UCSYDIR
 10
0.0
 20
1.0
 30
0.0
  9
$PUCSNAME
  2

  9
$PUCSORG
 10
0.0
 20
0.0
 30
0.0
  9
$PUCSXDIR
 10
1.0
 20
0.0
 30
0.0
  9
$PUCSYDIR
 10
0.0
 20
1.0
 30
0.0
  9
$USERI1
 70
     0
  9
$USERI2
 70
     0
  9
$USERI3
 70
     0
  9
$USERI4
 70
     0
  9
$USERI5
 70
     0
  9
$USERR1
 40
0.0
  9
$USERR2
 40
0.0
  9
$USERR3
 40
0.0
  9
$USERR4
 40
0.0
  9
$USERR5
 40
0.0
  9
$WORLDVIEW
 70
     1
  9
$SHADEDGE
 70
     3
  9
$SHADEDIF
 70
    70
  9
$TILEMODE
 70
     1
  9
$MAXACTVP
 70
    64
  9
$PINSBASE
 10
0.0
 20
0.0
 30
0.0
  9
$PLIMCHECK
 70
     0
  9
$PEXTMIN
 10
0.0
 20
0.0
 30
0.0
  9
$PEXTMAX
 10
0.0
 20
0.0
 30
0.0
  9
$PLIMMIN
 10
0.0
 20
0.0
  9
$PLIMMAX
 10
12.0
 20
9.0
  9
$UNITMODE
 70
     0
  9
$VISRETAIN
 70
     1
  9
$PLINEGEN
 70
     0
  9
$PSLTSCALE
 70
     1
  9
$TREEDEPTH
 70
  3020
  9
$PICKSTYLE
 70
     0
  9
$CMLSTYLE
  2
STANDARD
  9
$CMLJUST
 70
     0
  9
$CMLSCALE
 40
20.0
  9
$PROXYGRAPHICS
 70
     1
  9
$MEASUREMENT
 70
     1
  0
ENDSEC
  0
SECTION
  2
CLASSES
  0
CLASS
  1
ACDBDICTIONARYWDFLT
  2
AcDbDictionaryWithDefault
  3
AutoCAD 2000
 90
        0
280
     0
281
     0
  0
CLASS
  1
ACDBPLACEHOLDER
  2
AcDbPlaceHolder
  3
AutoCAD 2000
 90
        0
280
     0
281
     0
  0
CLASS
  1
LAYOUT
  2
AcDbLayout
  3
AutoCAD 2000
 90
        0
280
     0
281
     0
  0
CLASS
  1
DICTIONARYVAR
  2
AcDbDictionaryVar
  3
AutoCAD 2000
 90
        0
280
     0
281
     0
  0
CLASS
  1
RASTERVARIABLES
  2
AcDbRasterVariables
  3
ISM
 90
        0
280
     0
281
     0
  0
CLASS
  1
IMAGEDEF
  2
AcDbRasterImageDef
  3
ISM
 90
        0
280
     0
281
     0
  0
CLASS
  1
IMAGEDEF_REACTOR
  2
AcDbRasterImageDefReactor
  3
ISM
 90
        1
280
     0
281
     0
  0
CLASS
  1
IMAGE
  2
AcDbRasterImage
  3
ISM
 90
      127
280
     0
281
     1
  0
CLASS
  1
DIMASSOC
  2
AcDbDimAssoc
  3
"AcDbDimAssoc|Product Desc:     AcDim ARX App For Dimension|Company:          Autodesk, Inc.|WEB Address:      www.autodesk.com"
 90
        0
280
     0
281
     0
  0
CLASS
  1
IDBUFFER
  2
AcDbIdBuffer
  3
AutoCAD 2000
 90
        0
280
     0
281
     0
  0
CLASS
  1
LONG_TRANSACTION
  2
AcDbLongTransaction
  3
AutoCAD 2000
 90
        0
280
     0
281
     0
  0
CLASS
  1
LWPOLYLINE
  2
AcDbPolyline
  3
AutoCAD 2000
 90
        0
280
     0
281
     1
  0
CLASS
  1
HATCH
  2
AcDbHatch
  3
AutoCAD 2000
 90
        0
280
     0
281
     1
  0
CLASS
  1
XRECORD
  2
AcDbXrecord
  3
AutoCAD 2000
 90
        0
280
     0
281
     0
  0
ENDSEC
  0
SECTION
  2
TABLES
  0
TABLE
  2
VPORT
  5
8
330
0
100
AcDbSymbolTable
 70
     2
  0
VPORT
  5
AA7
330
8
100
AcDbSymbolTableRecord
100
AcDbViewportTableRecord
  2
*ACTIVE
 70
     0
 10
0.0
 20
0.0
 11
1.0
 21
1.0
 12
407.0873559949665
 22
-69.6443021378268
 13
0.0
 23
0.0
 14
10.0
 24
10.0
 15
10.0
 25
10.0
 16
0.0
 26
0.0
 36
1.0
 17
0.0
 27
0.0
 37
0.0
 40
852.0614535232727
 41
1.668032786885245
 42
50.0
 43
0.0
 44
0.0
 50
0.0
 51
0.0
 71
     0
 72
   100
 73
     1
 74
     3
 75
     0
 76
     0
 77
     0
 78
     0
  0
ENDTAB
  0
TABLE
  2
LTYPE
  5
5
330
0
100
AcDbSymbolTable
 70
     2
  0
LTYPE
  5
14
330
5
100
AcDbSymbolTableRecord
100
AcDbLinetypeTableRecord
  2
BYBLOCK
 70
     0
  3

 72
    65
 73
     0
 40
0.0
  0
LTYPE
  5
15
330
5
100
AcDbSymbolTableRecord
100
AcDbLinetypeTableRecord
  2
BYLAYER
 70
     0
  3

 72
    65
 73
     0
 40
0.0
  0
LTYPE
  5
16
330
5
100
AcDbSymbolTableRecord
100
AcDbLinetypeTableRecord
  2
CONTINUOUS
 70
     0
  3
Solid line
 72
    65
 73
     0
 40
0.0
  0
LTYPE
  5
4CA
330
5
100
AcDbSymbolTableRecord
100
AcDbLinetypeTableRecord
  2
STRICHPUNKT
 70
     0
  3
Strichpunkt __ . __ . __ . __ . __ . __ . __ . 
 72
    65
 73
     4
 40
25.4
 49
12.7
 74
     0
 49
-6.349999999999999
 74
     0
 49
0.0
 74
     0
 49
-6.349999999999999
 74
     0
  0
ENDTAB
  0
TABLE
  2
LAYER
  5
2
102
{ACAD_XDICTIONARY
360
156
102
}
330
0
100
AcDbSymbolTable
 70
     3
  0
LAYER
  5
10
330
2
100
AcDbSymbolTableRecord
100
AcDbLayerTableRecord
  2
0
 70
     0
 62
     7
  6
CONTINUOUS
  0
LAYER
  5
1C9
330
2
100
AcDbSymbolTableRecord
100
AcDbLayerTableRecord
  2
DEFPOINTS
 70
     0
 62
     7
  6
CONTINUOUS
  0
LAYER
  5
57D
330
2
100
AcDbSymbolTableRecord
100
AcDbLayerTableRecord
  2
BECKEN_FUTURA|EBENE_1
 70
    16
 62
     7
  6
CONTINUOUS
  0
ENDTAB
  0
TABLE
  2
STYLE
  5
3
330
0
100
AcDbSymbolTable
 70
     1
  0
STYLE
  5
11
330
3
100
AcDbSymbolTableRecord
100
AcDbTextStyleTableRecord
  2
STANDARD
 70
     0
 40
0.0
 41
1.0
 50
0.0
 71
     0
 42
2.5
  3
romans.shx
  4

  0
ENDTAB
  0
TABLE
  2
VIEW
  5
6
330
0
100
AcDbSymbolTable
 70
     0
  0
ENDTAB
  0
TABLE
  2
UCS
  5
7
330
0
100
AcDbSymbolTable
 70
     0
  0
ENDTAB
  0
TABLE
  2
APPID
  5
9
330
0
100
AcDbSymbolTable
 70
     3
  0
APPID
  5
12
330
9
100
AcDbSymbolTableRecord
100
AcDbRegAppTableRecord
  2
ACAD
 70
     0
  0
APPID
  5
7B
330
9
100
AcDbSymbolTableRecord
100
AcDbRegAppTableRecord
  2
ODA
 70
     0
  0
APPID
  5
155
330
9
100
AcDbSymbolTableRecord
100
AcDbRegAppTableRecord
  2
PIT-CUP
 70
     0
  0
ENDTAB
  0
TABLE
  2
DIMSTYLE
  5
A
330
0
100
AcDbSymbolTable
 70
     1
  0
DIMSTYLE
105
27
102
{ACAD_REACTORS
330
6BC
330
6E6
330
70F
330
74C
330
77E
330
7DB
330
80E
330
85B
102
}
330
A
100
AcDbSymbolTableRecord
100
AcDbDimStyleTableRecord
  2
STANDART
 70
     0
  3

  4

  5

  6

  7

 40
1.0
 41
25.0
 42
5.0
 43
3.75
 44
1.25
 45
0.0
 46
0.0
 47
0.0
 48
0.0
140
25.0
141
2.5
142
0.0
143
0.03937007874016
144
1.0
145
0.0
146
1.0
147
5.0
 71
     0
 72
     0
 73
     0
 74
     0
 75
     0
 76
     0
 77
     1
 78
     8
170
     0
171
     3
172
     1
173
     0
174
     0
175
     0
176
     0
177
     0
178
     0
270
     2
271
     2
272
     2
273
     2
274
     3
340
11
275
     0
280
     0
281
     0
282
     0
283
     0
284
     8
285
     0
286
     0
287
     3
288
     0
  0
ENDTAB
  0
TABLE
  2
BLOCK_RECORD
  5
1
330
0
100
AcDbSymbolTable
 70
    10
  0
BLOCK_RECORD
  5
1F
102
{ACAD_XDICTIONARY
360
AC9
102
}
330
1
100
AcDbSymbolTableRecord
100
AcDbBlockTableRecord
  2
*MODEL_SPACE
  0
BLOCK_RECORD
  5
50
102
{ACAD_XDICTIONARY
360
ACB
102
}
330
1
100
AcDbSymbolTableRecord
100
AcDbBlockTableRecord
  2
*PAPER_SPACE
  0
BLOCK_RECORD
  5
57A
102
{ACAD_XDICTIONARY
360
ACF
102
}
330
1
100
AcDbSymbolTableRecord
100
AcDbBlockTableRecord
  2
BECKEN_FUTURA
  0
BLOCK_RECORD
  5
6BD
330
1
100
AcDbSymbolTableRecord
100
AcDbBlockTableRecord
  2
*D2
  0
BLOCK_RECORD
  5
6E7
330
1
100
AcDbSymbolTableRecord
100
AcDbBlockTableRecord
  2
*D3
  0
BLOCK_RECORD
  5
710
330
1
100
AcDbSymbolTableRecord
100
AcDbBlockTableRecord
  2
*D4
  0
BLOCK_RECORD
  5
74D
330
1
100
AcDbSymbolTableRecord
100
AcDbBlockTableRecord
  2
*D5
  0
BLOCK_RECORD
  5
77F
330
1
100
AcDbSymbolTableRecord
100
AcDbBlockTableRecord
  2
*D6
  0
BLOCK_RECORD
  5
7DC
330
1
100
AcDbSymbolTableRecord
100
AcDbBlockTableRecord
  2
*D7
  0
BLOCK_RECORD
  5
80F
330
1
100
AcDbSymbolTableRecord
100
AcDbBlockTableRecord
  2
*D8
  0
BLOCK_RECORD
  5
85C
330
1
100
AcDbSymbolTableRecord
100
AcDbBlockTableRecord
  2
*D9
  0
ENDTAB
  0
ENDSEC
  0
SECTION
  2
BLOCKS
  0
BLOCK
  5
20
330
1F
100
AcDbEntity
  8
0
100
AcDbBlockBegin
  2
*MODEL_SPACE
 70
     0
 10
0.0
 20
0.0
 30
0.0
  3
*MODEL_SPACE
  1

  0
ENDBLK
  5
21
330
1F
100
AcDbEntity
  8
0
100
AcDbBlockEnd
  0
BLOCK
  5
52
330
50
100
AcDbEntity
 67
     1
  8
0
100
AcDbBlockBegin
  2
*PAPER_SPACE
 70
     0
 10
0.0
 20
0.0
 30
0.0
  3
*PAPER_SPACE
  1

  0
ENDBLK
  5
53
330
50
100
AcDbEntity
 67
     1
  8
0
100
AcDbBlockEnd
  0
BLOCK
  5
57B
330
57A
100
AcDbEntity
  8
0
100
AcDbBlockBegin
  2
BECKEN_FUTURA
 70
     4
 71
     1
 10
0.0
 20
0.0
 30
0.0
  3
BECKEN_FUTURA
  1
J:\Crocoll\Spectra\Becken Futura.dwg
  0
ENDBLK
  5
57C
330
57A
100
AcDbEntity
  8
0
100
AcDbBlockEnd
  0
BLOCK
  5
6C7
330
6BD
100
AcDbEntity
  8
0
 62
     1
100
AcDbBlockBegin
  2
*D2
 70
     1
 10
0.0
 20
0.0
 30
0.0
  3
*D2
  1

  0
LINE
  5
9AF
330
6BD
100
AcDbEntity
  8
0
 62
     0
100
AcDbLine
 10
-250.0
 20
-349.9999999999996
 30
0.0
 11
-250.0
 21
-391.2503284741065
 31
0.0
  0
LINE
  5
9B0
330
6BD
100
AcDbEntity
  8
0
 62
     0
100
AcDbLine
 10
250.0
 20
-350.0003284741064
 30
0.0
 11
250.0
 21
-391.2503284741065
 31
0.0
  0
LINE
  5
9B1
330
6BD
100
AcDbEntity
  8
0
 62
     0
100
AcDbLine
 10
-225.0
 20
-390.0003284741064
 30
0.0
 11
225.0
 21
-390.0003284741064
 31
0.0
  0
SOLID
  5
9B2
330
6BD
100
AcDbEntity
  8
0
 62
     0
100
AcDbTrace
 10
-225.0
 20
-385.8336618074397
 30
0.0
 11
-225.0
 21
-394.1669951407731
 31
0.0
 12
-250.0
 22
-390.0003284741064
 32
0.0
 13
-250.0
 23
-390.0003284741064
 33
0.0
  0
SOLID
  5
9B3
330
6BD
100
AcDbEntity
  8
0
 62
     0
100
AcDbTrace
 10
225.0
 20
-385.8336618074397
 30
0.0
 11
225.0
 21
-394.1669951407731
 31
0.0
 12
250.0
 22
-390.0003284741064
 32
0.0
 13
250.0
 23
-390.0003284741064
 33
0.0
  0
MTEXT
  5
9B4
330
6BD
100
AcDbEntity
  8
0
 62
     0
100
AcDbMText
 10
0.0000000000000011
 20
-372.5003284741065
 30
0.0
 40
25.0
 41
0.0
 71
     5
 72
     1
  1
500
1001
ACAD
1000
MTEXTBEGIN
1070
    73
1070
     1
1070
    44
1040
1.0
1070
    74
1070
     0
1000
MTEXTEND
  0
POINT
  5
9B5
330
6BD
100
AcDbEntity
  8
DEFPOINTS
 62
     0
100
AcDbPoint
 10
-250.0
 20
-344.9999999999996
 30
0.0
  0
POINT
  5
9B6
330
6BD
100
AcDbEntity
  8
DEFPOINTS
 62
     0
100
AcDbPoint
 10
250.0
 20
-345.0003284741065
 30
0.0
  0
POINT
  5
9B7
330
6BD
100
AcDbEntity
  8
DEFPOINTS
 62
     0
100
AcDbPoint
 10
250.0
 20
-390.0003284741064
 30
0.0
  0
ENDBLK
  5
6C8
330
6BD
100
AcDbEntity
  8
0
 62
     1
100
AcDbBlockEnd
  0
BLOCK
  5
6F1
330
6E7
100
AcDbEntity
  8
0
 62
     1
100
AcDbBlockBegin
  2
*D3
 70
     1
 10
0.0
 20
0.0
 30
0.0
  3
*D3
  1

  0
LINE
  5
994
330
6E7
100
AcDbEntity
  8
0
 62
     0
100
AcDbLine
 10
-300.0003284741069
 20
-350.0003284741064
 30
0.0
 11
-300.0003284741069
 21
-461.2503284741064
 31
0.0
  0
LINE
  5
995
330
6E7
100
AcDbEntity
  8
0
 62
     0
100
AcDbLine
 10
299.9996715258935
 20
-350.0003284741064
 30
0.0
 11
299.9996715258935
 21
-461.2503284741064
 31
0.0
  0
LINE
  5
996
330
6E7
100
AcDbEntity
  8
0
 62
     0
100
AcDbLine
 10
-275.0003284741069
 20
-460.0003284741064
 30
0.0
 11
274.9996715258935
 21
-460.0003284741064
 31
0.0
  0
SOLID
  5
997
330
6E7
100
AcDbEntity
  8
0
 62
     0
100
AcDbTrace
 10
-275.0003284741069
 20
-455.8336618074398
 30
0.0
 11
-275.0003284741069
 21
-464.1669951407731
 31
0.0
 12
-300.0003284741069
 22
-460.0003284741064
 32
0.0
 13
-300.0003284741069
 23
-460.0003284741064
 33
0.0
  0
SOLID
  5
998
330
6E7
100
AcDbEntity
  8
0
 62
     0
100
AcDbTrace
 10
274.9996715258935
 20
-455.8336618074398
 30
0.0
 11
274.9996715258935
 21
-464.1669951407731
 31
0.0
 12
299.9996715258935
 22
-460.0003284741064
 32
0.0
 13
299.9996715258935
 23
-460.0003284741064
 33
0.0
  0
MTEXT
  5
999
330
6E7
100
AcDbEntity
  8
0
 62
     0
100
AcDbMText
 10
-0.000328474106708
 20
-442.5003284741064
 30
0.0
 40
25.0
 41
0.0
 71
     5
 72
     1
  1
600
1001
ACAD
1000
MTEXTBEGIN
1070
    73
1070
     1
1070
    44
1040
1.0
1070
    74
1070
     0
1000
MTEXTEND
  0
POINT
  5
99A
330
6E7
100
AcDbEntity
  8
DEFPOINTS
 62
     0
100
AcDbPoint
 10
-300.0003284741069
 20
-345.0003284741065
 30
0.0
  0
POINT
  5
99B
330
6E7
100
AcDbEntity
  8
DEFPOINTS
 62
     0
100
AcDbPoint
 10
299.9996715258935
 20
-345.0003284741065
 30
0.0
  0
POINT
  5
99C
330
6E7
100
AcDbEntity
  8
DEFPOINTS
 62
     0
100
AcDbPoint
 10
299.9996715258935
 20
-460.0003284741064
 30
0.0
  0
ENDBLK
  5
6F2
330
6E7
100
AcDbEntity
  8
0
 62
     1
100
AcDbBlockEnd
  0
BLOCK
  5
71C
330
710
100
AcDbEntity
  8
0
 62
     1
100
AcDbBlockBegin
  2
*D4
 70
     1
 10
0.0
 20
0.0
 30
0.0
  3
*D4
  1

  0
LINE
  5
A6E
330
710
100
AcDbEntity
  8
0
 62
     0
100
AcDbLine
 10
464.586608022646
 20
133.9078505388951
 30
0.0
 11
428.7496715261149
 21
133.9078505388951
 31
0.0
  0
LINE
  5
A6F
330
710
100
AcDbEntity
  8
0
 62
     0
100
AcDbLine
 10
469.9996715258935
 20
143.9078505388952
 30
0.0
 11
428.7496715261149
 21
143.9078505388952
 31
0.0
  0
LINE
  5
A70
330
710
100
AcDbEntity
  8
0
 62
     0
100
AcDbLine
 10
429.9996715261149
 20
108.9078505388951
 30
0.0
 11
429.9996715261149
 21
83.90785053889512
 31
0.0
  0
LINE
  5
A71
330
710
100
AcDbEntity
  8
0
 62
     0
100
AcDbLine
 10
429.999671526115
 20
168.9078505388952
 30
0.0
 11
429.999671526115
 21
240.8126124436571
 31
0.0
  0
LINE
  5
A72
330
710
100
AcDbEntity
  8
0
 62
     0
100
AcDbLine
 10
429.999671526115
 20
133.9078505388951
 30
0.0
 11
429.999671526115
 21
143.9078505388952
 31
0.0
  0
SOLID
  5
A73
330
710
100
AcDbEntity
  8
0
 62
     0
100
AcDbTrace
 10
425.8330048594482
 20
108.9078505388951
 30
0.0
 11
434.1663381927816
 21
108.9078505388951
 31
0.0
 12
429.999671526115
 22
133.9078505388951
 32
0.0
 13
429.999671526115
 23
133.9078505388951
 33
0.0
  0
SOLID
  5
A74
330
710
100
AcDbEntity
  8
0
 62
     0
100
AcDbTrace
 10
425.8330048594483
 20
168.9078505388952
 30
0.0
 11
434.1663381927816
 21
168.9078505388952
 31
0.0
 12
429.999671526115
 22
143.9078505388952
 32
0.0
 13
429.999671526115
 23
143.9078505388952
 33
0.0
  0
MTEXT
  5
A75
330
710
100
AcDbEntity
  8
0
 62
     0
100
AcDbMText
 10
412.4996715261149
 20
217.3602314912762
 30
0.0
 40
25.0
 41
0.0
 71
     5
 72
     1
  1
10
 11
0.0000000000000001
 21
1.0
 31
0.0
1001
ACAD
1000
MTEXTBEGIN
1070
    73
1070
     1
1070
    44
1040
1.0
1070
    74
1070
     0
1000
MTEXTEND
  0
POINT
  5
A76
330
710
100
AcDbEntity
  8
DEFPOINTS
 62
     0
100
AcDbPoint
 10
469.586608022646
 20
133.9078505388951
 30
0.0
  0
POINT
  5
A77
330
710
100
AcDbEntity
  8
DEFPOINTS
 62
     0
100
AcDbPoint
 10
474.9996715258935
 20
143.9078505388952
 30
0.0
  0
POINT
  5
A78
330
710
100
AcDbEntity
  8
DEFPOINTS
 62
     0
100
AcDbPoint
 10
429.999671526115
 20
143.9078505388952
 30
0.0
  0
ENDBLK
  5
71D
330
710
100
AcDbEntity
  8
0
 62
     1
100
AcDbBlockEnd
  0
BLOCK
  5
759
330
74D
100
AcDbEntity
  8
0
 62
     1
100
AcDbBlockBegin
  2
*D5
 70
     1
 10
0.0
 20
0.0
 30
0.0
  3
*D5
  1

  0
LINE
  5
A63
330
74D
100
AcDbEntity
  8
0
 62
     0
100
AcDbLine
 10
469.9996715258935
 20
133.9078505389757
 30
0.0
 11
428.749671526115
 21
133.9078505389757
 31
0.0
  0
LINE
  5
A64
330
74D
100
AcDbEntity
  8
0
 62
     0
100
AcDbLine
 10
469.9996715258935
 20
73.90785053897582
 30
0.0
 11
428.7496715261149
 21
73.90785053897582
 31
0.0
  0
LINE
  5
A65
330
74D
100
AcDbEntity
  8
0
 62
     0
100
AcDbLine
 10
429.999671526115
 20
158.9078505389757
 30
0.0
 11
429.999671526115
 21
183.9078505389757
 31
0.0
  0
LINE
  5
A66
330
74D
100
AcDbEntity
  8
0
 62
     0
100
AcDbLine
 10
429.999671526115
 20
48.90785053897583
 30
0.0
 11
429.999671526115
 21
23.90785053897582
 31
0.0
  0
LINE
  5
A67
330
74D
100
AcDbEntity
  8
0
 62
     0
100
AcDbLine
 10
429.999671526115
 20
133.9078505389757
 30
0.0
 11
429.999671526115
 21
73.90785053897582
 31
0.0
  0
SOLID
  5
A68
330
74D
100
AcDbEntity
  8
0
 62
     0
100
AcDbTrace
 10
425.8330048594483
 20
158.9078505389757
 30
0.0
 11
434.1663381927816
 21
158.9078505389757
 31
0.0
 12
429.999671526115
 22
133.9078505389757
 32
0.0
 13
429.999671526115
 23
133.9078505389757
 33
0.0
  0
SOLID
  5
A69
330
74D
100
AcDbEntity
  8
0
 62
     0
100
AcDbTrace
 10
425.8330048594483
 20
48.90785053897583
 30
0.0
 11
434.1663381927816
 21
48.90785053897582
 31
0.0
 12
429.999671526115
 22
73.90785053897582
 32
0.0
 13
429.999671526115
 23
73.90785053897582
 33
0.0
  0
MTEXT
  5
A6A
330
74D
100
AcDbEntity
  8
0
 62
     0
100
AcDbMText
 10
412.499671526115
 20
103.9078505389758
 30
0.0
 40
25.0
 41
0.0
 71
     5
 72
     1
  1
60
 11
0.0000000000000001
 21
1.0
 31
0.0
1001
ACAD
1000
MTEXTBEGIN
1070
    73
1070
     1
1070
    44
1040
1.0
1070
    74
1070
     0
1000
MTEXTEND
  0
POINT
  5
A6B
330
74D
100
AcDbEntity
  8
DEFPOINTS
 62
     0
100
AcDbPoint
 10
474.9996715258935
 20
133.9078505389757
 30
0.0
  0
POINT
  5
A6C
330
74D
100
AcDbEntity
  8
DEFPOINTS
 62
     0
100
AcDbPoint
 10
474.9996715258935
 20
73.90785053897582
 30
0.0
  0
POINT
  5
A6D
330
74D
100
AcDbEntity
  8
DEFPOINTS
 62
     0
100
AcDbPoint
 10
429.999671526115
 20
73.90785053897582
 30
0.0
  0
ENDBLK
  5
75A
330
74D
100
AcDbEntity
  8
0
 62
     1
100
AcDbBlockEnd
  0
BLOCK
  5
789
330
77F
100
AcDbEntity
  8
0
 62
     1
100
AcDbBlockBegin
  2
*D6
 70
     1
 10
0.0
 20
0.0
 30
0.0
  3
*D6
  1

  0
LINE
  5
A82
330
77F
100
AcDbEntity
  8
0
 62
     0
100
AcDbLine
 10
499.9996715258939
 20
163.9078505388951
 30
0.0
 11
499.9996715258939
 21
275.1578505389758
 31
0.0
  0
LINE
  5
A83
330
77F
100
AcDbEntity
  8
0
 62
     0
100
AcDbLine
 10
1039.999671525893
 20
163.9078505388951
 30
0.0
 11
1039.999671525893
 21
275.1578505389758
 31
0.0
  0
LINE
  5
A84
330
77F
100
AcDbEntity
  8
0
 62
     0
100
AcDbLine
 10
524.9996715258939
 20
273.9078505389758
 30
0.0
 11
1014.999671525893
 21
273.9078505389758
 31
0.0
  0
SOLID
  5
A85
330
77F
100
AcDbEntity
  8
0
 62
     0
100
AcDbTrace
 10
524.9996715258939
 20
278.0745172056425
 30
0.0
 11
524.9996715258939
 21
269.7411838723091
 31
0.0
 12
499.9996715258939
 22
273.9078505389758
 32
0.0
 13
499.9996715258939
 23
273.9078505389758
 33
0.0
  0
SOLID
  5
A86
330
77F
100
AcDbEntity
  8
0
 62
     0
100
AcDbTrace
 10
1014.999671525893
 20
278.0745172056425
 30
0.0
 11
1014.999671525893
 21
269.7411838723091
 31
0.0
 12
1039.999671525893
 22
273.9078505389758
 32
0.0
 13
1039.999671525893
 23
273.9078505389758
 33
0.0
  0
MTEXT
  5
A87
330
77F
100
AcDbEntity
  8
0
 62
     0
100
AcDbMText
 10
769.9996715258937
 20
291.4078505389758
 30
0.0
 40
25.0
 41
0.0
 71
     5
 72
     1
  1
540
1001
ACAD
1000
MTEXTBEGIN
1070
    73
1070
     1
1070
    44
1040
1.0
1070
    74
1070
     0
1000
MTEXTEND
  0
POINT
  5
A88
330
77F
100
AcDbEntity
  8
DEFPOINTS
 62
     0
100
AcDbPoint
 10
499.9996715258939
 20
158.9078505388951
 30
0.0
  0
POINT
  5
A89
330
77F
100
AcDbEntity
  8
DEFPOINTS
 62
     0
100
AcDbPoint
 10
1039.999671525893
 20
158.9078505388951
 30
0.0
  0
POINT
  5
A8A
330
77F
100
AcDbEntity
  8
DEFPOINTS
 62
     0
100
AcDbPoint
 10
1039.999671525893
 20
273.9078505389758
 30
0.0
  0
ENDBLK
  5
78A
330
77F
100
AcDbEntity
  8
0
 62
     1
100
AcDbBlockEnd
  0
BLOCK
  5
7E6
330
7DC
100
AcDbEntity
  8
0
 62
     1
100
AcDbBlockBegin
  2
*D7
 70
     1
 10
0.0
 20
0.0
 30
0.0
  3
*D7
  1

  0
LINE
  5
A79
330
7DC
100
AcDbEntity
  8
0
 62
     0
100
AcDbLine
 10
639.9996715259639
 20
163.9078505388951
 30
0.0
 11
639.9996715259639
 21
205.1578505389758
 31
0.0
  0
LINE
  5
A7A
330
7DC
100
AcDbEntity
  8
0
 62
     0
100
AcDbLine
 10
989.9996715259639
 20
163.9078505388951
 30
0.0
 11
989.9996715259639
 21
205.1578505389758
 31
0.0
  0
LINE
  5
A7B
330
7DC
100
AcDbEntity
  8
0
 62
     0
100
AcDbLine
 10
664.9996715259639
 20
203.9078505389758
 30
0.0
 11
964.9996715259639
 21
203.9078505389758
 31
0.0
  0
SOLID
  5
A7C
330
7DC
100
AcDbEntity
  8
0
 62
     0
100
AcDbTrace
 10
664.9996715259639
 20
208.0745172056424
 30
0.0
 11
664.9996715259639
 21
199.7411838723091
 31
0.0
 12
639.9996715259639
 22
203.9078505389758
 32
0.0
 13
639.9996715259639
 23
203.9078505389758
 33
0.0
  0
SOLID
  5
A7D
330
7DC
100
AcDbEntity
  8
0
 62
     0
100
AcDbTrace
 10
964.9996715259639
 20
208.0745172056424
 30
0.0
 11
964.9996715259639
 21
199.7411838723091
 31
0.0
 12
989.9996715259639
 22
203.9078505389758
 32
0.0
 13
989.9996715259639
 23
203.9078505389758
 33
0.0
  0
MTEXT
  5
A7E
330
7DC
100
AcDbEntity
  8
0
 62
     0
100
AcDbMText
 10
814.9996715259639
 20
221.4078505389758
 30
0.0
 40
25.0
 41
0.0
 71
     5
 72
     1
  1
350
1001
ACAD
1000
MTEXTBEGIN
1070
    73
1070
     1
1070
    44
1040
1.0
1070
    74
1070
     0
1000
MTEXTEND
  0
POINT
  5
A7F
330
7DC
100
AcDbEntity
  8
DEFPOINTS
 62
     0
100
AcDbPoint
 10
639.9996715259639
 20
158.9078505388951
 30
0.0
  0
POINT
  5
A80
330
7DC
100
AcDbEntity
  8
DEFPOINTS
 62
     0
100
AcDbPoint
 10
989.9996715259639
 20
158.9078505388951
 30
0.0
  0
POINT
  5
A81
330
7DC
100
AcDbEntity
  8
DEFPOINTS
 62
     0
100
AcDbPoint
 10
989.9996715259639
 20
203.9078505389758
 30
0.0
  0
ENDBLK
  5
7E7
330
7DC
100
AcDbEntity
  8
0
 62
     1
100
AcDbBlockEnd
  0
BLOCK
  5
819
330
80F
100
AcDbEntity
  8
0
 62
     1
100
AcDbBlockBegin
  2
*D8
 70
     1
 10
0.0
 20
0.0
 30
0.0
  3
*D8
  1

  0
LINE
  5
A96
330
80F
100
AcDbEntity
  8
0
 62
     0
100
AcDbLine
 10
1069.999671525823
 20
133.9078505389758
 30
0.0
 11
1111.249671525823
 21
133.9078505389758
 31
0.0
  0
LINE
  5
A97
330
80F
100
AcDbEntity
  8
0
 62
     0
100
AcDbLine
 10
1069.999671525823
 20
23.90785053897582
 30
0.0
 11
1111.249671525823
 21
23.90785053897581
 31
0.0
  0
LINE
  5
A98
330
80F
100
AcDbEntity
  8
0
 62
     0
100
AcDbLine
 10
1109.999671525823
 20
108.9078505389758
 30
0.0
 11
1109.999671525823
 21
48.9078505389758
 31
0.0
  0
SOLID
  5
A99
330
80F
100
AcDbEntity
  8
0
 62
     0
100
AcDbTrace
 10
1105.833004859156
 20
108.9078505389758
 30
0.0
 11
1114.16633819249
 21
108.9078505389758
 31
0.0
 12
1109.999671525823
 22
133.9078505389758
 32
0.0
 13
1109.999671525823
 23
133.9078505389758
 33
0.0
  0
SOLID
  5
A9A
330
80F
100
AcDbEntity
  8
0
 62
     0
100
AcDbTrace
 10
1105.833004859156
 20
48.9078505389758
 30
0.0
 11
1114.16633819249
 21
48.9078505389758
 31
0.0
 12
1109.999671525823
 22
23.90785053897581
 32
0.0
 13
1109.999671525823
 23
23.90785053897581
 33
0.0
  0
MTEXT
  5
A9B
330
80F
100
AcDbEntity
  8
0
 62
     0
100
AcDbMText
 10
1092.499671525823
 20
78.90785053897598
 30
0.0
 40
25.0
 41
0.0
 71
     5
 72
     1
  1
110
 11
0.0000000000000001
 21
1.0
 31
0.0
1001
ACAD
1000
MTEXTBEGIN
1070
    73
1070
     1
1070
    44
1040
1.0
1070
    74
1070
     0
1000
MTEXTEND
  0
POINT
  5
A9C
330
80F
100
AcDbEntity
  8
DEFPOINTS
 62
     0
100
AcDbPoint
 10
1064.999671525823
 20
133.9078505389758
 30
0.0
  0
POINT
  5
A9D
330
80F
100
AcDbEntity
  8
DEFPOINTS
 62
     0
100
AcDbPoint
 10
1064.999671525823
 20
23.90785053897582
 30
0.0
  0
POINT
  5
A9E
330
80F
100
AcDbEntity
  8
DEFPOINTS
 62
     0
100
AcDbPoint
 10
1109.999671525823
 20
23.90785053897581
 30
0.0
  0
ENDBLK
  5
81A
330
80F
100
AcDbEntity
  8
0
 62
     1
100
AcDbBlockEnd
  0
BLOCK
  5
868
330
85C
100
AcDbEntity
  8
0
 62
     1
100
AcDbBlockBegin
  2
*D9
 70
     1
 10
0.0
 20
0.0
 30
0.0
  3
*D9
  1

  0
LINE
  5
A8B
330
85C
100
AcDbEntity
  8
0
 62
     0
100
AcDbLine
 10
699.6880744124173
 20
-30.0
 30
0.0
 11
699.6880744124173
 21
-71.25
 31
0.0
  0
LINE
  5
A8C
330
85C
100
AcDbEntity
  8
0
 62
     0
100
AcDbLine
 10
745.6880744123314
 20
-30.0
 30
0.0
 11
745.6880744123314
 21
-71.25
 31
0.0
  0
LINE
  5
A8D
330
85C
100
AcDbEntity
  8
0
 62
     0
100
AcDbLine
 10
674.6880744124173
 20
-70.0
 30
0.0
 11
649.6880744124173
 21
-70.0
 31
0.0
  0
LINE
  5
A8E
330
85C
100
AcDbEntity
  8
0
 62
     0
100
AcDbLine
 10
770.6880744123314
 20
-70.0
 30
0.0
 11
846.1642648885218
 21
-70.0
 31
0.0
  0
LINE
  5
A8F
330
85C
100
AcDbEntity
  8
0
 62
     0
100
AcDbLine
 10
699.6880744124173
 20
-70.0
 30
0.0
 11
745.6880744123314
 21
-70.0
 31
0.0
  0
SOLID
  5
A90
330
85C
100
AcDbEntity
  8
0
 62
     0
100
AcDbTrace
 10
674.6880744124173
 20
-65.83333333333333
 30
0.0
 11
674.6880744124173
 21
-74.16666666666667
 31
0.0
 12
699.6880744124173
 22
-70.0
 32
0.0
 13
699.6880744124173
 23
-70.0
 33
0.0
  0
SOLID
  5
A91
330
85C
100
AcDbEntity
  8
0
 62
     0
100
AcDbTrace
 10
770.6880744123314
 20
-65.83333333333333
 30
0.0
 11
770.6880744123314
 21
-74.16666666666667
 31
0.0
 12
745.6880744123314
 22
-70.0
 32
0.0
 13
745.6880744123314
 23
-70.0
 33
0.0
  0
MTEXT
  5
A92
330
85C
100
AcDbEntity
  8
0
 62
     0
100
AcDbMText
 10
820.9261696504265
 20
-52.5
 30
0.0
 40
25.0
 41
0.0
 71
     5
 72
     1
  1
46
1001
ACAD
1000
MTEXTBEGIN
1070
    73
1070
     1
1070
    44
1040
1.0
1070
    74
1070
     0
1000
MTEXTEND
  0
POINT
  5
A93
330
85C
100
AcDbEntity
  8
DEFPOINTS
 62
     0
100
AcDbPoint
 10
699.6880744124173
 20
-25.0
 30
0.0
  0
POINT
  5
A94
330
85C
100
AcDbEntity
  8
DEFPOINTS
 62
     0
100
AcDbPoint
 10
745.6880744123314
 20
-25.0
 30
0.0
  0
POINT
  5
A95
330
85C
100
AcDbEntity
  8
DEFPOINTS
 62
     0
100
AcDbPoint
 10
745.6880744123314
 20
-70.0
 30
0.0
  0
ENDBLK
  5
869
330
85C
100
AcDbEntity
  8
0
 62
     1
100
AcDbBlockEnd
  0
ENDSEC
  0
SECTION
  2
ENTITIES
  0
INSERT
  5
57F
330
1F
100
AcDbEntity
  8
0
100
AcDbBlockReference
  2
BECKEN_FUTURA
 10
2308.623050021824
 20
1016.078892976722
 30
0.0
 41
19.70844638317175
 42
19.70844638317175
 43
19.70844638317175
  0
CIRCLE
  5
583
330
1F
100
AcDbEntity
  8
0
100
AcDbCircle
 10
-0.0003284741064817
 20
147.0012482016069
 30
0.0
 40
13.0
  0
LINE
  5
585
330
1F
100
AcDbEntity
  8
0
  6
STRICHPUNKT
100
AcDbLine
 10
0.0
 20
-40.0
 30
0.0
 11
0.0
 21
40.0
 31
0.0
  0
CIRCLE
  5
586
330
1F
100
AcDbEntity
  8
0
100
AcDbCircle
 10
0.0
 20
0.0
 30
0.0
 40
20.0
  0
CIRCLE
  5
587
330
1F
100
AcDbEntity
  8
0
100
AcDbCircle
 10
0.0
 20
0.0000000000003411
 30
0.0
 40
30.0
  0
LINE
  5
588
330
1F
100
AcDbEntity
  8
0
  6
STRICHPUNKT
100
AcDbLine
 10
-40.0
 20
0.0000000000003411
 30
0.0
 11
40.0
 21
0.0000000000003411
 31
0.0
  0
LINE
  5
58E
330
1F
100
AcDbEntity
  8
0
100
AcDbLine
 10
519.999671525964
 20
134.9078505389758
 30
0.0
 11
519.9996715259644
 21
142.9078505389759
 31
0.0
  0
LINE
  5
58F
330
1F
100
AcDbEntity
  8
0
100
AcDbLine
 10
518.9996715259645
 20
143.9078505389759
 30
0.0
 11
500.9996715261445
 21
143.9078505389759
 31
0.0
  0
LINE
  5
591
330
1F
100
AcDbEntity
  8
0
100
AcDbLine
 10
500.9996715256424
 20
73.90785053897594
 30
0.0
 11
510.9996715256797
 21
73.90785053897582
 31
0.0
  0
LINE
  5
594
330
1F
100
AcDbEntity
  8
0
100
AcDbLine
 10
520.999671525964
 20
133.9078505389758
 30
0.0
 11
1029.999671526004
 21
133.9078505389758
 31
0.0
  0
LINE
  5
595
330
1F
100
AcDbEntity
  8
0
100
AcDbLine
 10
1039.999671526004
 20
123.9078505389044
 30
0.0
 11
1039.999671525642
 21
74.90785053896866
 31
0.0
  0
LINE
  5
596
330
1F
100
AcDbEntity
  8
0
100
AcDbLine
 10
1038.999671525642
 20
73.90785053897582
 30
0.0
 11
1001.181114052853
 21
73.90785053897571
 31
0.0
  0
LINE
  5
597
330
1F
100
AcDbEntity
  8
0
100
AcDbLine
 10
1000.181114052852
 20
72.90785053897571
 30
0.0
 11
1000.181114052852
 21
24.90785053897582
 31
0.0
  0
LINE
  5
598
330
1F
100
AcDbEntity
  8
0
100
AcDbLine
 10
999.1811140528525
 20
23.90785053897582
 30
0.0
 11
746.6880744123318
 21
23.90785053897593
 31
0.0
  0
LINE
  5
59C
330
1F
100
AcDbEntity
  8
0
100
AcDbLine
 10
622.6138421027235
 20
7.305336282812845
 30
0.0
 11
699.6880744124173
 21
0.0049935726768808
 31
0.0
  0
LINE
  5
59E
330
1F
100
AcDbEntity
  8
0
100
AcDbLine
 10
646.0804439712083
 20
41.9444238002344
 30
0.0
 11
693.263175801555
 21
41.97749209237065
 31
0.0
  0
LINE
  5
59F
330
1F
100
AcDbEntity
  8
0
100
AcDbLine
 10
750.9226059821153
 20
41.97749209237054
 30
0.0
 11
981.6199783566643
 21
44.18035844824283
 31
0.0
  0
LINE
  5
5A0
330
1F
100
AcDbEntity
  8
0
100
AcDbLine
 10
989.0014867393848
 20
132.9680762132499
 30
0.0
 11
982.5980544717058
 21
45.1199305741909
 31
0.0
  0
LINE
  5
5A1
330
1F
100
AcDbEntity
  8
0
100
AcDbLine
 10
539.9996715259639
 20
133.9078505389759
 30
0.0
 11
539.9996715259645
 21
122.9078505389758
 31
0.0
  0
LINE
  5
5A7
330
1F
100
AcDbEntity
  8
0
100
AcDbLine
 10
565.999671525964
 20
133.9078505389759
 30
0.0
 11
565.999671525964
 21
122.9078505389758
 31
0.0
  0
LINE
  5
5A9
330
1F
100
AcDbEntity
  8
0
100
AcDbLine
 10
621.07922217153
 20
103.5840554946374
 30
0.0
 11
623.5925892534265
 21
17.89258600511607
 31
0.0
  0
LINE
  5
5B2
330
1F
100
AcDbEntity
  8
0
100
AcDbLine
 10
607.2836321977129
 20
121.9078505389758
 30
0.0
 11
607.2836321977133
 21
115.8093520932579
 31
0.0
  0
LINE
  5
5B3
330
1F
100
AcDbEntity
  8
0
100
AcDbLine
 10
640.9996715259644
 20
106.7179875244197
 30
0.0
 11
640.999671525964
 21
132.9078505389758
 31
0.0
  0
ARC
  5
5B4
330
1F
100
AcDbEntity
  8
0
100
AcDbCircle
 10
628.1364159927416
 20
111.5414880336936
 30
0.0
 40
2.133932029781802
100
AcDbArc
 50
0.000000000011908
 51
90.0
  0
LINE
  5
5B5
330
1F
100
AcDbEntity
  8
0
100
AcDbLine
 10
623.2131542013112
 20
105.7179875244208
 30
0.0
 11
639.9996715259645
 21
105.7179875244197
 31
0.0
  0
ARC
  5
5B6
330
1F
100
AcDbEntity
  8
0
100
AcDbCircle
 10
623.2131542013112
 20
103.5840554946374
 30
0.0
 40
2.133932029781802
100
AcDbArc
 50
89.9999999999966
 51
180.0000000000011
  0
ARC
  5
5B8
330
1F
100
AcDbEntity
  8
0
100
AcDbCircle
 10
632.4042800523061
 20
107.851919554203
 30
0.0
 40
2.133932029781802
100
AcDbArc
 50
180.0000000000087
 51
270.0
  0
LINE
  5
5B9
330
1F
100
AcDbEntity
  8
0
100
AcDbLine
 10
631.8777541706826
 20
94.22462961201313
 30
0.0
 11
639.8733465373775
 21
94.22462961201336
 31
0.0
  0
LINE
  5
5BA
330
1F
100
AcDbEntity
  8
0
100
AcDbLine
 10
630.2703480225236
 20
111.5414880336936
 30
0.0
 11
630.2703480225236
 21
107.851919554203
 31
0.0
  0
ARC
  5
5BB
330
1F
100
AcDbEntity
  8
0
100
AcDbCircle
 10
609.4175642274954
 20
115.8093520932579
 30
0.0
 40
2.133932029781802
100
AcDbArc
 50
180.0
 51
270.0
  0
LINE
  5
5BC
330
1F
100
AcDbEntity
  8
0
100
AcDbLine
 10
609.4175642274954
 20
113.6754200634759
 30
0.0
 11
628.1364159927416
 21
113.6754200634759
 31
0.0
  0
LINE
  5
5C4
330
1F
100
AcDbEntity
  8
0
100
AcDbLine
 10
512.9996715260272
 20
122.9078505389758
 30
0.0
 11
606.2836321977129
 21
122.9078505389758
 31
0.0
  0
LINE
  5
5C5
330
1F
100
AcDbEntity
  8
0
100
AcDbLine
 10
745.6880744123318
 20
22.90785053897593
 30
0.0
 11
745.6880744123314
 21
1.0
 31
0.0
  0
LINE
  5
5C7
330
1F
100
AcDbEntity
  8
0
100
AcDbLine
 10
702.4098723518614
 20
7.572817462795683
 30
0.0
 11
700.7597480830781
 21
0.7644523511128228
 31
0.0
  0
LINE
  5
5C8
330
1F
100
AcDbEntity
  8
0
100
AcDbLine
 10
736.3112686395961
 20
23.34065971977565
 30
0.0
 11
736.3112686395961
 21
1.0
 31
0.0
  0
LINE
  5
5C9
330
1F
100
AcDbEntity
  8
0
100
AcDbLine
 10
744.6880744123314
 20
0.0
 30
0.0
 11
699.7878852814937
 21
0.0
 31
0.0
  0
LINE
  5
5CE
330
1F
100
AcDbEntity
  8
0
100
AcDbLine
 10
692.5229554208413
 20
19.30426439407131
 30
0.0
 11
703.0535029356874
 21
17.1902127988435
 31
0.0
  0
LINE
  5
5D3
330
1F
100
AcDbEntity
  8
0
100
AcDbLine
 10
702.2433291239026
 20
31.57216150729993
 30
0.0
 11
705.6880744123332
 21
19.26458645177422
 31
0.0
  0
ARC
  5
5D6
330
1F
100
AcDbEntity
  8
0
100
AcDbCircle
 10
703.5541423825498
 20
19.26458645177422
 30
0.0
 40
2.133932029781802
100
AcDbArc
 50
256.4314300846667
 51
0.0
  0
ARC
  5
5DE
330
1F
100
AcDbEntity
  8
0
100
AcDbCircle
 10
1038.999671525642
 20
74.90785053897582
 30
0.0
 40
1.0
100
AcDbArc
 50
270.0
 51
359.9999999995915
  0
ARC
  5
5DF
330
1F
100
AcDbEntity
  8
0
100
AcDbCircle
 10
1001.181114052853
 20
72.90785053897571
 30
0.0
 40
1.0
100
AcDbArc
 50
90.0
 51
180.0
  0
ARC
  5
5E0
330
1F
100
AcDbEntity
  8
0
100
AcDbCircle
 10
999.1811140528525
 20
24.90785053897582
 30
0.0
 40
1.0
100
AcDbArc
 50
270.0
 51
0.0
  0
ARC
  5
5E2
330
1F
100
AcDbEntity
  8
0
100
AcDbCircle
 10
746.6880744123318
 20
22.90785053897593
 30
0.0
 40
1.0
100
AcDbArc
 50
90.0
 51
180.0
  0
LINE
  5
5E8
330
1F
100
AcDbEntity
  8
0
100
AcDbLine
 10
640.8711475668528
 20
93.29091011878427
 30
0.0
 11
645.0826429417329
 21
42.87814329346349
 31
0.0
  0
LINE
  5
5E9
330
1F
100
AcDbEntity
  8
0
100
AcDbLine
 10
636.9120561589888
 20
29.44276507075267
 30
0.0
 11
686.5793799935913
 21
28.42129772663224
 31
0.0
  0
LINE
  5
5EA
330
1F
100
AcDbEntity
  8
0
100
AcDbLine
 10
624.4768810463497
 20
16.92460310988155
 30
0.0
 11
701.5096832209378
 21
8.567823890119029
 31
0.0
  0
LINE
  5
5EC
330
1F
100
AcDbEntity
  8
0
100
AcDbLine
 10
610.8234480904784
 20
113.6754200634759
 30
0.0
 11
613.6151613039742
 21
17.00202355953285
 31
0.0
  0
LINE
  5
5ED
330
1F
100
AcDbEntity
  8
0
100
AcDbLine
 10
630.8799531412073
 20
93.15834910524221
 30
0.0
 11
635.9452313942419
 21
30.3760046843513
 31
0.0
  0
ARC
  5
5EE
330
1F
100
AcDbEntity
  8
0
100
AcDbCircle
 10
639.9996715259645
 20
106.7179875244197
 30
0.0
 40
1.0
100
AcDbArc
 50
269.999999999996
 51
0.0
  0
ARC
  5
5EF
330
1F
100
AcDbEntity
  8
0
100
AcDbCircle
 10
639.9996715259639
 20
132.9078505389758
 30
0.0
 40
1.0
100
AcDbArc
 50
0.0
 51
90.0
  0
ARC
  5
5F0
330
1F
100
AcDbEntity
  8
0
100
AcDbCircle
 10
639.8733465373775
 20
93.22462961201336
 30
0.0
 40
1.0
100
AcDbArc
 50
3.800379351269176
 51
90.0
  0
ARC
  5
5F1
330
1F
100
AcDbEntity
  8
0
100
AcDbCircle
 10
631.8777541706826
 20
93.22462961201313
 30
0.0
 40
1.0
100
AcDbArc
 50
90.00000000000062
 51
183.8003793512692
  0
ARC
  5
5F2
330
1F
100
AcDbEntity
  8
0
100
AcDbCircle
 10
646.0804439712083
 20
42.9444238002344
 30
0.0
 40
1.0
100
AcDbArc
 50
183.8003793512694
 51
270.0000000000001
  0
LINE
  5
5F5
330
1F
100
AcDbEntity
  8
0
100
AcDbLine
 10
691.3839088979639
 20
24.02858300071284
 30
0.0
 11
691.7649060638209
 21
20.15540141979238
 31
0.0
  0
ARC
  5
5FB
330
1F
100
AcDbEntity
  8
0
100
AcDbCircle
 10
701.4098723518614
 20
7.57281746279591
 30
0.0
 40
1.0
100
AcDbArc
 50
359.9999999999873
 51
84.27172041426754
  0
ARC
  5
5FC
330
1F
100
AcDbEntity
  8
0
100
AcDbCircle
 10
623.6119507934873
 20
17.25540055604346
 30
0.0
 40
10.0
100
AcDbArc
 50
181.4518986337612
 51
264.2717204142674
  0
ARC
  5
5FD
330
1F
100
AcDbEntity
  8
0
100
AcDbCircle
 10
624.5922682023778
 20
17.91792370476707
 30
0.0
 40
1.0
100
AcDbArc
 50
181.4518986337612
 51
263.3740438881884
  0
ARC
  5
5FE
330
1F
100
AcDbEntity
  8
0
100
AcDbCircle
 10
699.7878852814937
 20
1.0
 30
0.0
 40
1.0
100
AcDbArc
 50
264.2717204142672
 51
346.3760930095256
  0
ARC
  5
5FF
330
1F
100
AcDbEntity
  8
0
100
AcDbCircle
 10
744.6880744123314
 20
1.0
 30
0.0
 40
1.0
100
AcDbArc
 50
270.0
 51
359.9999999999987
  0
ARC
  5
600
330
1F
100
AcDbEntity
  8
0
100
AcDbCircle
 10
737.3112686395962
 20
1.0
 30
0.0
 40
1.0
100
AcDbArc
 50
180.0
 51
270.0
  0
ARC
  5
601
330
1F
100
AcDbEntity
  8
0
100
AcDbCircle
 10
636.9430324237173
 20
30.44228519112221
 30
0.0
 40
1.0
100
AcDbArc
 50
183.8003793512687
 51
268.2249068132126
  0
ARC
  5
602
330
1F
100
AcDbEntity
  8
0
100
AcDbCircle
 10
981.5998696851265
 20
45.18015624846498
 30
0.0
 40
1.0
100
AcDbArc
 50
271.1522196712995
 51
356.54723362355
  0
ARC
  5
608
330
1F
100
AcDbEntity
  8
0
100
AcDbCircle
 10
518.9996715259645
 20
142.9078505389759
 30
0.0
 40
1.0
100
AcDbArc
 50
0.0
 51
90.0
  0
ARC
  5
609
330
1F
100
AcDbEntity
  8
0
100
AcDbCircle
 10
520.999671525964
 20
134.9078505389758
 30
0.0
 40
1.0
100
AcDbArc
 50
179.9999999999967
 51
270.0
  0
ARC
  5
60A
330
1F
100
AcDbEntity
  8
0
100
AcDbCircle
 10
1029.999671526004
 20
123.9078505389758
 30
0.0
 40
10.0
100
AcDbArc
 50
359.9999999995911
 51
90.0
  0
ARC
  5
60B
330
1F
100
AcDbEntity
  8
0
100
AcDbCircle
 10
989.9996715259639
 20
132.9078505389758
 30
0.0
 40
1.0
100
AcDbArc
 50
90.0
 51
176.54723362355
  0
ARC
  5
60F
330
1F
100
AcDbEntity
  8
0
100
AcDbCircle
 10
606.2836321977129
 20
121.9078505389758
 30
0.0
 40
1.0
100
AcDbArc
 50
0.0
 51
90.0
  0
LINE
  5
618
330
1F
100
AcDbEntity
  8
0
100
AcDbLine
 10
-300.0003284741067
 20
-320.0003284741065
 30
0.0
 11
299.9996715258935
 21
-320.0003284741065
 31
0.0
  0
LINE
  5
619
330
1F
100
AcDbEntity
  8
0
100
AcDbLine
 10
299.9996715258935
 20
-320.0003284741065
 30
0.0
 11
299.9996715258935
 21
219.9996715258935
 31
0.0
  0
LINE
  5
61A
330
1F
100
AcDbEntity
  8
0
100
AcDbLine
 10
299.9996715258935
 20
219.9996715258935
 30
0.0
 11
-300.0003284741067
 21
219.9996715258935
 31
0.0
  0
LINE
  5
61B
330
1F
100
AcDbEntity
  8
0
100
AcDbLine
 10
-300.0003284741067
 20
219.9996715258935
 30
0.0
 11
-300.0003284741067
 21
-320.0003284741065
 31
0.0
  0
LINE
  5
61C
330
1F
100
AcDbEntity
  8
0
100
AcDbLine
 10
299.9996715258935
 20
199.9996715258935
 30
0.0
 11
-300.0003284741067
 21
199.9996715258935
 31
0.0
  0
ARC
  5
62B
330
1F
100
AcDbEntity
  8
0
100
AcDbCircle
 10
687.9079932078821
 20
28.2780340373223
 30
0.0
 40
14.70894733193404
100
AcDbArc
 50
12.94137674998681
 51
68.6492377946703
  0
LINE
  5
630
330
1F
100
AcDbEntity
  8
0
100
AcDbLine
 10
693.263175801555
 20
41.97749209237065
 30
0.0
 11
750.9226059821153
 21
41.97749209237054
 31
0.0
  0
ARC
  5
631
330
1F
100
AcDbEntity
  8
0
100
AcDbCircle
 10
754.9019244212185
 20
23.81160921865717
 30
0.0
 40
18.59662001067022
100
AcDbArc
 50
102.3557362112572
 51
181.4511402434158
  0
ARC
  5
632
330
1F
100
AcDbEntity
  8
0
100
AcDbCircle
 10
692.7575643211603
 20
20.27635423759977
 30
0.0
 40
1.0
100
AcDbArc
 50
186.9470955790761
 51
256.4314300846749
  0
ARC
  5
633
330
1F
100
AcDbEntity
  8
0
100
AcDbCircle
 10
686.4206176112661
 20
23.42381891167383
 30
0.0
 40
5.0
100
AcDbArc
 50
6.947095579099889
 51
88.1804112645222
  0
LINE
  5
637
330
1F
100
AcDbEntity
  8
0
100
AcDbLine
 10
705.6880744123313
 20
19.26458645178001
 30
0.0
 11
736.3112686395961
 21
19.26458645178001
 31
0.0
  0
LINE
  5
638
330
1F
100
AcDbEntity
  8
0
  6
STRICHPUNKT
100
AcDbLine
 10
720.9996715259644
 20
51.97749209237065
 30
0.0
 11
720.999671525964
 21
-10.0
 31
0.0
  0
LINE
  5
64F
330
1F
100
AcDbEntity
  8
0
100
AcDbLine
 10
499.9996715261445
 20
142.9078505389833
 30
0.0
 11
499.9996715256425
 21
74.90785053898332
 31
0.0
  0
LINE
  5
650
330
1F
100
AcDbEntity
  8
0
100
AcDbLine
 10
511.9996715260271
 20
121.9078505389832
 30
0.0
 11
511.9996715256798
 21
74.90785053896843
 31
0.0
  0
ARC
  5
651
330
1F
100
AcDbEntity
  8
0
100
AcDbCircle
 10
500.9996715261445
 20
142.9078505389759
 30
0.0
 40
1.0
100
AcDbArc
 50
90.00000000000035
 51
179.9999999995767
  0
ARC
  5
652
330
1F
100
AcDbEntity
  8
0
100
AcDbCircle
 10
512.9996715260272
 20
121.9078505389758
 30
0.0
 40
1.0
100
AcDbArc
 50
90.0
 51
179.9999999995767
  0
ARC
  5
653
330
1F
100
AcDbEntity
  8
0
100
AcDbCircle
 10
510.9996715256797
 20
74.90785053897582
 30
0.0
 40
1.0
100
AcDbArc
 50
270.0
 51
359.9999999995761
  0
ARC
  5
654
330
1F
100
AcDbEntity
  8
0
100
AcDbCircle
 10
500.9996715256424
 20
74.90785053897593
 30
0.0
 40
1.0
100
AcDbArc
 50
179.9999999995769
 51
270.0
  0
DIMENSION
  5
6BC
330
1F
100
AcDbEntity
  8
0
100
AcDbDimension
  2
*D2
 10
250.0
 20
-390.0003284741064
 30
0.0
 11
0.0000000000000011
 21
-372.5003284741065
 31
0.0
 70
    32
  3
STANDART
100
AcDbAlignedDimension
 13
-250.0
 23
-344.9999999999996
 33
0.0
 14
250.0
 24
-345.0003284741065
 34
0.0
100
AcDbRotatedDimension
  0
DIMENSION
  5
6E6
330
1F
100
AcDbEntity
  8
0
100
AcDbDimension
  2
*D3
 10
299.9996715258935
 20
-460.0003284741064
 30
0.0
 11
-0.000328474106708
 21
-442.5003284741064
 31
0.0
 70
    32
  3
STANDART
100
AcDbAlignedDimension
 13
-300.0003284741069
 23
-345.0003284741065
 33
0.0
 14
299.9996715258935
 24
-345.0003284741065
 34
0.0
100
AcDbRotatedDimension
  0
DIMENSION
  5
70F
330
1F
100
AcDbEntity
  8
0
100
AcDbDimension
  2
*D4
 10
429.999671526115
 20
143.9078505388952
 30
0.0
 11
412.4996715261149
 21
217.3602314912762
 31
0.0
 70
    32
  3
STANDART
100
AcDbAlignedDimension
 13
469.586608022646
 23
133.9078505388951
 33
0.0
 14
474.9996715258935
 24
143.9078505388952
 34
0.0
 50
90.0
100
AcDbRotatedDimension
  0
DIMENSION
  5
74C
330
1F
100
AcDbEntity
  8
0
100
AcDbDimension
  2
*D5
 10
429.999671526115
 20
73.90785053897582
 30
0.0
 11
412.499671526115
 21
103.9078505389758
 31
0.0
 70
    32
  3
STANDART
100
AcDbAlignedDimension
 13
474.9996715258935
 23
133.9078505389757
 33
0.0
 14
474.9996715258935
 24
73.90785053897582
 34
0.0
 50
90.0
100
AcDbRotatedDimension
  0
DIMENSION
  5
77E
330
1F
100
AcDbEntity
  8
0
100
AcDbDimension
  2
*D6
 10
1039.999671525893
 20
273.9078505389758
 30
0.0
 11
769.9996715258937
 21
291.4078505389758
 31
0.0
 70
    32
  3
STANDART
100
AcDbAlignedDimension
 13
499.9996715258939
 23
158.9078505388951
 33
0.0
 14
1039.999671525893
 24
158.9078505388951
 34
0.0
100
AcDbRotatedDimension
  0
DIMENSION
  5
7DB
330
1F
100
AcDbEntity
  8
0
100
AcDbDimension
  2
*D7
 10
989.9996715259639
 20
203.9078505389758
 30
0.0
 11
814.9996715259639
 21
221.4078505389758
 31
0.0
 70
    32
  3
STANDART
100
AcDbAlignedDimension
 13
639.9996715259639
 23
158.9078505388951
 33
0.0
 14
989.9996715259639
 24
158.9078505388951
 34
0.0
100
AcDbRotatedDimension
  0
DIMENSION
  5
80E
330
1F
100
AcDbEntity
  8
0
100
AcDbDimension
  2
*D8
 10
1109.999671525823
 20
23.90785053897581
 30
0.0
 11
1092.499671525823
 21
78.90785053897598
 31
0.0
 70
    32
  3
STANDART
100
AcDbAlignedDimension
 13
1064.999671525823
 23
133.9078505389758
 33
0.0
 14
1064.999671525823
 24
23.90785053897582
 34
0.0
 50
90.0
100
AcDbRotatedDimension
  0
DIMENSION
  5
85B
330
1F
100
AcDbEntity
  8
0
100
AcDbDimension
  2
*D9
 10
745.6880744123314
 20
-70.0
 30
0.0
 11
820.9261696504265
 21
-52.5
 31
0.0
 70
    32
  3
STANDART
100
AcDbAlignedDimension
 13
699.6880744124173
 23
-25.0
 33
0.0
 14
745.6880744123314
 24
-25.0
 34
0.0
100
AcDbRotatedDimension
  0
LINE
  5
9E2
330
1F
100
AcDbEntity
  8
0
100
AcDbLine
 10
-250.0
 20
-269.9999999999996
 30
0.0
 11
250.0
 21
-269.9999999999996
 31
0.0
  0
LINE
  5
9E3
330
1F
100
AcDbEntity
  8
0
100
AcDbLine
 10
250.0
 20
-269.9999999999996
 30
0.0
 11
250.0
 21
80.00000000000033
 31
0.0
  0
LINE
  5
9E4
330
1F
100
AcDbEntity
  8
0
100
AcDbLine
 10
250.0
 20
80.00000000000033
 30
0.0
 11
-250.0
 21
80.00000000000033
 31
0.0
  0
LINE
  5
9E5
330
1F
100
AcDbEntity
  8
0
100
AcDbLine
 10
-250.0
 20
80.00000000000033
 30
0.0
 11
-250.0
 21
-269.9999999999996
 31
0.0
  0
ENDSEC
  0
SECTION
  2
OBJECTS
  0
DICTIONARY
  5
C
330
0
100
AcDbDictionary
  3
ACAD_GROUP
350
D
  3
ACAD_IMAGE_DICT
350
6C
  3
ACAD_IMAGE_VARS
350
6D
  3
ACAD_LAYOUT
350
1A
  3
ACAD_MLINESTYLE
350
17
  3
ACAD_PLOTSETTINGS
350
19
  3
ACAD_PLOTSTYLENAME
350
E
  3
ACDBHEADERROUNDTRIPXREC
350
AA8
  3
ACDBVARIABLEDICTIONARY
350
5E
  0
DICTIONARY
  5
156
330
2
100
AcDbDictionary
280
     1
  3
ACAD_LAYERFILTERS
360
502
  3
ACAD_LAYERSTATES
360
157
  0
DICTIONARY
  5
AC9
330
1F
100
AcDbDictionary
280
     1
  3
ACAD_LAYOUTSELFREF
360
ACA
  0
DICTIONARY
  5
ACB
330
50
100
AcDbDictionary
280
     1
  3
ACAD_LAYOUTSELFREF
360
ACC
  0
DICTIONARY
  5
ACF
330
57A
100
AcDbDictionary
280
     1
  3
ACAD_BLKREFS
360
AD0
  3
ACAD_UNLOAD
360
AD1
  0
DICTIONARY
  5
D
102
{ACAD_REACTORS
330
C
102
}
330
C
100
AcDbDictionary
  0
DICTIONARY
  5
6C
102
{ACAD_REACTORS
330
C
102
}
330
C
100
AcDbDictionary
  0
RASTERVARIABLES
  5
6D
102
{ACAD_REACTORS
330
C
102
}
330
C
100
AcDbRasterVariables
 90
        0
 70
     1
 71
     1
 72
     1
  0
DICTIONARY
  5
1A
102
{ACAD_REACTORS
330
C
102
}
330
C
100
AcDbDictionary
  0
DICTIONARY
  5
17
102
{ACAD_REACTORS
330
C
102
}
330
C
100
AcDbDictionary
  3
STANDARD
350
18
  0
DICTIONARY
  5
19
102
{ACAD_REACTORS
330
C
102
}
330
C
100
AcDbDictionary
  0
ACDBDICTIONARYWDFLT
  5
E
102
{ACAD_REACTORS
330
C
102
}
330
C
100
AcDbDictionary
281
     1
  3
Normal
350
F
100
AcDbDictionaryWithDefault
340
F
  0
DICTIONARY
  5
AA8
102
{ACAD_REACTORS
330
C
102
}
330
C
100
AcDbDictionary
  3
CEPSNTYPE
350
AB2
  3
DIMSTYLEDATA
350
AB6
  3
FINGERPRINTGUID
350
AB3
  3
HYPERLINKBASE
350
AAB
  3
INSUNITS
350
AB1
  3
LAYOUTDICT
350
AAD
  3
LWETCUNION
350
AB0
  3
PLOTSETDICT
350
AAE
  3
PLOTSTYLNAMDICT
350
AAF
  3
PSVPSCALE
350
AB5
  3
PUCSBASE
350
AB9
  3
PUCSORGBACK
350
ABF
  3
PUCSORGBOTTOM
350
ABB
  3
PUCSORGFRONT
350
ABE
  3
PUCSORGLEFT
350
ABC
  3
PUCSORGRIGHT
350
ABD
  3
PUCSORGTOP
350
ABA
  3
PUCSORTHOREF
350
AB7
  3
PUCSORTHOVIEW
350
AB8
  3
STYLESHEET
350
AAC
  3
TSTACKALIGN
350
AA9
  3
TSTACKSIZE
350
AAA
  3
UCSBASE
350
AC2
  3
UCSORGBACK
350
AC8
  3
UCSORGBOTTOM
350
AC4
  3
UCSORGFRONT
350
AC7
  3
UCSORGLEFT
350
AC5
  3
UCSORGRIGHT
350
AC6
  3
UCSORGTOP
350
AC3
  3
UCSORTHOREF
350
AC0
  3
UCSORTHOVIEW
350
AC1
  3
VERSIONGUID
350
AB4
  0
DICTIONARY
  5
5E
102
{ACAD_REACTORS
330
C
102
}
330
C
100
AcDbDictionary
  3
DIMASSOC
350
5F
  3
HIDETEXT
350
63
  0
DICTIONARY
  5
502
102
{ACAD_REACTORS
330
156
102
}
330
156
100
AcDbDictionary
280
     1
  0
DICTIONARY
  5
157
102
{ACAD_REACTORS
330
156
102
}
330
156
100
AcDbDictionary
  0
XRECORD
  5
ACA
102
{ACAD_REACTORS
330
AC9
102
}
330
AC9
100
AcDbXrecord
340
1F
  0
XRECORD
  5
ACC
102
{ACAD_REACTORS
330
ACB
102
}
330
ACB
100
AcDbXrecord
340
50
  0
IDBUFFER
  5
AD0
102
{ACAD_REACTORS
330
ACF
102
}
330
ACF
100
AcDbIdBuffer
330
57F
  0
IDBUFFER
  5
AD1
102
{ACAD_REACTORS
330
ACF
102
}
330
ACF
100
AcDbIdBuffer
  0
MLINESTYLE
  5
18
102
{ACAD_REACTORS
330
17
102
}
330
17
100
AcDbMlineStyle
  2
STANDARD
 70
     0
  3

 62
   256
 51
90.0
 52
90.0
 71
     2
 49
0.5
 62
   256
  6
BYLAYER
 49
-0.5
 62
   256
  6
BYLAYER
  0
ACDBPLACEHOLDER
  5
F
102
{ACAD_REACTORS
330
E
102
}
330
E
100
AcDbPlaceHolder
280
     0
  0
XRECORD
  5
AB2
102
{ACAD_REACTORS
330
AA8
102
}
330
AA8
100
AcDbXrecord
 90
        0
  0
XRECORD
  5
AB6
102
{ACAD_REACTORS
330
AA8
102
}
330
AA8
100
AcDbXrecord
1000
DSTYLE
1002
{
1070
   278
 70
    44
1002
}
  0
XRECORD
  5
AB3
102
{ACAD_REACTORS
330
AA8
102
}
330
AA8
100
AcDbXrecord
  1
{FDEAD578-A652-11D2-9A35-0060089B3A3F}
  0
XRECORD
  5
AAB
102
{ACAD_REACTORS
330
AA8
102
}
330
AA8
100
AcDbXrecord
  1

  0
XRECORD
  5
AB1
102
{ACAD_REACTORS
330
AA8
102
}
330
AA8
100
AcDbXrecord
 90
        4
  0
XRECORD
  5
AAD
102
{ACAD_REACTORS
330
AA8
102
}
330
AA8
100
AcDbXrecord
340
1A
  0
XRECORD
  5
AB0
102
{ACAD_REACTORS
330
AA8
102
}
330
AA8
100
AcDbXrecord
 90
    10781
  0
XRECORD
  5
AAE
102
{ACAD_REACTORS
330
AA8
102
}
330
AA8
100
AcDbXrecord
340
19
  0
XRECORD
  5
AAF
102
{ACAD_REACTORS
330
AA8
102
}
330
AA8
100
AcDbXrecord
340
E
  0
XRECORD
  5
AB5
102
{ACAD_REACTORS
330
AA8
102
}
330
AA8
100
AcDbXrecord
 40
0.0
  0
XRECORD
  5
AB9
102
{ACAD_REACTORS
330
AA8
102
}
330
AA8
100
AcDbXrecord
340
0
  0
XRECORD
  5
ABF
102
{ACAD_REACTORS
330
AA8
102
}
330
AA8
100
AcDbXrecord
 10
0.0
 20
0.0
 30
0.0
  0
XRECORD
  5
ABB
102
{ACAD_REACTORS
330
AA8
102
}
330
AA8
100
AcDbXrecord
 10
0.0
 20
0.0
 30
0.0
  0
XRECORD
  5
ABE
102
{ACAD_REACTORS
330
AA8
102
}
330
AA8
100
AcDbXrecord
 10
0.0
 20
0.0
 30
0.0
  0
XRECORD
  5
ABC
102
{ACAD_REACTORS
330
AA8
102
}
330
AA8
100
AcDbXrecord
 10
0.0
 20
0.0
 30
0.0
  0
XRECORD
  5
ABD
102
{ACAD_REACTORS
330
AA8
102
}
330
AA8
100
AcDbXrecord
 10
0.0
 20
0.0
 30
0.0
  0
XRECORD
  5
ABA
102
{ACAD_REACTORS
330
AA8
102
}
330
AA8
100
AcDbXrecord
 10
0.0
 20
0.0
 30
0.0
  0
XRECORD
  5
AB7
102
{ACAD_REACTORS
330
AA8
102
}
330
AA8
100
AcDbXrecord
340
0
  0
XRECORD
  5
AB8
102
{ACAD_REACTORS
330
AA8
102
}
330
AA8
100
AcDbXrecord
 70
     0
  0
XRECORD
  5
AAC
102
{ACAD_REACTORS
330
AA8
102
}
330
AA8
100
AcDbXrecord
  1
TP-mono-duenn.ctb
  0
XRECORD
  5
AA9
102
{ACAD_REACTORS
330
AA8
102
}
330
AA8
100
AcDbXrecord
 90
        1
  0
XRECORD
  5
AAA
102
{ACAD_REACTORS
330
AA8
102
}
330
AA8
100
AcDbXrecord
 90
       70
  0
XRECORD
  5
AC2
102
{ACAD_REACTORS
330
AA8
102
}
330
AA8
100
AcDbXrecord
340
0
  0
XRECORD
  5
AC8
102
{ACAD_REACTORS
330
AA8
102
}
330
AA8
100
AcDbXrecord
 10
0.0
 20
0.0
 30
0.0
  0
XRECORD
  5
AC4
102
{ACAD_REACTORS
330
AA8
102
}
330
AA8
100
AcDbXrecord
 10
0.0
 20
0.0
 30
0.0
  0
XRECORD
  5
AC7
102
{ACAD_REACTORS
330
AA8
102
}
330
AA8
100
AcDbXrecord
 10
0.0
 20
0.0
 30
0.0
  0
XRECORD
  5
AC5
102
{ACAD_REACTORS
330
AA8
102
}
330
AA8
100
AcDbXrecord
 10
0.0
 20
0.0
 30
0.0
  0
XRECORD
  5
AC6
102
{ACAD_REACTORS
330
AA8
102
}
330
AA8
100
AcDbXrecord
 10
0.0
 20
0.0
 30
0.0
  0
XRECORD
  5
AC3
102
{ACAD_REACTORS
330
AA8
102
}
330
AA8
100
AcDbXrecord
 10
0.0
 20
0.0
 30
0.0
  0
XRECORD
  5
AC0
102
{ACAD_REACTORS
330
AA8
102
}
330
AA8
100
AcDbXrecord
340
0
  0
XRECORD
  5
AC1
102
{ACAD_REACTORS
330
AA8
102
}
330
AA8
100
AcDbXrecord
 70
     0
  0
XRECORD
  5
AB4
102
{ACAD_REACTORS
330
AA8
102
}
330
AA8
100
AcDbXrecord
  1
{867104D2-AB90-4EA3-B7C7-7DAF118D7680}
  0
DICTIONARYVAR
  5
5F
102
{ACAD_REACTORS
330
5E
102
}
330
5E
100
DictionaryVariables
280
     0
  1
2
  0
DICTIONARYVAR
  5
63
102
{ACAD_REACTORS
330
5E
102
}
330
5E
100
DictionaryVariables
280
     0
  1
1
  0
ENDSEC
  0
EOF
