  0
SECTION
  2
HEADER
  9
$ACADVER
  1
AC1009
  9
$INSBASE
 10
0.0
 20
0.0
 30
0.0
  9
$EXTMIN
 10
-1472.8614764906599
 20
-1146.603507743253
 30
-0.0000000000000667
  9
$EXTMAX
 10
3493.3512496418448
 20
1949.9287300261269
 30
0.0000000000000249
  9
$LIMMIN
 10
0.0
 20
0.0
  9
$LIMMAX
 10
297.0
 20
210.0
  9
$ORTHOMODE
 70
     0
  9
$REGENMODE
 70
     1
  9
$FILLMODE
 70
     1
  9
$QTEXTMODE
 70
     0
  9
$MIRRTEXT
 70
     1
  9
$DRAGMODE
 70
     2
  9
$LTSCALE
 40
1.0
  9
$OSMODE
 70
    37
  9
$ATTMODE
 70
     1
  9
$TEXTSIZE
 40
3.0
  9
$TRACEWID
 40
1.0
  9
$TEXTSTYLE
  7
STANDARD
  9
$CLAYER
  8
0
  9
$CELTYPE
  6
CONTINUOUS
  9
$CECOLOR
 62
     7
  9
$DIMSCALE
 40
1.0
  9
$DIMASZ
 40
20.0
  9
$DIMEXO
 40
1.0
  9
$DIMDLI
 40
7.5
  9
$DIMRND
 40
0.01
  9
$DIMDLE
 40
0.0
  9
$DIMEXE
 40
2.0
  9
$DIMTP
 40
0.0
  9
$DIMTM
 40
0.0
  9
$DIMTXT
 40
24.0
  9
$DIMCEN
 40
0.09
  9
$DIMTSZ
 40
0.0
  9
$DIMTOL
 70
     0
  9
$DIMLIM
 70
     0
  9
$DIMTIH
 70
     1
  9
$DIMTOH
 70
     0
  9
$DIMSE1
 70
     0
  9
$DIMSE2
 70
     0
  9
$DIMTAD
 70
     1
  9
$DIMZIN
 70
     3
  9
$DIMBLK
  1
TC_DIMARROW_FILLED30
  9
$DIMASO
 70
     0
  9
$DIMSHO
 70
     1
  9
$DIMPOST
  1
<>mm
  9
$DIMAPOST
  1

  9
$DIMALT
 70
     0
  9
$DIMALTD
 70
     2
  9
$DIMALTF
 40
1.0
  9
$DIMLFAC
 40
1.0
  9
$DIMTOFL
 70
     1
  9
$DIMTVP
 40
0.0
  9
$DIMTIX
 70
     0
  9
$DIMSOXD
 70
     0
  9
$DIMSAH
 70
     0
  9
$DIMBLK1
  1

  9
$DIMBLK2
  1

  9
$DIMSTYLE
  2
STANDARD
  9
$DIMCLRD
 70
     7
  9
$DIMCLRE
 70
     7
  9
$DIMCLRT
 70
     7
  9
$DIMTFAC
 40
1.0
  9
$DIMGAP
 40
2.0
  9
$LUNITS
 70
     2
  9
$LUPREC
 70
     2
  9
$SKETCHINC
 40
1.0
  9
$FILLETRAD
 40
5.0
  9
$AUNITS
 70
     0
  9
$AUPREC
 70
     2
  9
$MENU
  1
acad
  9
$ELEVATION
 40
0.0
  9
$PELEVATION
 40
0.0
  9
$THICKNESS
 40
0.0
  9
$LIMCHECK
 70
     0
  9
$BLIPMODE
 70
     0
  9
$CHAMFERA
 40
0.0
  9
$CHAMFERB
 40
0.0
  9
$SKPOLY
 70
     0
  9
$TDCREATE
 40
2444972.083333333
  9
$TDUPDATE
 40
2456811.4196518641
  9
$TDINDWG
 40
0.0014081481
  9
$TDUSRTIMER
 40
0.0014081481
  9
$USRTIMER
 70
     1
  9
$ANGBASE
 50
0.0
  9
$ANGDIR
 70
     0
  9
$PDMODE
 70
     0
  9
$PDSIZE
 40
0.0
  9
$PLINEWID
 40
0.0
  9
$COORDS
 70
     1
  9
$SPLFRAME
 70
     0
  9
$SPLINETYPE
 70
     5
  9
$SPLINESEGS
 70
    20
  9
$ATTDIA
 70
     0
  9
$ATTREQ
 70
     1
  9
$HANDLING
 70
     1
  9
$HANDSEED
  5
72E
  9
$SURFTAB1
 70
     6
  9
$SURFTAB2
 70
     6
  9
$SURFTYPE
 70
     6
  9
$SURFU
 70
     6
  9
$SURFV
 70
     6
  9
$UCSNAME
  2

  9
$UCSORG
 10
0.0
 20
0.0
 30
0.0
  9
$UCSXDIR
 10
1.0
 20
0.0
 30
0.0
  9
$UCSYDIR
 10
0.0
 20
1.0
 30
0.0
  9
$PUCSNAME
  2

  9
$PUCSORG
 10
0.0
 20
0.0
 30
0.0
  9
$PUCSXDIR
 10
1.0
 20
0.0
 30
0.0
  9
$PUCSYDIR
 10
0.0
 20
1.0
 30
0.0
  9
$USERI1
 70
     0
  9
$USERI2
 70
     0
  9
$USERI3
 70
     0
  9
$USERI4
 70
     0
  9
$USERI5
 70
     0
  9
$USERR1
 40
0.0
  9
$USERR2
 40
0.0
  9
$USERR3
 40
0.0
  9
$USERR4
 40
0.0
  9
$USERR5
 40
0.0
  9
$WORLDVIEW
 70
     1
  9
$SHADEDGE
 70
     3
  9
$SHADEDIF
 70
    70
  9
$TILEMODE
 70
     1
  9
$MAXACTVP
 70
    16
  9
$PLIMCHECK
 70
     0
  9
$PEXTMIN
 10
0.0
 20
0.0
 30
0.0
  9
$PEXTMAX
 10
0.0
 20
0.0
 30
0.0
  9
$PLIMMIN
 10
0.0
 20
0.0
  9
$PLIMMAX
 10
0.0
 20
0.0
  9
$UNITMODE
 70
     0
  9
$VISRETAIN
 70
     0
  9
$PLINEGEN
 70
     1
  9
$PSLTSCALE
 70
     1
  0
ENDSEC
  0
SECTION
  2
TABLES
  0
TABLE
  2
VPORT
 70
     1
  0
VPORT
  2
*ACTIVE
 70
     0
 10
0.0
 20
0.0
 11
1.0
 21
1.0
 12
1206.2440613832509
 22
-644.21198246131189
 13
0.0
 23
0.0
 14
5.0
 24
5.0
 15
5.0
 25
5.0
 16
0.0
 26
0.0
 36
1.0
 17
850.13050985530185
 27
407.96797177494591
 37
0.0
 40
5114.9400005465714
 41
1.5597964376590321
 42
50.0
 43
0.0
 44
0.0
 50
0.0
 51
0.0
 71
     0
 72
   100
 73
     1
 74
     1
 75
     0
 76
     0
 77
     0
 78
     0
  0
ENDTAB
  0
TABLE
  2
LTYPE
 70
    14
  0
LTYPE
  2
CONTINUOUS
 70
     0
  3
Solid line
 72
    65
 73
     0
 40
0.0
  0
LTYPE
  2
DURCHGEHEND
 70
     0
  3
Durchgehend
 72
    65
 73
     0
 40
0.0
  0
LTYPE
  2
RAND
 70
     0
  3
Rand
 72
    65
 73
     6
 40
1.75
 49
0.5
 49
-0.25
 49
0.5
 49
-0.25
 49
0.0
 49
-0.25
  0
LTYPE
  2
MITTE
 70
     0
  3
Mitte
 72
    65
 73
     4
 40
2.0
 49
1.25
 49
-0.25
 49
0.25
 49
-0.25
  0
LTYPE
  2
STRICHPUNKT
 70
     0
  3
Strichpunkt
 72
    65
 73
     4
 40
1.0
 49
0.5
 49
-0.25
 49
0.0
 49
-0.25
  0
LTYPE
  2
GESTRICHELT
 70
     0
  3
Gestrichelt
 72
    65
 73
     2
 40
0.75
 49
0.5
 49
-0.25
  0
LTYPE
  2
GETEILT
 70
     0
  3
Geteilt
 72
    65
 73
     6
 40
1.25
 49
0.5
 49
-0.25
 49
0.0
 49
-0.25
 49
0.0
 49
-0.25
  0
LTYPE
  2
PUNKT
 70
     0
  3
Punkt
 72
    65
 73
     2
 40
0.25
 49
0.0
 49
-0.25
  0
LTYPE
  2
VERDECKT
 70
     0
  3
Verdeckt
 72
    65
 73
     2
 40
0.375
 49
0.25
 49
-0.125
  0
LTYPE
  2
$INVISIBLE
 70
     0
  3
$INVISIBLE
 72
    65
 73
     2
 40
200.0
 49
-100.0
 49
-100.0
  0
LTYPE
  2
$SNAPEXT
 70
     0
  3
$SNAPEXT
 72
    65
 73
     2
 40
0.04
 49
0.02
 49
-0.02
  0
LTYPE
  2
$AUXILIARY
 70
     0
  3
$AUXILIARY
 72
    65
 73
     2
 40
0.1
 49
0.05
 49
-0.05
  0
ENDTAB
  0
TABLE
  2
LAYER
 70
     3
  0
LAYER
  2
0
 70
     0
 62
     7
  6
DURCHGEHEND
  0
LAYER
  2
KERA4
 70
     0
 62
     1
  6
CONTINUOUS
  0
LAYER
  2
LAYER01
 70
     0
 62
     7
  6
CONTINUOUS
  0
ENDTAB
  0
TABLE
  2
STYLE
 70
     2
  0
STYLE
  2
STANDARD
 70
     0
 40
0.0
 41
1.0
 50
0.0
 71
     0
 42
3.0
  3
txt
  4

  0
STYLE
  2
SIMPLEX
 70
     0
 40
0.0
 41
1.0
 50
0.0
 71
     0
 42
0.0
  3
simplex
  4

  0
ENDTAB
  0
TABLE
  2
VIEW
 70
     1
  0
VIEW
  2
ANSICHT_0
 70
     0
 40
210.0
 10
148.5
 20
105.0
 41
297.0
 11
0.0
 21
0.0
 31
1.0
 12
0.0
 22
0.0
 32
0.0
 42
92.090489446728768
 43
0.0
 44
0.0
 50
0.0
 71
     0
  0
ENDTAB
  0
TABLE
  2
UCS
 70
     0
  0
ENDTAB
  0
TABLE
  2
APPID
 70
     9
  0
APPID
  2
ACAD
 70
     0
  0
APPID
  2
TCAD
 70
     0
  0
APPID
  2
ACAD_MLEADERVER
 70
     0
  0
APPID
  2
ACAD_DSTYLE_DIMJAG
 70
     0
  0
APPID
  2
ACAD_DSTYLE_DIMTALN
 70
     0
  0
APPID
  2
ACAD_PSEXT
 70
     0
  0
APPID
  2
ACAD_NAV_VCDISPLAY
 70
     0
  0
APPID
  2
DCO15
 70
     0
  0
APPID
  2
ACAD_EXEMPT_FROM_CAD_STANDARDS
 70
     0
  0
ENDTAB
  0
TABLE
  2
DIMSTYLE
 70
     2
  0
DIMSTYLE
  2
STANDARD
 70
     0
  3
<>mm
  4

  5
TC_DIMARROW_FILLED30
  6

  7

 40
1.0
 41
20.0
 42
1.0
 43
7.5
 44
2.0
 45
0.01
 46
0.0
 47
0.0
 48
0.0
140
24.0
141
0.09
142
0.0
143
1.0
144
1.0
145
0.0
146
1.0
147
2.0
 71
     0
 72
     0
 73
     1
 74
     0
 75
     0
 76
     0
 77
     1
 78
     3
170
     0
171
     2
172
     1
173
     0
174
     0
175
     0
176
     7
177
     7
178
     7
  0
ENDTAB
  0
ENDSEC
  0
SECTION
  2
BLOCKS
  0
BLOCK
  8
0
  2
$MODEL_SPACE
 70
     0
 10
0.0
 20
0.0
 30
0.0
  3
$MODEL_SPACE
  1

  0
ENDBLK
  5
E
  8
0
  0
BLOCK
 67
     1
  8
0
  2
$PAPER_SPACE
 70
     0
 10
0.0
 20
0.0
 30
0.0
  3
$PAPER_SPACE
  1

  0
ENDBLK
  5
10
 67
     1
  8
0
  0
BLOCK
  8
0
  2
TC_DIMARROW_FILLED30
 70
     0
 10
0.0
 20
0.0
 30
0.0
  3
TC_DIMARROW_FILLED30
  1

  0
SOLID
  5
2C
  8
0
  6
BYBLOCK
 62
     0
 10
0.0
 20
0.0
 30
0.0
 11
-1.0
 21
0.267949
 31
0.0
 12
-1.0
 22
-0.267949
 32
0.0
 13
-1.0
 23
-0.267949
 33
0.0
  0
ENDBLK
  5
2D
  8
0
  0
BLOCK
  8
0
  2
*D1
 70
     1
 10
0.0
 20
0.0
 30
0.0
  3
*D1
  1

  0
LINE
  5
34
  8
0
  6
DURCHGEHEND
 62
     7
 10
-64.158397546661206
 20
574.97104023516818
 30
0.0
 11
-63.873759075224449
 21
714.64313629617766
 31
0.0
1001
TCAD
1000
TCW_ATTRIBUTE
1002
{
1000
657
1002
}
  0
LINE
  5
35
  8
0
  6
DURCHGEHEND
 62
     7
 10
592.76622747965894
 20
573.63229021716199
 30
0.0
 11
593.05086595109549
 21
713.30438627817148
 31
0.0
1001
TCAD
1000
TCW_ATTRIBUTE
1002
{
1000
657
1002
}
  0
POLYLINE
  5
36
  8
0
  6
DURCHGEHEND
 62
     7
 66
     1
 10
0.0
 20
0.0
 30
0.0
 70
   128
1001
TCAD
1000
TCW_ATTRIBUTE
1002
{
1000
657
1002
}
  0
VERTEX
  5
385
  8
0
  6
DURCHGEHEND
 62
     7
 10
-43.877876407323861
 20
712.60238243263791
 30
0.0
  0
VERTEX
  5
386
  8
0
  6
DURCHGEHEND
 62
     7
 10
-43.877876407323861
 20
712.60238243263791
 30
0.0
  0
VERTEX
  5
387
  8
0
  6
DURCHGEHEND
 62
     7
 10
-43.877876407323861
 20
712.60238243263791
 30
0.0
  0
VERTEX
  5
388
  8
0
  6
DURCHGEHEND
 62
     7
 10
237.29996700975229
 20
712.02936868251015
 30
0.0
  0
SEQEND
  5
389
  8
0
  6
DURCHGEHEND
 62
     7
  0
POLYLINE
  5
37
  8
0
  6
DURCHGEHEND
 62
     7
 66
     1
 10
0.0
 20
0.0
 30
0.0
 70
   128
1001
TCAD
1000
TCW_ATTRIBUTE
1002
{
1000
657
1002
}
  0
VERTEX
  5
38A
  8
0
  6
DURCHGEHEND
 62
     7
 10
573.0468316798781
 20
711.34514844779949
 30
0.0
  0
VERTEX
  5
38B
  8
0
  6
DURCHGEHEND
 62
     7
 10
573.0468316798781
 20
711.34514844779949
 30
0.0
  0
VERTEX
  5
38C
  8
0
  6
DURCHGEHEND
 62
     7
 10
573.0468316798781
 20
711.34514844779949
 30
0.0
  0
VERTEX
  5
38D
  8
0
  6
DURCHGEHEND
 62
     7
 10
291.86898826280219
 20
711.91816219792724
 30
0.0
  0
SEQEND
  5
38E
  8
0
  6
DURCHGEHEND
 62
     7
  0
POLYLINE
  5
39
  8
0
  6
DURCHGEHEND
 62
     7
 66
     1
 10
0.0
 20
0.0
 30
0.0
 70
   129
1001
TCAD
1000
TCW_ATTRIBUTE
1002
{
1000
657
1002
}
  0
VERTEX
  5
398
  8
0
  6
DURCHGEHEND
 62
     7
 10
-63.877834876882851
 20
712.64314044922185
 30
0.0
  0
VERTEX
  5
399
  8
0
  6
DURCHGEHEND
 62
     7
 10
-43.884669410087852
 20
709.26905602104466
 30
0.0
  0
VERTEX
  5
39A
  8
0
  6
DURCHGEHEND
 62
     7
 10
-43.871083404559862
 20
715.93570884423104
 30
0.0
  0
SEQEND
  5
39B
  8
0
  6
DURCHGEHEND
 62
     7
  0
INSERT
  5
38
  8
0
  6
CONTINUOUS
 62
     7
  2
*U16
 10
0.0
 20
0.0
 30
0.0
1001
TCAD
1000
TCW_ATTRIBUTE
1002
{
1000
657
1002
}
1001
ACAD
1002
{
1000
R14_HATCH_DATA
1000
38
1011
1.0
1021
0.0
1031
0.0
1021
0.0
1031
0.0
1011
0.0
1021
0.0
1031
0.0
1021
1.0
1031
0.0
1011
0.0
1021
0.0
1031
0.0
1021
0.0
1031
1.0
1040
0.0
1010
0.0
1020
0.0
1030
1.0
1000
SOLID
1070
     1
1070
     1
1071
        1
1071
        3
1070
     0
1070
     1
1071
        3
1040
-63.877834876882851
1040
712.64314044922185
1040
-43.884669410087852
1040
709.26905602104466
1040
-43.871083404559862
1040
715.93570884423104
1071
        1
1005
39
1070
     0
1070
     0
1071
        0
1002
}
  0
POLYLINE
  5
3B
  8
0
  6
DURCHGEHEND
 62
     7
 66
     1
 10
0.0
 20
0.0
 30
0.0
 70
   129
1001
TCAD
1000
TCW_ATTRIBUTE
1002
{
1000
657
1002
}
  0
VERTEX
  5
3A5
  8
0
  6
DURCHGEHEND
 62
     7
 10
593.04679014943724
 20
711.30439043121555
 30
0.0
  0
VERTEX
  5
3A6
  8
0
  6
DURCHGEHEND
 62
     7
 10
573.05362468264218
 20
714.67847485939262
 30
0.0
  0
VERTEX
  5
3A7
  8
0
  6
DURCHGEHEND
 62
     7
 10
573.04003867711424
 20
708.01182203620635
 30
0.0
  0
SEQEND
  5
3A8
  8
0
  6
DURCHGEHEND
 62
     7
  0
INSERT
  5
3A
  8
0
  6
CONTINUOUS
 62
     7
  2
*U17
 10
0.0
 20
0.0
 30
0.0
1001
TCAD
1000
TCW_ATTRIBUTE
1002
{
1000
657
1002
}
1001
ACAD
1002
{
1000
R14_HATCH_DATA
1000
3A
1011
1.0
1021
0.0
1031
0.0
1021
0.0
1031
0.0
1011
0.0
1021
0.0
1031
0.0
1021
1.0
1031
0.0
1011
0.0
1021
0.0
1031
0.0
1021
0.0
1031
1.0
1040
0.0
1010
0.0
1020
0.0
1030
1.0
1000
SOLID
1070
     1
1070
     1
1071
        1
1071
        3
1070
     0
1070
     1
1071
        3
1040
593.04679014943724
1040
711.30439043121555
1040
573.05362468264218
1040
714.67847485939262
1040
573.04003867711424
1040
708.01182203620635
1071
        1
1005
3B
1070
     0
1070
     0
1071
        0
1002
}
  0
INSERT
  5
3C
  8
0
  6
CONTINUOUS
 62
     7
  2
*U18
 10
0.0
 20
0.0
 30
0.0
  0
ENDBLK
  5
3D
  8
0
  0
BLOCK
  8
0
  2
*D2
 70
     1
 10
0.0
 20
0.0
 30
0.0
  3
*D2
  1

  0
LINE
  5
41
  8
0
  6
DURCHGEHEND
 62
     7
 10
499.66275794290613
 20
643.04979978693791
 30
0.0
 11
691.25081216704302
 21
642.90754214993763
 31
0.0
1001
TCAD
1000
TCW_ATTRIBUTE
1002
{
1000
557
1002
}
  0
LINE
  5
42
  8
0
  6
DURCHGEHEND
 62
     7
 10
499.24843941213828
 20
85.058799707041075
 30
0.0
 11
690.83649363627524
 21
84.916542070040805
 31
0.0
1001
TCAD
1000
TCW_ATTRIBUTE
1002
{
1000
557
1002
}
  0
POLYLINE
  5
43
  8
0
  6
DURCHGEHEND
 62
     7
 66
     1
 10
0.0
 20
0.0
 30
0.0
 70
   128
1001
TCAD
1000
TCW_ATTRIBUTE
1002
{
1000
557
1002
}
  0
VERTEX
  5
3AD
  8
0
  6
DURCHGEHEND
 62
     7
 10
689.23596235639923
 20
622.90903269946716
 30
0.0
  0
VERTEX
  5
3AE
  8
0
  6
DURCHGEHEND
 62
     7
 10
689.23596235639923
 20
622.90903269946716
 30
0.0
  0
VERTEX
  5
3AF
  8
0
  6
DURCHGEHEND
 62
     7
 10
689.23596235639923
 20
622.90903269946716
 30
0.0
  0
VERTEX
  5
3B0
  8
0
  6
DURCHGEHEND
 62
     7
 10
689.05397445741153
 20
377.81352714618691
 30
0.0
  0
SEQEND
  5
3B1
  8
0
  6
DURCHGEHEND
 62
     7
  0
POLYLINE
  5
44
  8
0
  6
DURCHGEHEND
 62
     7
 66
     1
 10
0.0
 20
0.0
 30
0.0
 70
   128
1001
TCAD
1000
TCW_ATTRIBUTE
1002
{
1000
557
1002
}
  0
VERTEX
  5
3B2
  8
0
  6
DURCHGEHEND
 62
     7
 10
688.85134454958541
 20
104.9180215929064
 30
0.0
  0
VERTEX
  5
3B3
  8
0
  6
DURCHGEHEND
 62
     7
 10
688.85134454958541
 20
104.9180215929064
 30
0.0
  0
VERTEX
  5
3B4
  8
0
  6
DURCHGEHEND
 62
     7
 10
688.85134454958541
 20
104.9180215929064
 30
0.0
  0
VERTEX
  5
3B5
  8
0
  6
DURCHGEHEND
 62
     7
 10
689.03333244857299
 20
350.0135271461869
 30
0.0
  0
SEQEND
  5
3B6
  8
0
  6
DURCHGEHEND
 62
     7
  0
POLYLINE
  5
46
  8
0
  6
DURCHGEHEND
 62
     7
 66
     1
 10
0.0
 20
0.0
 30
0.0
 70
   129
1001
TCAD
1000
TCW_ATTRIBUTE
1002
{
1000
557
1002
}
  0
VERTEX
  5
3C0
  8
0
  6
DURCHGEHEND
 62
     7
 10
689.25081271837621
 20
642.90902718613529
 30
0.0
  0
VERTEX
  5
3C1
  8
0
  6
DURCHGEHEND
 62
     7
 10
685.90262994195461
 20
622.91150775979679
 30
0.0
  0
VERTEX
  5
3C2
  8
0
  6
DURCHGEHEND
 62
     7
 10
692.56929477084384
 20
622.90655763913765
 30
0.0
  0
SEQEND
  5
3C3
  8
0
  6
DURCHGEHEND
 62
     7
  0
INSERT
  5
45
  8
0
  6
CONTINUOUS
 62
     7
  2
*U19
 10
0.0
 20
0.0
 30
0.0
1001
TCAD
1000
TCW_ATTRIBUTE
1002
{
1000
557
1002
}
1001
ACAD
1002
{
1000
R14_HATCH_DATA
1000
45
1011
1.0
1021
0.0
1031
0.0
1021
0.0
1031
0.0
1011
0.0
1021
0.0
1031
0.0
1021
1.0
1031
0.0
1011
0.0
1021
0.0
1031
0.0
1021
0.0
1031
1.0
1040
0.0
1010
0.0
1020
0.0
1030
1.0
1000
SOLID
1070
     1
1070
     1
1071
        1
1071
        3
1070
     0
1070
     1
1071
        3
1040
689.25081271837621
1040
642.90902718613529
1040
685.90262994195461
1040
622.91150775979679
1040
692.56929477084384
1040
622.90655763913765
1071
        1
1005
46
1070
     0
1070
     0
1071
        0
1002
}
  0
POLYLINE
  5
48
  8
0
  6
DURCHGEHEND
 62
     7
 66
     1
 10
0.0
 20
0.0
 30
0.0
 70
   129
1001
TCAD
1000
TCW_ATTRIBUTE
1002
{
1000
557
1002
}
  0
VERTEX
  5
3CD
  8
0
  6
DURCHGEHEND
 62
     7
 10
688.83649418760831
 20
84.918027106238483
 30
0.0
  0
VERTEX
  5
3CE
  8
0
  6
DURCHGEHEND
 62
     7
 10
692.18467696403002
 20
104.9155465325769
 30
0.0
  0
VERTEX
  5
3CF
  8
0
  6
DURCHGEHEND
 62
     7
 10
685.51801213514068
 20
104.9204966532359
 30
0.0
  0
SEQEND
  5
3D0
  8
0
  6
DURCHGEHEND
 62
     7
  0
INSERT
  5
47
  8
0
  6
CONTINUOUS
 62
     7
  2
*U20
 10
0.0
 20
0.0
 30
0.0
1001
TCAD
1000
TCW_ATTRIBUTE
1002
{
1000
557
1002
}
1001
ACAD
1002
{
1000
R14_HATCH_DATA
1000
47
1011
1.0
1021
0.0
1031
0.0
1021
0.0
1031
0.0
1011
0.0
1021
0.0
1031
0.0
1021
1.0
1031
0.0
1011
0.0
1021
0.0
1031
0.0
1021
0.0
1031
1.0
1040
0.0
1010
0.0
1020
0.0
1030
1.0
1000
SOLID
1070
     1
1070
     1
1071
        1
1071
        3
1070
     0
1070
     1
1071
        3
1040
688.83649418760831
1040
84.918027106238483
1040
692.18467696403002
1040
104.9155465325769
1040
685.51801213514068
1040
104.9204966532359
1071
        1
1005
48
1070
     0
1070
     0
1071
        0
1002
}
  0
INSERT
  5
49
  8
0
  6
CONTINUOUS
 62
     7
  2
*U21
 10
0.0
 20
0.0
 30
0.0
  0
ENDBLK
  5
4A
  8
0
  0
BLOCK
  8
0
  2
*D3
 70
     1
 10
0.0
 20
0.0
 30
0.0
  3
*D3
  1

  0
LINE
  5
55
  8
0
  6
DURCHGEHEND
 62
     7
 10
906.52469636673572
 20
641.72754229587929
 30
0.0
 11
906.52469636673572
 21
701.71378627379181
 31
0.0000000000000001
1001
TCAD
1000
TCW_ATTRIBUTE
1002
{
1000
498
1002
}
  0
LINE
  5
56
  8
0
  6
DURCHGEHEND
 62
     7
 10
1403.7766556129779
 20
641.7275422958794
 30
0.0000000000000004
 11
1403.7766556129779
 21
701.71378627379192
 31
0.0000000000000005
1001
TCAD
1000
TCW_ATTRIBUTE
1002
{
1000
498
1002
}
  0
POLYLINE
  5
57
  8
0
  6
DURCHGEHEND
 62
     7
 66
     1
 10
0.0
 20
0.0
 30
0.0
 70
   128
1001
TCAD
1000
TCW_ATTRIBUTE
1002
{
1000
498
1002
}
  0
VERTEX
  5
4E6
  8
0
  6
DURCHGEHEND
 62
     7
 10
926.52469636673561
 20
699.7137862737917
 30
0.0
  0
VERTEX
  5
4E7
  8
0
  6
DURCHGEHEND
 62
     7
 10
926.52469636673561
 20
699.7137862737917
 30
0.0
  0
VERTEX
  5
4E8
  8
0
  6
DURCHGEHEND
 62
     7
 10
926.52469636673561
 20
699.7137862737917
 30
0.0
  0
VERTEX
  5
4E9
  8
0
  6
DURCHGEHEND
 62
     7
 10
1155.1506759898571
 20
699.7137862737917
 30
0.0
  0
SEQEND
  5
4EA
  8
0
  6
DURCHGEHEND
 62
     7
  0
POLYLINE
  5
58
  8
0
  6
DURCHGEHEND
 62
     7
 66
     1
 10
0.0
 20
0.0
 30
0.0
 70
   128
1001
TCAD
1000
TCW_ATTRIBUTE
1002
{
1000
498
1002
}
  0
VERTEX
  5
4EB
  8
0
  6
DURCHGEHEND
 62
     7
 10
1383.7766556129779
 20
699.71378627379192
 30
0.0
  0
VERTEX
  5
4EC
  8
0
  6
DURCHGEHEND
 62
     7
 10
1383.7766556129779
 20
699.71378627379192
 30
0.0
  0
VERTEX
  5
4ED
  8
0
  6
DURCHGEHEND
 62
     7
 10
1383.7766556129779
 20
699.71378627379192
 30
0.0
  0
VERTEX
  5
4EE
  8
0
  6
DURCHGEHEND
 62
     7
 10
1155.1506759898571
 20
699.7137862737917
 30
0.0
  0
SEQEND
  5
4EF
  8
0
  6
DURCHGEHEND
 62
     7
  0
POLYLINE
  5
5A
  8
0
  6
DURCHGEHEND
 62
     7
 66
     1
 10
0.0
 20
0.0
 30
0.0
 70
   129
1001
TCAD
1000
TCW_ATTRIBUTE
1002
{
1000
498
1002
}
  0
VERTEX
  5
4F9
  8
0
  6
DURCHGEHEND
 62
     7
 10
906.52469636673572
 20
699.7137862737917
 30
0.0
  0
VERTEX
  5
4FA
  8
0
  6
DURCHGEHEND
 62
     7
 10
926.52469636673561
 20
696.38045294045844
 30
0.0
  0
VERTEX
  5
4FB
  8
0
  6
DURCHGEHEND
 62
     7
 10
926.52469636673561
 20
703.04711960712518
 30
0.0
  0
SEQEND
  5
4FC
  8
0
  6
DURCHGEHEND
 62
     7
  0
INSERT
  5
59
  8
0
  6
CONTINUOUS
 62
     7
  2
*U23
 10
0.0
 20
0.0
 30
0.0
1001
TCAD
1000
TCW_ATTRIBUTE
1002
{
1000
498
1002
}
1001
ACAD
1002
{
1000
R14_HATCH_DATA
1000
59
1011
1.0
1021
0.0
1031
0.0
1021
0.0
1031
0.0
1011
0.0
1021
0.0
1031
0.0
1021
1.0
1031
0.0
1011
0.0
1021
0.0
1031
0.0
1021
0.0
1031
1.0
1040
0.0
1010
0.0
1020
0.0
1030
1.0
1000
SOLID
1070
     1
1070
     1
1071
        1
1071
        3
1070
     0
1070
     1
1071
        3
1040
906.52469636673572
1040
699.7137862737917
1040
926.52469636673561
1040
696.38045294045844
1040
926.52469636673561
1040
703.04711960712518
1071
        1
1005
5A
1070
     0
1070
     0
1071
        0
1002
}
  0
POLYLINE
  5
5C
  8
0
  6
DURCHGEHEND
 62
     7
 66
     1
 10
0.0
 20
0.0
 30
0.0
 70
   129
1001
TCAD
1000
TCW_ATTRIBUTE
1002
{
1000
498
1002
}
  0
VERTEX
  5
506
  8
0
  6
DURCHGEHEND
 62
     7
 10
1403.7766556129779
 20
699.71378627379192
 30
0.0
  0
VERTEX
  5
507
  8
0
  6
DURCHGEHEND
 62
     7
 10
1383.7766556129779
 20
703.04711960712518
 30
0.0
  0
VERTEX
  5
508
  8
0
  6
DURCHGEHEND
 62
     7
 10
1383.7766556129779
 20
696.38045294045855
 30
0.0
  0
SEQEND
  5
509
  8
0
  6
DURCHGEHEND
 62
     7
  0
INSERT
  5
5B
  8
0
  6
CONTINUOUS
 62
     7
  2
*U24
 10
0.0
 20
0.0
 30
0.0
1001
TCAD
1000
TCW_ATTRIBUTE
1002
{
1000
498
1002
}
1001
ACAD
1002
{
1000
R14_HATCH_DATA
1000
5B
1011
1.0
1021
0.0
1031
0.0
1021
0.0
1031
0.0
1011
0.0
1021
0.0
1031
0.0
1021
1.0
1031
0.0
1011
0.0
1021
0.0
1031
0.0
1021
0.0
1031
1.0
1040
0.0
1010
0.0
1020
0.0
1030
1.0
1000
SOLID
1070
     1
1070
     1
1071
        1
1071
        3
1070
     0
1070
     1
1071
        3
1040
1403.7766556129779
1040
699.71378627379192
1040
1383.7766556129779
1040
703.04711960712518
1040
1383.7766556129779
1040
696.38045294045855
1071
        1
1005
5C
1070
     0
1070
     0
1071
        0
1002
}
  0
INSERT
  5
5D
  8
0
  6
CONTINUOUS
 62
     7
  2
*U25
 10
0.0
 20
0.0
 30
0.0
  0
ENDBLK
  5
5E
  8
0
  0
BLOCK
  8
0
  2
*D4
 70
     1
 10
0.0
 20
0.0
 30
0.0
  3
*D4
  1

  0
LINE
  5
66
  8
0
  6
DURCHGEHEND
 62
     7
 10
876.52469636673561
 20
641.72754229587929
 30
0.0
 11
876.52469636673561
 21
748.26881752507677
 31
0.0
1001
TCAD
1000
TCW_ATTRIBUTE
1002
{
1000
557
1002
}
  0
LINE
  5
67
  8
0
  6
DURCHGEHEND
 62
     7
 10
1433.7766556129779
 20
641.7275422958794
 30
0.0
 11
1433.7766556129779
 21
748.26881752507688
 31
0.0
1001
TCAD
1000
TCW_ATTRIBUTE
1002
{
1000
557
1002
}
  0
POLYLINE
  5
68
  8
0
  6
DURCHGEHEND
 62
     7
 66
     1
 10
0.0
 20
0.0
 30
0.0
 70
   128
1001
TCAD
1000
TCW_ATTRIBUTE
1002
{
1000
557
1002
}
  0
VERTEX
  5
61F
  8
0
  6
DURCHGEHEND
 62
     7
 10
896.52469636673572
 20
746.26881752507666
 30
0.0
  0
VERTEX
  5
620
  8
0
  6
DURCHGEHEND
 62
     7
 10
896.52469636673572
 20
746.26881752507666
 30
0.0
  0
VERTEX
  5
621
  8
0
  6
DURCHGEHEND
 62
     7
 10
896.52469636673572
 20
746.26881752507666
 30
0.0
  0
VERTEX
  5
622
  8
0
  6
DURCHGEHEND
 62
     7
 10
1155.1506759898571
 20
746.26881752507677
 30
0.0
  0
SEQEND
  5
623
  8
0
  6
DURCHGEHEND
 62
     7
  0
POLYLINE
  5
69
  8
0
  6
DURCHGEHEND
 62
     7
 66
     1
 10
0.0
 20
0.0
 30
0.0
 70
   128
1001
TCAD
1000
TCW_ATTRIBUTE
1002
{
1000
557
1002
}
  0
VERTEX
  5
624
  8
0
  6
DURCHGEHEND
 62
     7
 10
1413.7766556129779
 20
746.26881752507677
 30
0.0
  0
VERTEX
  5
625
  8
0
  6
DURCHGEHEND
 62
     7
 10
1413.7766556129779
 20
746.26881752507677
 30
0.0
  0
VERTEX
  5
626
  8
0
  6
DURCHGEHEND
 62
     7
 10
1413.7766556129779
 20
746.26881752507677
 30
0.0
  0
VERTEX
  5
627
  8
0
  6
DURCHGEHEND
 62
     7
 10
1155.1506759898571
 20
746.26881752507677
 30
0.0
  0
SEQEND
  5
628
  8
0
  6
DURCHGEHEND
 62
     7
  0
POLYLINE
  5
6B
  8
0
  6
DURCHGEHEND
 62
     7
 66
     1
 10
0.0
 20
0.0
 30
0.0
 70
   129
1001
TCAD
1000
TCW_ATTRIBUTE
1002
{
1000
557
1002
}
  0
VERTEX
  5
632
  8
0
  6
DURCHGEHEND
 62
     7
 10
876.52469636673561
 20
746.26881752507666
 30
0.0
  0
VERTEX
  5
633
  8
0
  6
DURCHGEHEND
 62
     7
 10
896.52469636673572
 20
742.9354841917434
 30
0.0
  0
VERTEX
  5
634
  8
0
  6
DURCHGEHEND
 62
     7
 10
896.52469636673572
 20
749.60215085841014
 30
0.0
  0
SEQEND
  5
635
  8
0
  6
DURCHGEHEND
 62
     7
  0
INSERT
  5
6A
  8
0
  6
CONTINUOUS
 62
     7
  2
*U27
 10
0.0
 20
0.0
 30
0.0
1001
TCAD
1000
TCW_ATTRIBUTE
1002
{
1000
557
1002
}
1001
ACAD
1002
{
1000
R14_HATCH_DATA
1000
6A
1011
1.0
1021
0.0
1031
0.0
1021
0.0
1031
0.0
1011
0.0
1021
0.0
1031
0.0
1021
1.0
1031
0.0
1011
0.0
1021
0.0
1031
0.0
1021
0.0
1031
1.0
1040
0.0
1010
0.0
1020
0.0
1030
1.0
1000
SOLID
1070
     1
1070
     1
1071
        1
1071
        3
1070
     0
1070
     1
1071
        3
1040
876.52469636673561
1040
746.26881752507666
1040
896.52469636673572
1040
742.9354841917434
1040
896.52469636673572
1040
749.60215085841014
1071
        1
1005
6B
1070
     0
1070
     0
1071
        0
1002
}
  0
POLYLINE
  5
6D
  8
0
  6
DURCHGEHEND
 62
     7
 66
     1
 10
0.0
 20
0.0
 30
0.0
 70
   129
1001
TCAD
1000
TCW_ATTRIBUTE
1002
{
1000
557
1002
}
  0
VERTEX
  5
63F
  8
0
  6
DURCHGEHEND
 62
     7
 10
1433.7766556129779
 20
746.26881752507677
 30
0.0
  0
VERTEX
  5
640
  8
0
  6
DURCHGEHEND
 62
     7
 10
1413.7766556129779
 20
749.60215085841025
 30
0.0
  0
VERTEX
  5
641
  8
0
  6
DURCHGEHEND
 62
     7
 10
1413.7766556129779
 20
742.93548419174351
 30
0.0
  0
SEQEND
  5
642
  8
0
  6
DURCHGEHEND
 62
     7
  0
INSERT
  5
6C
  8
0
  6
CONTINUOUS
 62
     7
  2
*U28
 10
0.0
 20
0.0
 30
0.0
1001
TCAD
1000
TCW_ATTRIBUTE
1002
{
1000
557
1002
}
1001
ACAD
1002
{
1000
R14_HATCH_DATA
1000
6C
1011
1.0
1021
0.0
1031
0.0
1021
0.0
1031
0.0
1011
0.0
1021
0.0
1031
0.0
1021
1.0
1031
0.0
1011
0.0
1021
0.0
1031
0.0
1021
0.0
1031
1.0
1040
0.0
1010
0.0
1020
0.0
1030
1.0
1000
SOLID
1070
     1
1070
     1
1071
        1
1071
        3
1070
     0
1070
     1
1071
        3
1040
1433.7766556129779
1040
746.26881752507677
1040
1413.7766556129779
1040
749.60215085841025
1040
1413.7766556129779
1040
742.93548419174351
1071
        1
1005
6D
1070
     0
1070
     0
1071
        0
1002
}
  0
INSERT
  5
6E
  8
0
  6
CONTINUOUS
 62
     7
  2
*U29
 10
0.0
 20
0.0
 30
0.0
  0
ENDBLK
  5
6F
  8
0
  0
BLOCK
  8
0
  2
*D5
 70
     1
 10
0.0
 20
0.0
 30
0.0
  3
*D5
  1

  0
LINE
  5
73
  8
0
  6
DURCHGEHEND
 62
     7
 10
1319.592603436907
 20
200.86145853292629
 30
0.0
 11
1491.4216056822911
 21
200.75681236077639
 31
0.0
1001
TCAD
1000
TCW_ATTRIBUTE
1002
{
1000
440
1002
}
  0
LINE
  5
74
  8
0
  6
DURCHGEHEND
 62
     7
 10
1319.860353456266
 20
640.50695852963304
 30
0.0
 11
1491.689355701649
 21
640.40231235748297
 31
0.0
1001
TCAD
1000
TCW_ATTRIBUTE
1002
{
1000
440
1002
}
  0
POLYLINE
  5
75
  8
0
  6
DURCHGEHEND
 62
     7
 66
     1
 10
0.0
 20
0.0
 30
0.0
 70
   128
1001
TCAD
1000
TCW_ATTRIBUTE
1002
{
1000
440
1002
}
  0
VERTEX
  5
647
  8
0
  6
DURCHGEHEND
 62
     7
 10
1489.433786319775
 20
220.7580266784625
 30
0.0
  0
VERTEX
  5
648
  8
0
  6
DURCHGEHEND
 62
     7
 10
1489.433786319775
 20
220.7580266784625
 30
0.0
  0
VERTEX
  5
649
  8
0
  6
DURCHGEHEND
 62
     7
 10
1489.433786319775
 20
220.7580266784625
 30
0.0
  0
VERTEX
  5
64A
  8
0
  6
DURCHGEHEND
 62
     7
 10
1489.547015776018
 20
406.68078038578841
 30
0.0
  0
SEQEND
  5
64B
  8
0
  6
DURCHGEHEND
 62
     7
  0
POLYLINE
  5
76
  8
0
  6
DURCHGEHEND
 62
     7
 66
     1
 10
0.0
 20
0.0
 30
0.0
 70
   128
1001
TCAD
1000
TCW_ATTRIBUTE
1002
{
1000
440
1002
}
  0
VERTEX
  5
64C
  8
0
  6
DURCHGEHEND
 62
     7
 10
1489.677175805959
 20
620.40353409311444
 30
0.0
  0
VERTEX
  5
64D
  8
0
  6
DURCHGEHEND
 62
     7
 10
1489.677175805959
 20
620.40353409311444
 30
0.0
  0
VERTEX
  5
64E
  8
0
  6
DURCHGEHEND
 62
     7
 10
1489.677175805959
 20
620.40353409311444
 30
0.0
  0
VERTEX
  5
64F
  8
0
  6
DURCHGEHEND
 62
     7
 10
1489.5639463497159
 20
434.48078038578842
 30
0.0
  0
SEQEND
  5
650
  8
0
  6
DURCHGEHEND
 62
     7
  0
POLYLINE
  5
78
  8
0
  6
DURCHGEHEND
 62
     7
 66
     1
 10
0.0
 20
0.0
 30
0.0
 70
   129
1001
TCAD
1000
TCW_ATTRIBUTE
1002
{
1000
440
1002
}
  0
VERTEX
  5
65A
  8
0
  6
DURCHGEHEND
 62
     7
 10
1489.421606053188
 20
200.7580303874351
 30
0.0
  0
VERTEX
  5
65B
  8
0
  6
DURCHGEHEND
 62
     7
 10
1492.767119034947
 20
220.75599663403119
 30
0.0
  0
VERTEX
  5
65C
  8
0
  6
DURCHGEHEND
 62
     7
 10
1486.1004536046039
 20
220.76005672289381
 30
0.0
  0
SEQEND
  5
65D
  8
0
  6
DURCHGEHEND
 62
     7
  0
INSERT
  5
77
  8
0
  6
CONTINUOUS
 62
     7
  2
*U30
 10
0.0
 20
0.0
 30
0.0
1001
TCAD
1000
TCW_ATTRIBUTE
1002
{
1000
440
1002
}
1001
ACAD
1002
{
1000
R14_HATCH_DATA
1000
77
1011
1.0
1021
0.0
1031
0.0
1021
0.0
1031
0.0
1011
0.0
1021
0.0
1031
0.0
1021
1.0
1031
0.0
1011
0.0
1021
0.0
1031
0.0
1021
0.0
1031
1.0
1040
0.0
1010
0.0
1020
0.0
1030
1.0
1000
SOLID
1070
     1
1070
     1
1071
        1
1071
        3
1070
     0
1070
     1
1071
        3
1040
1489.421606053188
1040
200.7580303874351
1040
1492.767119034947
1040
220.75599663403119
1040
1486.1004536046039
1040
220.76005672289381
1071
        1
1005
78
1070
     0
1070
     0
1071
        0
1002
}
  0
POLYLINE
  5
7A
  8
0
  6
DURCHGEHEND
 62
     7
 66
     1
 10
0.0
 20
0.0
 30
0.0
 70
   129
1001
TCAD
1000
TCW_ATTRIBUTE
1002
{
1000
440
1002
}
  0
VERTEX
  5
667
  8
0
  6
DURCHGEHEND
 62
     7
 10
1489.6893560725459
 20
640.40353038414185
 30
0.0
  0
VERTEX
  5
668
  8
0
  6
DURCHGEHEND
 62
     7
 10
1486.343843090787
 20
620.40556413754575
 30
0.0
  0
VERTEX
  5
669
  8
0
  6
DURCHGEHEND
 62
     7
 10
1493.0105085211301
 20
620.40150404868325
 30
0.0
  0
SEQEND
  5
66A
  8
0
  6
DURCHGEHEND
 62
     7
  0
INSERT
  5
79
  8
0
  6
CONTINUOUS
 62
     7
  2
*U31
 10
0.0
 20
0.0
 30
0.0
1001
TCAD
1000
TCW_ATTRIBUTE
1002
{
1000
440
1002
}
1001
ACAD
1002
{
1000
R14_HATCH_DATA
1000
79
1011
1.0
1021
0.0
1031
0.0
1021
0.0
1031
0.0
1011
0.0
1021
0.0
1031
0.0
1021
1.0
1031
0.0
1011
0.0
1021
0.0
1031
0.0
1021
0.0
1031
1.0
1040
0.0
1010
0.0
1020
0.0
1030
1.0
1000
SOLID
1070
     1
1070
     1
1071
        1
1071
        3
1070
     0
1070
     1
1071
        3
1040
1489.6893560725459
1040
640.40353038414185
1040
1486.343843090787
1040
620.40556413754575
1040
1493.0105085211301
1040
620.40150404868325
1071
        1
1005
7A
1070
     0
1070
     0
1071
        0
1002
}
  0
INSERT
  5
7B
  8
0
  6
CONTINUOUS
 62
     7
  2
*U32
 10
0.0
 20
0.0
 30
0.0
  0
ENDBLK
  5
7C
  8
0
  0
BLOCK
  8
0
  2
*D6
 70
     1
 10
0.0
 20
0.0
 30
0.0
  3
*D6
  1

  0
LINE
  5
80
  8
0
  6
DURCHGEHEND
 62
     7
 10
1331.1727860225731
 20
178.90975871636419
 30
0.0
 11
1628.8435952824279
 21
179.85968002829401
 31
0.0
1001
TCAD
1000
TCW_ATTRIBUTE
1002
{
1000
462
1002
}
  0
LINE
  5
81
  8
0
  6
DURCHGEHEND
 62
     7
 10
1329.7001610854941
 20
640.37688367850444
 30
0.0
 11
1627.370970345349
 21
641.3268049904342
 31
0.0
1001
TCAD
1000
TCW_ATTRIBUTE
1002
{
1000
462
1002
}
  0
POLYLINE
  5
82
  8
0
  6
DURCHGEHEND
 62
     7
 66
     1
 10
0.0
 20
0.0
 30
0.0
 70
   128
1001
TCAD
1000
TCW_ATTRIBUTE
1002
{
1000
462
1002
}
  0
VERTEX
  5
66F
  8
0
  6
DURCHGEHEND
 62
     7
 10
1626.7797821789441
 20
199.85319586403151
 30
0.0
  0
VERTEX
  5
670
  8
0
  6
DURCHGEHEND
 62
     7
 10
1626.7797821789441
 20
199.85319586403151
 30
0.0
  0
VERTEX
  5
671
  8
0
  6
DURCHGEHEND
 62
     7
 10
1626.7797821789441
 20
199.85319586403151
 30
0.0
  0
VERTEX
  5
672
  8
0
  6
DURCHGEHEND
 62
     7
 10
1626.1516504077949
 20
396.68686018066012
 30
0.0
  0
SEQEND
  5
673
  8
0
  6
DURCHGEHEND
 62
     7
  0
POLYLINE
  5
83
  8
0
  6
DURCHGEHEND
 62
     7
 66
     1
 10
0.0
 20
0.0
 30
0.0
 70
   128
1001
TCAD
1000
TCW_ATTRIBUTE
1002
{
1000
462
1002
}
  0
VERTEX
  5
674
  8
0
  6
DURCHGEHEND
 62
     7
 10
1625.4348038159451
 20
621.32052449728849
 30
0.0
  0
VERTEX
  5
675
  8
0
  6
DURCHGEHEND
 62
     7
 10
1625.4348038159451
 20
621.32052449728849
 30
0.0
  0
VERTEX
  5
676
  8
0
  6
DURCHGEHEND
 62
     7
 10
1625.4348038159451
 20
621.32052449728849
 30
0.0
  0
VERTEX
  5
677
  8
0
  6
DURCHGEHEND
 62
     7
 10
1626.062935587094
 20
424.48686018066002
 30
0.0
  0
SEQEND
  5
678
  8
0
  6
DURCHGEHEND
 62
     7
  0
POLYLINE
  5
85
  8
0
  6
DURCHGEHEND
 62
     7
 66
     1
 10
0.0
 20
0.0
 30
0.0
 70
   129
1001
TCAD
1000
TCW_ATTRIBUTE
1002
{
1000
462
1002
}
  0
VERTEX
  5
682
  8
0
  6
DURCHGEHEND
 62
     7
 10
1626.843605465984
 20
179.85329769958989
 30
0.0
  0
VERTEX
  5
683
  8
0
  6
DURCHGEHEND
 62
     7
 10
1630.113098539684
 20
199.86383307853811
 30
0.0
  0
VERTEX
  5
684
  8
0
  6
DURCHGEHEND
 62
     7
 10
1623.446465818203
 20
199.84255864952479
 30
0.0
  0
SEQEND
  5
685
  8
0
  6
DURCHGEHEND
 62
     7
  0
INSERT
  5
84
  8
0
  6
CONTINUOUS
 62
     7
  2
*U33
 10
0.0
 20
0.0
 30
0.0
1001
TCAD
1000
TCW_ATTRIBUTE
1002
{
1000
462
1002
}
1001
ACAD
1002
{
1000
R14_HATCH_DATA
1000
84
1011
1.0
1021
0.0
1031
0.0
1021
0.0
1031
0.0
1011
0.0
1021
0.0
1031
0.0
1021
1.0
1031
0.0
1011
0.0
1021
0.0
1031
0.0
1021
0.0
1031
1.0
1040
0.0
1010
0.0
1020
0.0
1030
1.0
1000
SOLID
1070
     1
1070
     1
1071
        1
1071
        3
1070
     0
1070
     1
1071
        3
1040
1626.843605465984
1040
179.85329769958989
1040
1630.113098539684
1040
199.86383307853811
1040
1623.446465818203
1040
199.84255864952479
1071
        1
1005
85
1070
     0
1070
     0
1071
        0
1002
}
  0
POLYLINE
  5
87
  8
0
  6
DURCHGEHEND
 62
     7
 66
     1
 10
0.0
 20
0.0
 30
0.0
 70
   129
1001
TCAD
1000
TCW_ATTRIBUTE
1002
{
1000
462
1002
}
  0
VERTEX
  5
68F
  8
0
  6
DURCHGEHEND
 62
     7
 10
1625.370980528905
 20
641.32042266173016
 30
0.0
  0
VERTEX
  5
690
  8
0
  6
DURCHGEHEND
 62
     7
 10
1622.101487455205
 20
621.30988728278192
 30
0.0
  0
VERTEX
  5
691
  8
0
  6
DURCHGEHEND
 62
     7
 10
1628.7681201766859
 20
621.33116171179529
 30
0.0
  0
SEQEND
  5
692
  8
0
  6
DURCHGEHEND
 62
     7
  0
INSERT
  5
86
  8
0
  6
CONTINUOUS
 62
     7
  2
*U34
 10
0.0
 20
0.0
 30
0.0
1001
TCAD
1000
TCW_ATTRIBUTE
1002
{
1000
462
1002
}
1001
ACAD
1002
{
1000
R14_HATCH_DATA
1000
86
1011
1.0
1021
0.0
1031
0.0
1021
0.0
1031
0.0
1011
0.0
1021
0.0
1031
0.0
1021
1.0
1031
0.0
1011
0.0
1021
0.0
1031
0.0
1021
0.0
1031
1.0
1040
0.0
1010
0.0
1020
0.0
1030
1.0
1000
SOLID
1070
     1
1070
     1
1071
        1
1071
        3
1070
     0
1070
     1
1071
        3
1040
1625.370980528905
1040
641.32042266173016
1040
1622.101487455205
1040
621.30988728278192
1040
1628.7681201766859
1040
621.33116171179529
1071
        1
1005
87
1070
     0
1070
     0
1071
        0
1002
}
  0
INSERT
  5
88
  8
0
  6
CONTINUOUS
 62
     7
  2
*U35
 10
0.0
 20
0.0
 30
0.0
  0
ENDBLK
  5
89
  8
0
  0
BLOCK
  8
0
  2
*D7
 70
     1
 10
0.0
 20
0.0
 30
0.0
  3
*D7
  1

  0
LINE
  5
8D
  8
0
  6
DURCHGEHEND
 62
     7
 10
1248.8939317326449
 20
177.87309880555651
 30
0.0
 11
1248.8939317325439
 21
131.28866129231321
 31
0.0
1001
TCAD
1000
TCW_ATTRIBUTE
1002
{
1000
62
1002
}
  0
LINE
  5
8E
  8
0
  6
DURCHGEHEND
 62
     7
 10
1310.928259857518
 20
177.87309880542259
 30
0.0
 11
1310.9282598574171
 21
131.28866129217931
 31
0.0
1001
TCAD
1000
TCW_ATTRIBUTE
1002
{
1000
62
1002
}
  0
POLYLINE
  5
8F
  8
0
  6
DURCHGEHEND
 62
     7
 66
     1
 10
0.0
 20
0.0
 30
0.0
 70
   128
1001
TCAD
1000
TCW_ATTRIBUTE
1002
{
1000
62
1002
}
  0
VERTEX
  5
697
  8
0
  6
DURCHGEHEND
 62
     7
 10
1268.8939317325489
 20
133.28866129227001
 30
0.0
  0
VERTEX
  5
698
  8
0
  6
DURCHGEHEND
 62
     7
 10
1290.9282598574209
 20
133.28866129222251
 30
0.0
  0
VERTEX
  5
699
  8
0
  6
DURCHGEHEND
 62
     7
 10
1290.9282598574209
 20
133.28866129222251
 30
0.0
  0
VERTEX
  5
69A
  8
0
  6
DURCHGEHEND
 62
     7
 10
1300.9282598574209
 20
133.28866129220091
 30
0.0
  0
SEQEND
  5
69B
  8
0
  6
DURCHGEHEND
 62
     7
  0
POLYLINE
  5
90
  8
0
  6
DURCHGEHEND
 62
     7
 66
     1
 10
0.0
 20
0.0
 30
0.0
 70
   128
1001
TCAD
1000
TCW_ATTRIBUTE
1002
{
1000
62
1002
}
  0
VERTEX
  5
69C
  8
0
  6
DURCHGEHEND
 62
     7
 10
1361.0610723574209
 20
133.28866129207111
 30
0.0
  0
VERTEX
  5
69D
  8
0
  6
DURCHGEHEND
 62
     7
 10
1324.9282598574209
 20
133.2886612921491
 30
0.0
  0
VERTEX
  5
69E
  8
0
  6
DURCHGEHEND
 62
     7
 10
1310.9282598574209
 20
133.28866129217931
 30
0.0
  0
VERTEX
  5
69F
  8
0
  6
DURCHGEHEND
 62
     7
 10
1300.9282598574209
 20
133.28866129220091
 30
0.0
  0
SEQEND
  5
6A0
  8
0
  6
DURCHGEHEND
 62
     7
  0
POLYLINE
  5
92
  8
0
  6
DURCHGEHEND
 62
     7
 66
     1
 10
0.0
 20
0.0
 30
0.0
 70
   129
1001
TCAD
1000
TCW_ATTRIBUTE
1002
{
1000
62
1002
}
  0
VERTEX
  5
6AA
  8
0
  6
DURCHGEHEND
 62
     7
 10
1248.893931732548
 20
133.28866129231321
 30
0.0
  0
VERTEX
  5
6AB
  8
0
  6
DURCHGEHEND
 62
     7
 10
1268.893931732541
 20
129.95532795893669
 30
0.0
  0
VERTEX
  5
6AC
  8
0
  6
DURCHGEHEND
 62
     7
 10
1268.893931732556
 20
136.62199462560341
 30
0.0
  0
SEQEND
  5
6AD
  8
0
  6
DURCHGEHEND
 62
     7
  0
INSERT
  5
91
  8
0
  6
CONTINUOUS
 62
     7
  2
*U36
 10
0.0
 20
0.0
 30
0.0
1001
TCAD
1000
TCW_ATTRIBUTE
1002
{
1000
62
1002
}
1001
ACAD
1002
{
1000
R14_HATCH_DATA
1000
91
1011
1.0
1021
0.0
1031
0.0
1021
0.0
1031
0.0
1011
0.0
1021
0.0
1031
0.0
1021
1.0
1031
0.0
1011
0.0
1021
0.0
1031
0.0
1021
0.0
1031
1.0
1040
0.0
1010
0.0
1020
0.0
1030
1.0
1000
SOLID
1070
     1
1070
     1
1071
        1
1071
        3
1070
     0
1070
     1
1071
        3
1040
1248.893931732548
1040
133.28866129231321
1040
1268.893931732541
1040
129.95532795893669
1040
1268.893931732556
1040
136.62199462560341
1071
        1
1005
92
1070
     0
1070
     0
1071
        0
1002
}
  0
POLYLINE
  5
94
  8
0
  6
DURCHGEHEND
 62
     7
 66
     1
 10
0.0
 20
0.0
 30
0.0
 70
   129
1001
TCAD
1000
TCW_ATTRIBUTE
1002
{
1000
62
1002
}
  0
VERTEX
  5
6B7
  8
0
  6
DURCHGEHEND
 62
     7
 10
1310.9282598574209
 20
133.28866129217931
 30
0.0
  0
VERTEX
  5
6B8
  8
0
  6
DURCHGEHEND
 62
     7
 10
1290.928259857428
 20
136.6219946255558
 30
0.0
  0
VERTEX
  5
6B9
  8
0
  6
DURCHGEHEND
 62
     7
 10
1290.9282598574141
 20
129.95532795888909
 30
0.0
  0
SEQEND
  5
6BA
  8
0
  6
DURCHGEHEND
 62
     7
  0
INSERT
  5
93
  8
0
  6
CONTINUOUS
 62
     7
  2
*U37
 10
0.0
 20
0.0
 30
0.0
1001
TCAD
1000
TCW_ATTRIBUTE
1002
{
1000
62
1002
}
1001
ACAD
1002
{
1000
R14_HATCH_DATA
1000
93
1011
1.0
1021
0.0
1031
0.0
1021
0.0
1031
0.0
1011
0.0
1021
0.0
1031
0.0
1021
1.0
1031
0.0
1011
0.0
1021
0.0
1031
0.0
1021
0.0
1031
1.0
1040
0.0
1010
0.0
1020
0.0
1030
1.0
1000
SOLID
1070
     1
1070
     1
1071
        1
1071
        3
1070
     0
1070
     1
1071
        3
1040
1310.9282598574209
1040
133.28866129217931
1040
1290.928259857428
1040
136.6219946255558
1040
1290.9282598574141
1040
129.95532795888909
1071
        1
1005
94
1070
     0
1070
     0
1071
        0
1002
}
  0
INSERT
  5
95
  8
0
  6
CONTINUOUS
 62
     7
  2
*U38
 10
0.0
 20
0.0
 30
0.0
  0
ENDBLK
  5
96
  8
0
  0
BLOCK
  8
0
  2
*D8
 70
     1
 10
0.0
 20
0.0
 30
0.0
  3
*D8
  1

  0
LINE
  5
9D
  8
0
  6
DURCHGEHEND
 62
     7
 10
1281.4757598491431
 20
100.278411306778
 30
0.0
 11
1281.4757598491431
 21
100.278411306778
 31
0.0
1001
TCAD
1000
TCW_ATTRIBUTE
1002
{
1000
124
1002
}
  0
LINE
  5
9E
  8
0
  6
DURCHGEHEND
 62
     7
 10
1404.6407598614601
 20
100.278411306778
 30
0.0
 11
1404.6407598614601
 21
100.278411306778
 31
0.0
1001
TCAD
1000
TCW_ATTRIBUTE
1002
{
1000
124
1002
}
  0
POLYLINE
  5
9F
  8
0
  6
DURCHGEHEND
 62
     7
 66
     1
 10
0.0
 20
0.0
 30
0.0
 70
   128
1001
TCAD
1000
TCW_ATTRIBUTE
1002
{
1000
124
1002
}
  0
VERTEX
  5
6BF
  8
0
  6
DURCHGEHEND
 62
     7
 10
1241.4757598491431
 20
100.278411306778
 30
0.0
  0
VERTEX
  5
6C0
  8
0
  6
DURCHGEHEND
 62
     7
 10
1261.4757598491431
 20
100.278411306778
 30
0.0
  0
SEQEND
  5
6C1
  8
0
  6
DURCHGEHEND
 62
     7
  0
POLYLINE
  5
A0
  8
0
  6
DURCHGEHEND
 62
     7
 66
     1
 10
0.0
 20
0.0
 30
0.0
1001
TCAD
1000
TCW_ATTRIBUTE
1002
{
1000
124
1002
}
  0
VERTEX
  5
6C2
  8
0
  6
DURCHGEHEND
 62
     7
 10
1281.4757598491431
 20
100.278411306778
 30
0.0
  0
VERTEX
  5
6C3
  8
0
  6
DURCHGEHEND
 62
     7
 10
1343.058259855301
 20
100.278411306778
 30
0.0
  0
SEQEND
  5
6C4
  8
0
  6
DURCHGEHEND
 62
     7
  0
POLYLINE
  5
A1
  8
0
  6
DURCHGEHEND
 62
     7
 66
     1
 10
0.0
 20
0.0
 30
0.0
 70
   128
1001
TCAD
1000
TCW_ATTRIBUTE
1002
{
1000
124
1002
}
  0
VERTEX
  5
6C5
  8
0
  6
DURCHGEHEND
 62
     7
 10
1444.6407598614601
 20
100.278411306778
 30
0.0
  0
VERTEX
  5
6C6
  8
0
  6
DURCHGEHEND
 62
     7
 10
1424.6407598614601
 20
100.278411306778
 30
0.0
  0
SEQEND
  5
6C7
  8
0
  6
DURCHGEHEND
 62
     7
  0
POLYLINE
  5
A2
  8
0
  6
DURCHGEHEND
 62
     7
 66
     1
 10
0.0
 20
0.0
 30
0.0
1001
TCAD
1000
TCW_ATTRIBUTE
1002
{
1000
124
1002
}
  0
VERTEX
  5
6C8
  8
0
  6
DURCHGEHEND
 62
     7
 10
1404.6407598614601
 20
100.278411306778
 30
0.0
  0
VERTEX
  5
6C9
  8
0
  6
DURCHGEHEND
 62
     7
 10
1343.058259855301
 20
100.278411306778
 30
0.0
  0
SEQEND
  5
6CA
  8
0
  6
DURCHGEHEND
 62
     7
  0
POLYLINE
  5
A4
  8
0
  6
DURCHGEHEND
 62
     7
 66
     1
 10
0.0
 20
0.0
 30
0.0
 70
   129
1001
TCAD
1000
TCW_ATTRIBUTE
1002
{
1000
124
1002
}
  0
VERTEX
  5
6D4
  8
0
  6
DURCHGEHEND
 62
     7
 10
1404.6407598614601
 20
100.278411306778
 30
0.0
  0
VERTEX
  5
6D5
  8
0
  6
DURCHGEHEND
 62
     7
 10
1424.6407598614601
 20
96.945077973444711
 30
0.0
  0
VERTEX
  5
6D6
  8
0
  6
DURCHGEHEND
 62
     7
 10
1424.6407598614601
 20
103.6117446401114
 30
0.0
  0
SEQEND
  5
6D7
  8
0
  6
DURCHGEHEND
 62
     7
  0
INSERT
  5
A3
  8
0
  6
CONTINUOUS
 62
     7
  2
*U39
 10
0.0
 20
0.0
 30
0.0
1001
TCAD
1000
TCW_ATTRIBUTE
1002
{
1000
124
1002
}
1001
ACAD
1002
{
1000
R14_HATCH_DATA
1000
A3
1011
1.0
1021
0.0
1031
0.0
1021
0.0
1031
0.0
1011
0.0
1021
0.0
1031
0.0
1021
1.0
1031
0.0
1011
0.0
1021
0.0
1031
0.0
1021
0.0
1031
1.0
1040
0.0
1010
0.0
1020
0.0
1030
1.0
1000
SOLID
1070
     1
1070
     1
1071
        1
1071
        3
1070
     0
1070
     1
1071
        3
1040
1404.6407598614601
1040
100.278411306778
1040
1424.6407598614601
1040
96.945077973444711
1040
1424.6407598614601
1040
103.6117446401114
1071
        1
1005
A4
1070
     0
1070
     0
1071
        0
1002
}
  0
POLYLINE
  5
A6
  8
0
  6
DURCHGEHEND
 62
     7
 66
     1
 10
0.0
 20
0.0
 30
0.0
 70
   129
1001
TCAD
1000
TCW_ATTRIBUTE
1002
{
1000
124
1002
}
  0
VERTEX
  5
6E1
  8
0
  6
DURCHGEHEND
 62
     7
 10
1281.4757598491431
 20
100.278411306778
 30
0.0
  0
VERTEX
  5
6E2
  8
0
  6
DURCHGEHEND
 62
     7
 10
1261.4757598491431
 20
103.6117446401114
 30
0.0
  0
VERTEX
  5
6E3
  8
0
  6
DURCHGEHEND
 62
     7
 10
1261.4757598491431
 20
96.945077973444711
 30
0.0
  0
SEQEND
  5
6E4
  8
0
  6
DURCHGEHEND
 62
     7
  0
INSERT
  5
A5
  8
0
  6
CONTINUOUS
 62
     7
  2
*U40
 10
0.0
 20
0.0
 30
0.0
1001
TCAD
1000
TCW_ATTRIBUTE
1002
{
1000
124
1002
}
1001
ACAD
1002
{
1000
R14_HATCH_DATA
1000
A5
1011
1.0
1021
0.0
1031
0.0
1021
0.0
1031
0.0
1011
0.0
1021
0.0
1031
0.0
1021
1.0
1031
0.0
1011
0.0
1021
0.0
1031
0.0
1021
0.0
1031
1.0
1040
0.0
1010
0.0
1020
0.0
1030
1.0
1000
SOLID
1070
     1
1070
     1
1071
        1
1071
        3
1070
     0
1070
     1
1071
        3
1040
1281.4757598491431
1040
100.278411306778
1040
1261.4757598491431
1040
103.6117446401114
1040
1261.4757598491431
1040
96.945077973444711
1071
        1
1005
A6
1070
     0
1070
     0
1071
        0
1002
}
  0
INSERT
  5
A7
  8
0
  6
CONTINUOUS
 62
     7
  2
*U41
 10
0.0
 20
0.0
 30
0.0
  0
ENDBLK
  5
A8
  8
0
  0
BLOCK
  8
0
  2
*D9
 70
     1
 10
0.0
 20
0.0
 30
0.0
  3
*D9
  1

  0
LINE
  5
AC
  8
0
  6
DURCHGEHEND
 62
     7
 10
1403.5697599390539
 20
84.290411268114966
 30
0.0
 11
1403.5697599390539
 21
84.290411268114966
 31
0.0
1001
TCAD
1000
TCW_ATTRIBUTE
1002
{
1000
30
1002
}
  0
LINE
  5
AD
  8
0
  6
DURCHGEHEND
 62
     7
 10
1433.5577599420519
 20
84.290411268114966
 30
0.0
 11
1433.5577599420519
 21
84.290411268114966
 31
0.0
1001
TCAD
1000
TCW_ATTRIBUTE
1002
{
1000
30
1002
}
  0
POLYLINE
  5
AE
  8
0
  6
DURCHGEHEND
 62
     7
 66
     1
 10
0.0
 20
0.0
 30
0.0
 70
   128
1001
TCAD
1000
TCW_ATTRIBUTE
1002
{
1000
30
1002
}
  0
VERTEX
  5
6E9
  8
0
  6
DURCHGEHEND
 62
     7
 10
1363.5697599390539
 20
84.290411268114966
 30
0.0
  0
VERTEX
  5
6EA
  8
0
  6
DURCHGEHEND
 62
     7
 10
1383.569759939053
 20
84.290411268114966
 30
0.0
  0
SEQEND
  5
6EB
  8
0
  6
DURCHGEHEND
 62
     7
  0
POLYLINE
  5
AF
  8
0
  6
DURCHGEHEND
 62
     7
 66
     1
 10
0.0
 20
0.0
 30
0.0
1001
TCAD
1000
TCW_ATTRIBUTE
1002
{
1000
30
1002
}
  0
VERTEX
  5
6EC
  8
0
  6
DURCHGEHEND
 62
     7
 10
1403.5697599390539
 20
84.290411268114966
 30
0.0
  0
VERTEX
  5
6ED
  8
0
  6
DURCHGEHEND
 62
     7
 10
1433.5577599420519
 20
84.290411268114966
 30
0.0
  0
SEQEND
  5
6EE
  8
0
  6
DURCHGEHEND
 62
     7
  0
POLYLINE
  5
B0
  8
0
  6
DURCHGEHEND
 62
     7
 66
     1
 10
0.0
 20
0.0
 30
0.0
 70
   128
1001
TCAD
1000
TCW_ATTRIBUTE
1002
{
1000
30
1002
}
  0
VERTEX
  5
6EF
  8
0
  6
DURCHGEHEND
 62
     7
 10
1503.6905724420519
 20
84.290411268114966
 30
0.0
  0
VERTEX
  5
6F0
  8
0
  6
DURCHGEHEND
 62
     7
 10
1467.5577599420519
 20
84.290411268114966
 30
0.0
  0
VERTEX
  5
6F1
  8
0
  6
DURCHGEHEND
 62
     7
 10
1453.5577599420519
 20
84.290411268114966
 30
0.0
  0
SEQEND
  5
6F2
  8
0
  6
DURCHGEHEND
 62
     7
  0
POLYLINE
  5
B2
  8
0
  6
DURCHGEHEND
 62
     7
 66
     1
 10
0.0
 20
0.0
 30
0.0
 70
   129
1001
TCAD
1000
TCW_ATTRIBUTE
1002
{
1000
30
1002
}
  0
VERTEX
  5
6FC
  8
0
  6
DURCHGEHEND
 62
     7
 10
1433.5577599420519
 20
84.290411268114966
 30
0.0
  0
VERTEX
  5
6FD
  8
0
  6
DURCHGEHEND
 62
     7
 10
1453.5577599420519
 20
80.957077934781637
 30
0.0
  0
VERTEX
  5
6FE
  8
0
  6
DURCHGEHEND
 62
     7
 10
1453.5577599420519
 20
87.623744601448294
 30
0.0
  0
SEQEND
  5
6FF
  8
0
  6
DURCHGEHEND
 62
     7
  0
INSERT
  5
B1
  8
0
  6
CONTINUOUS
 62
     7
  2
*U42
 10
0.0
 20
0.0
 30
0.0
1001
TCAD
1000
TCW_ATTRIBUTE
1002
{
1000
30
1002
}
1001
ACAD
1002
{
1000
R14_HATCH_DATA
1000
B1
1011
1.0
1021
0.0
1031
0.0
1021
0.0
1031
0.0
1011
0.0
1021
0.0
1031
0.0
1021
1.0
1031
0.0
1011
0.0
1021
0.0
1031
0.0
1021
0.0
1031
1.0
1040
0.0
1010
0.0
1020
0.0
1030
1.0
1000
SOLID
1070
     1
1070
     1
1071
        1
1071
        3
1070
     0
1070
     1
1071
        3
1040
1433.5577599420519
1040
84.290411268114966
1040
1453.5577599420519
1040
80.957077934781637
1040
1453.5577599420519
1040
87.623744601448294
1071
        1
1005
B2
1070
     0
1070
     0
1071
        0
1002
}
  0
POLYLINE
  5
B4
  8
0
  6
DURCHGEHEND
 62
     7
 66
     1
 10
0.0
 20
0.0
 30
0.0
 70
   129
1001
TCAD
1000
TCW_ATTRIBUTE
1002
{
1000
30
1002
}
  0
VERTEX
  5
709
  8
0
  6
DURCHGEHEND
 62
     7
 10
1403.5697599390539
 20
84.290411268114966
 30
0.0
  0
VERTEX
  5
70A
  8
0
  6
DURCHGEHEND
 62
     7
 10
1383.569759939053
 20
87.623744601448294
 30
0.0
  0
VERTEX
  5
70B
  8
0
  6
DURCHGEHEND
 62
     7
 10
1383.569759939053
 20
80.957077934781637
 30
0.0
  0
SEQEND
  5
70C
  8
0
  6
DURCHGEHEND
 62
     7
  0
INSERT
  5
B3
  8
0
  6
CONTINUOUS
 62
     7
  2
*U43
 10
0.0
 20
0.0
 30
0.0
1001
TCAD
1000
TCW_ATTRIBUTE
1002
{
1000
30
1002
}
1001
ACAD
1002
{
1000
R14_HATCH_DATA
1000
B3
1011
1.0
1021
0.0
1031
0.0
1021
0.0
1031
0.0
1011
0.0
1021
0.0
1031
0.0
1021
1.0
1031
0.0
1011
0.0
1021
0.0
1031
0.0
1021
0.0
1031
1.0
1040
0.0
1010
0.0
1020
0.0
1030
1.0
1000
SOLID
1070
     1
1070
     1
1071
        1
1071
        3
1070
     0
1070
     1
1071
        3
1040
1403.5697599390539
1040
84.290411268114966
1040
1383.569759939053
1040
87.623744601448294
1040
1383.569759939053
1040
80.957077934781637
1071
        1
1005
B4
1070
     0
1070
     0
1071
        0
1002
}
  0
INSERT
  5
B5
  8
0
  6
CONTINUOUS
 62
     7
  2
*U44
 10
0.0
 20
0.0
 30
0.0
  0
ENDBLK
  5
B6
  8
0
  0
BLOCK
  8
0
  2
_DOTSMALL
 70
     0
 10
0.0
 20
0.0
 30
0.0
  3
_DOTSMALL
  1

  0
POLYLINE
  5
115
  8
0
  6
BYBLOCK
 62
     0
 66
     1
 10
0.0
 20
0.0
 30
0.0
 70
     1
 40
0.5
 41
0.5
  0
VERTEX
  5
719
  8
0
  6
BYBLOCK
 62
     0
 10
-0.0625
 20
0.0
 30
0.0
 42
1.0
  0
VERTEX
  5
71A
  8
0
  6
BYBLOCK
 62
     0
 10
0.0625
 20
0.0
 30
0.0
 42
1.0
  0
SEQEND
  5
71B
  8
0
  6
BYBLOCK
 62
     0
  0
ENDBLK
  5
116
  8
0
  0
BLOCK
  8
0
  2
DEFAULT2-G7
 70
     0
 10
0.0
 20
0.0
 30
0.0
  3
DEFAULT2-G7
  1

  0
TEXT
  5
119
  8
LAYER01
  6
VERDECKT
 62
     1
 10
3286.9151940000002
 20
511.13932199999999
 30
0.0
 40
14.0
  1
A. Sprenger GmbH
  7
SIMPLEX
  0
TEXT
  5
11A
  8
LAYER01
  6
VERDECKT
 62
     1
 10
3286.9151940000002
 20
487.13932199999988
 30
0.0
 40
14.0
  1
Berner Str. 10
  7
SIMPLEX
  0
TEXT
  5
11B
  8
LAYER01
  6
VERDECKT
 62
     1
 10
3286.9151940000002
 20
463.13932199999988
 30
0.0
 40
14.0
  1
60437 Frankfurt
  7
SIMPLEX
  0
TEXT
  5
11C
  8
LAYER01
  6
VERDECKT
 62
     1
 10
3286.9151940000002
 20
439.13932199999999
 30
0.0
 40
14.0
  1
Tel.: 069 - 507 27 41
  7
SIMPLEX
  0
TEXT
  5
11D
  8
LAYER01
  6
VERDECKT
 62
     1
 10
3286.9151940000002
 20
415.13932199999999
 30
0.0
 40
14.0
  1
Fax: 069 - 507 72 91
  7
SIMPLEX
  0
TEXT
  5
11E
  8
LAYER01
  6
VERDECKT
 62
     1
 10
3286.9151940000002
 20
391.13932199999999
 30
0.0
 40
14.0
  1
info@varicor.org
  7
SIMPLEX
  0
ENDBLK
  5
11F
  8
0
  0
BLOCK
  8
0
  2
DEFAULT2-G6
 70
     0
 10
0.0
 20
0.0
 30
0.0
  3
DEFAULT2-G6
  1

  0
TEXT
  5
122
  8
LAYER01
  6
CONTINUOUS
 62
     1
 10
4758.0610299999989
 20
182.02706000000001
 30
0.0
 40
14.0
  1
Blatt
  7
SIMPLEX
  0
LINE
  5
123
  8
LAYER01
  6
CONTINUOUS
 62
     1
 10
3267.0610300000012
 20
280.02706000000001
 30
0.0
 11
4107.0610299999989
 21
280.02706000000001
 31
0.0
  0
LINE
  5
124
  8
LAYER01
  6
CONTINUOUS
 62
     1
 10
3267.0610300000012
 20
245.02706000000001
 30
0.0
 11
4107.0610299999989
 21
245.02706000000001
 31
0.0
  0
LINE
  5
125
  8
LAYER01
  6
CONTINUOUS
 62
     1
 10
3267.0610300000012
 20
210.02706000000001
 30
0.0
 11
4849.0610299999998
 21
210.02706000000001
 31
0.0
  0
LINE
  5
126
  8
LAYER01
  6
CONTINUOUS
 62
     1
 10
3267.0610300000012
 20
105.02706000000001
 30
0.0
 11
4849.0610299999998
 21
105.02706000000001
 31
0.0
  0
LINE
  5
127
  8
LAYER01
  6
CONTINUOUS
 62
     1
 10
3267.0610300000012
 20
385.02706000000001
 30
0.0
 11
4849.0610299999998
 21
385.02706000000001
 31
0.0
  0
POLYLINE
  5
128
  8
LAYER01
  6
CONTINUOUS
 62
     1
 66
     1
 10
0.0
 20
0.0
 30
0.0
 70
     1
  0
VERTEX
  5
71C
  8
LAYER01
  6
CONTINUOUS
 62
     1
 10
3267.0610300000012
 20
63.027059999999999
 30
0.0
  0
VERTEX
  5
71D
  8
LAYER01
  6
CONTINUOUS
 62
     1
 10
3267.0610300000012
 20
532.02705999999989
 30
0.0
  0
VERTEX
  5
71E
  8
LAYER01
  6
CONTINUOUS
 62
     1
 10
4849.0610299999998
 20
532.02705999999989
 30
0.0
  0
VERTEX
  5
71F
  8
LAYER01
  6
CONTINUOUS
 62
     1
 10
4849.0610299999998
 20
63.027059999999999
 30
0.0
  0
SEQEND
  5
720
  8
LAYER01
  6
CONTINUOUS
 62
     1
  0
LINE
  5
129
  8
LAYER01
  6
CONTINUOUS
 62
     1
 10
3267.0610300000012
 20
350.02706000000001
 30
0.0
 11
4107.0610299999989
 21
350.02706000000001
 31
0.0
  0
LINE
  5
12A
  8
LAYER01
  6
CONTINUOUS
 62
     1
 10
3267.0610300000012
 20
315.02706000000001
 30
0.0
 11
4107.0610299999989
 21
315.02706000000001
 31
0.0
  0
LINE
  5
12B
  8
LAYER01
  6
CONTINUOUS
 62
     1
 10
3722.0610299999998
 20
532.02705999999989
 30
0.0
 11
3722.0610299999998
 21
63.027059999999999
 31
0.0
  0
INSERT
  5
12C
  8
LAYER01
  2
DEFAULT2-G7
 10
0.0
 20
0.0
 30
0.0
  0
LINE
  5
12D
  8
LAYER01
  6
CONTINUOUS
 62
     1
 10
3267.0610300000012
 20
140.02706000000001
 30
0.0
 11
3722.0610299999998
 21
140.02706000000001
 31
0.0
  0
LINE
  5
12E
  8
LAYER01
  6
CONTINUOUS
 62
     1
 10
3267.0610300000012
 20
175.02706000000001
 30
0.0
 11
3722.0610299999998
 21
175.02706000000001
 31
0.0
  0
LINE
  5
12F
  8
LAYER01
  6
CONTINUOUS
 62
     1
 10
3330.0610299999998
 20
385.02706000000001
 30
0.0
 11
3330.0610299999998
 21
63.027059999999999
 31
0.0
  0
TEXT
  5
130
  8
LAYER01
  6
CONTINUOUS
 62
     1
 10
3278.8200019999999
 20
77.027059999999992
 30
0.0
 40
13.300000000000001
  1
Zust
  7
SIMPLEX
  0
LINE
  5
131
  8
LAYER01
  6
CONTINUOUS
 62
     1
 10
3550.959492
 20
63.027059999999999
 30
0.0
 11
3550.959492
 21
385.02706000000001
 31
0.0
  0
LINE
  5
132
  8
LAYER01
  6
CONTINUOUS
 62
     1
 10
3659.0610299999998
 20
385.02706000000001
 30
0.0
 11
3659.0610299999998
 21
63.027059999999999
 31
0.0
  0
TEXT
  5
133
  8
LAYER01
  6
CONTINUOUS
 62
     1
 10
3391.8409890000012
 20
77.027059999999992
 30
0.0
 40
13.300000000000001
  1
Änderung
  7
SIMPLEX
  0
TEXT
  5
134
  8
LAYER01
  6
CONTINUOUS
 62
     1
 10
3570.6568330000009
 20
77.027059999999992
 30
0.0
 40
13.300000000000001
  1
Datum
  7
SIMPLEX
  0
TEXT
  5
135
  8
LAYER01
  6
CONTINUOUS
 62
     1
 10
3664.3304950000002
 20
77.027059999999992
 30
0.0
 40
13.300000000000001
  1
Name
  7
SIMPLEX
  0
LINE
  5
136
  8
LAYER01
  6
CONTINUOUS
 62
     1
 10
4849.0610299999998
 20
476.02705999999989
 30
0.0
 11
4107.0610299999989
 21
476.02705999999989
 31
0.0
  0
LINE
  5
137
  8
LAYER01
  6
CONTINUOUS
 62
     1
 10
3813.0610299999998
 20
245.02706000000001
 30
0.0
 11
3813.0610299999998
 21
385.02706000000001
 31
0.0
  0
TEXT
  5
138
  8
LAYER01
  6
CONTINUOUS
 62
     1
 10
3736.0610299999998
 20
322.02706000000001
 30
0.0
 40
14.0
  1
Bearb.
  7
SIMPLEX
  0
TEXT
  5
139
  8
LAYER01
  6
CONTINUOUS
 62
     1
 10
3736.0610299999998
 20
252.02706000000001
 30
0.0
 40
14.0
  1
Norm
  7
SIMPLEX
  0
TEXT
  5
13A
  8
LAYER01
  6
CONTINUOUS
 62
     1
 10
3736.0610299999998
 20
287.02706000000001
 30
0.0
 40
14.0
  1
Gepr.
  7
SIMPLEX
  0
TEXT
  5
13B
  8
LAYER01
  6
CONTINUOUS
 62
     1
 10
3848.0610299999998
 20
357.02706000000001
 30
0.0
 40
14.0
  1
Datum
  7
SIMPLEX
  0
TEXT
  5
13C
  8
LAYER01
  6
CONTINUOUS
 62
     1
 10
3988.0610299999998
 20
357.02706000000001
 30
0.0
 40
14.0
  1
Name
  7
SIMPLEX
  0
TEXT
  5
13D
  8
LAYER01
  6
CONTINUOUS
 62
     1
 10
4814.0610299999998
 20
112.02706000000001
 30
0.0
 40
14.0
  1
Bl.
  7
SIMPLEX
  0
LINE
  5
13E
  8
LAYER01
  6
CONTINUOUS
 62
     1
 10
4107.0610299999989
 20
63.027059999999999
 30
0.0
 11
4107.0610299999989
 21
532.02705999999989
 31
0.0
  0
LINE
  5
13F
  8
LAYER01
  6
CONTINUOUS
 62
     1
 10
3946.0610299999998
 20
210.02706000000001
 30
0.0
 11
3946.0610299999998
 21
532.02705999999989
 31
0.0
  0
LINE
  5
140
  8
LAYER01
  6
CONTINUOUS
 62
     1
 10
4548.0610299999998
 20
532.02705999999989
 30
0.0
 11
4548.0610299999998
 21
476.02705999999989
 31
0.0
  0
TEXT
  5
141
  8
LAYER01
  6
CONTINUOUS
 62
     1
 10
4122.3126299999994
 20
496.28505699999999
 30
0.0
 40
14.0
  1
Maßstab
  7
SIMPLEX
  0
LINE
  5
142
  8
LAYER01
  6
CONTINUOUS
 62
     1
 10
4744.0610299999998
 20
210.02706000000001
 30
0.0
 11
4744.0610299999998
 21
105.02706000000001
 31
0.0
  0
LINE
  5
143
  8
LAYER01
  6
CONTINUOUS
 62
     1
 10
4744.0610299999998
 20
140.02706000000001
 30
0.0
 11
4849.0610299999998
 21
140.02706000000001
 31
0.0
  0
ENDBLK
  5
144
  8
0
  0
BLOCK
  8
0
 62
     7
  2
WMF0
 70
     0
 10
0.0
 20
0.0
 30
0.0
  3
WMF0
  1

  0
POLYLINE
  5
147
  8
LAYER01
 62
     7
 66
     1
 10
0.0
 20
0.0
 30
0.0
 70
     1
  0
VERTEX
  5
148
  8
LAYER01
 62
     7
 10
2458.2645046842372
 20
7351.0038575557664
 30
0.0
  0
VERTEX
  5
149
  8
LAYER01
 62
     7
 10
2628.7570429123371
 20
7351.0038575557664
 30
0.0
  0
VERTEX
  5
14A
  8
LAYER01
 62
     7
 10
2842.8639513848352
 20
6863.3158993684092
 30
0.0
  0
VERTEX
  5
14B
  8
LAYER01
 62
     7
 10
3056.9708598573329
 20
7351.0038575557664
 30
0.0
  0
VERTEX
  5
14C
  8
LAYER01
 62
     7
 10
3235.3932835844148
 20
7351.0038575557664
 30
0.0
  0
VERTEX
  5
14D
  8
LAYER01
 62
     7
 10
2842.8639513848352
 20
6478.7164526678107
 30
0.0
  0
VERTEX
  5
14E
  8
LAYER01
 62
     7
 10
2458.2645046842372
 20
7351.0038575557664
 30
0.0
  0
VERTEX
  5
14F
  8
LAYER01
 62
     7
 10
2458.2645046842372
 20
7351.0038575557664
 30
0.0
  0
SEQEND
  5
150
  8
LAYER01
 62
     7
  0
POLYLINE
  5
151
  8
LAYER01
 62
     7
 66
     1
 10
0.0
 20
0.0
 30
0.0
 70
     1
  0
VERTEX
  5
152
  8
LAYER01
 62
     7
 10
3041.1110888593698
 20
6756.2624451321599
 30
0.0
  0
VERTEX
  5
153
  8
LAYER01
 62
     7
 10
3100.5852301017312
 20
6895.0354413643354
 30
0.0
  0
VERTEX
  5
154
  8
LAYER01
 62
     7
 10
3358.3065088186272
 20
6895.0354413643354
 30
0.0
  0
VERTEX
  5
155
  8
LAYER01
 62
     7
 10
3227.4633980854328
 20
7180.5113193276648
 30
0.0
  0
VERTEX
  5
156
  8
LAYER01
 62
     7
 10
3302.7973103257568
 20
7362.8986858042381
 30
0.0
  0
VERTEX
  5
157
  8
LAYER01
 62
     7
 10
3655.67721503043
 20
6617.4894488999853
 30
0.0
  0
VERTEX
  5
158
  8
LAYER01
 62
     7
 10
3655.67721503043
 20
7351.0038575557664
 30
0.0
  0
VERTEX
  5
159
  8
LAYER01
 62
     7
 10
4127.5054022198219
 20
7351.0038575557664
 30
0.0
  0
VERTEX
  5
15A
  8
LAYER01
 62
     7
 10
4127.5054022198219
 20
7351.0038575557664
 30
0.0
  0
VERTEX
  5
15B
  8
LAYER01
 62
     7
 10
4171.1197724642197
 20
7343.0739720567844
 30
0.0
  0
VERTEX
  5
15C
  8
LAYER01
 62
     7
 10
4210.7691999591279
 20
7327.2142010588213
 30
0.0
  0
VERTEX
  5
15D
  8
LAYER01
 62
     7
 10
4246.4536847045438
 20
7299.4596018123866
 30
0.0
  0
VERTEX
  5
15E
  8
LAYER01
 62
     7
 10
4278.1732267004691
 20
7271.705002565951
 30
0.0
  0
VERTEX
  5
15F
  8
LAYER01
 62
     7
 10
4305.9278259469047
 20
7236.0205178205342
 30
0.0
  0
VERTEX
  5
160
  8
LAYER01
 62
     7
 10
4325.7525396943593
 20
7196.3710903256278
 30
0.0
  0
VERTEX
  5
161
  8
LAYER01
 62
     7
 10
4341.6123106923224
 20
7148.7917773317413
 30
0.0
  0
VERTEX
  5
162
  8
LAYER01
 62
     7
 10
4345.577253441812
 20
7105.1774070873416
 30
0.0
  0
VERTEX
  5
163
  8
LAYER01
 62
     7
 10
4345.577253441812
 20
7105.1774070873416
 30
0.0
  0
VERTEX
  5
164
  8
LAYER01
 62
     7
 10
4345.577253441812
 20
7057.5980940934542
 30
0.0
  0
VERTEX
  5
165
  8
LAYER01
 62
     7
 10
4337.6473679428309
 20
7017.948666598546
 30
0.0
  0
VERTEX
  5
166
  8
LAYER01
 62
     7
 10
4321.7875969448678
 20
6978.2992391036396
 30
0.0
  0
VERTEX
  5
167
  8
LAYER01
 62
     7
 10
4301.9628831974142
 20
6942.6147543582238
 30
0.0
  0
VERTEX
  5
168
  8
LAYER01
 62
     7
 10
4274.2082839509794
 20
6910.8952123622976
 30
0.0
  0
VERTEX
  5
169
  8
LAYER01
 62
     7
 10
4242.4887419550541
 20
6883.1406131158628
 30
0.0
  0
VERTEX
  5
16A
  8
LAYER01
 62
     7
 10
4206.8042572096374
 20
6863.3158993684092
 30
0.0
  0
VERTEX
  5
16B
  8
LAYER01
 62
     7
 10
4163.1898869652387
 20
6847.4561283704461
 30
0.0
  0
VERTEX
  5
16C
  8
LAYER01
 62
     7
 10
4416.9462229326446
 20
6510.4359946637369
 30
0.0
  0
VERTEX
  5
16D
  8
LAYER01
 62
     7
 10
4416.9462229326446
 20
7351.0038575557664
 30
0.0
  0
VERTEX
  5
16E
  8
LAYER01
 62
     7
 10
4583.4738184112539
 20
7351.0038575557664
 30
0.0
  0
VERTEX
  5
16F
  8
LAYER01
 62
     7
 10
4583.4738184112539
 20
6502.506109164754
 30
0.0
  0
VERTEX
  5
170
  8
LAYER01
 62
     7
 10
4226.628970957091
 20
6502.506109164754
 30
0.0
  0
VERTEX
  5
171
  8
LAYER01
 62
     7
 10
3881.6789517513998
 20
6942.6147543582238
 30
0.0
  0
VERTEX
  5
172
  8
LAYER01
 62
     7
 10
4056.1364327289898
 20
6942.6147543582238
 30
0.0
  0
VERTEX
  5
173
  8
LAYER01
 62
     7
 10
4056.1364327289898
 20
6942.6147543582238
 30
0.0
  0
VERTEX
  5
174
  8
LAYER01
 62
     7
 10
4079.926089225934
 20
6946.5796971077143
 30
0.0
  0
VERTEX
  5
175
  8
LAYER01
 62
     7
 10
4103.7157457228786
 20
6954.5095826066963
 30
0.0
  0
VERTEX
  5
176
  8
LAYER01
 62
     7
 10
4123.5404594703332
 20
6966.404410855168
 30
0.0
  0
VERTEX
  5
177
  8
LAYER01
 62
     7
 10
4143.3651732177859
 20
6982.264181853131
 30
0.0
  0
VERTEX
  5
178
  8
LAYER01
 62
     7
 10
4155.2600014662594
 20
7002.0888956005829
 30
0.0
  0
VERTEX
  5
179
  8
LAYER01
 62
     7
 10
4167.1548297147301
 20
7025.878552097528
 30
0.0
  0
VERTEX
  5
17A
  8
LAYER01
 62
     7
 10
4175.0847152137121
 20
7049.6682085944722
 30
0.0
  0
VERTEX
  5
17B
  8
LAYER01
 62
     7
 10
4175.0847152137121
 20
7077.4228078409069
 30
0.0
  0
VERTEX
  5
17C
  8
LAYER01
 62
     7
 10
4175.0847152137121
 20
7077.4228078409069
 30
0.0
  0
VERTEX
  5
17D
  8
LAYER01
 62
     7
 10
4175.0847152137121
 20
7101.212464337852
 30
0.0
  0
VERTEX
  5
17E
  8
LAYER01
 62
     7
 10
4167.1548297147301
 20
7125.0021208347962
 30
0.0
  0
VERTEX
  5
17F
  8
LAYER01
 62
     7
 10
4159.224944215749
 20
7148.7917773317413
 30
0.0
  0
VERTEX
  5
180
  8
LAYER01
 62
     7
 10
4143.3651732177859
 20
7168.6164910791931
 30
0.0
  0
VERTEX
  5
181
  8
LAYER01
 62
     7
 10
4127.5054022198219
 20
7184.4762620771562
 30
0.0
  0
VERTEX
  5
182
  8
LAYER01
 62
     7
 10
4103.7157457228786
 20
7196.3710903256278
 30
0.0
  0
VERTEX
  5
183
  8
LAYER01
 62
     7
 10
4079.926089225934
 20
7204.3009758246098
 30
0.0
  0
VERTEX
  5
184
  8
LAYER01
 62
     7
 10
4056.1364327289898
 20
7208.2659185741013
 30
0.0
  0
VERTEX
  5
185
  8
LAYER01
 62
     7
 10
3834.099638757511
 20
7208.2659185741013
 30
0.0
  0
VERTEX
  5
186
  8
LAYER01
 62
     7
 10
3834.099638757511
 20
6502.506109164754
 30
0.0
  0
VERTEX
  5
187
  8
LAYER01
 62
     7
 10
3548.6237607941812
 20
6502.506109164754
 30
0.0
  0
VERTEX
  5
188
  8
LAYER01
 62
     7
 10
3429.6754783094589
 20
6756.2624451321599
 30
0.0
  0
VERTEX
  5
189
  8
LAYER01
 62
     7
 10
3041.1110888593698
 20
6756.2624451321599
 30
0.0
  0
VERTEX
  5
18A
  8
LAYER01
 62
     7
 10
3041.1110888593698
 20
6756.2624451321599
 30
0.0
  0
SEQEND
  5
18B
  8
LAYER01
 62
     7
  0
POLYLINE
  5
18C
  8
LAYER01
 62
     7
 66
     1
 10
0.0
 20
0.0
 30
0.0
 70
     1
  0
VERTEX
  5
18D
  8
LAYER01
 62
     7
 10
5352.6727118124509
 20
7295.4946590628961
 30
0.0
  0
VERTEX
  5
18E
  8
LAYER01
 62
     7
 10
5245.6192575762007
 20
7160.6866055802111
 30
0.0
  0
VERTEX
  5
18F
  8
LAYER01
 62
     7
 10
5245.6192575762007
 20
7160.6866055802111
 30
0.0
  0
VERTEX
  5
190
  8
LAYER01
 62
     7
 10
5209.9347728307857
 20
7184.4762620771562
 30
0.0
  0
VERTEX
  5
191
  8
LAYER01
 62
     7
 10
5174.250288085369
 20
7204.3009758246098
 30
0.0
  0
VERTEX
  5
192
  8
LAYER01
 62
     7
 10
5134.6008605904626
 20
7216.1958040730824
 30
0.0
  0
VERTEX
  5
193
  8
LAYER01
 62
     7
 10
5090.9864903460648
 20
7216.1958040730824
 30
0.0
  0
VERTEX
  5
194
  8
LAYER01
 62
     7
 10
5090.9864903460648
 20
7216.1958040730824
 30
0.0
  0
VERTEX
  5
195
  8
LAYER01
 62
     7
 10
5063.2318910996291
 20
7216.1958040730824
 30
0.0
  0
VERTEX
  5
196
  8
LAYER01
 62
     7
 10
5035.4772918531944
 20
7212.2308613235909
 30
0.0
  0
VERTEX
  5
197
  8
LAYER01
 62
     7
 10
5007.7226926067588
 20
7204.3009758246098
 30
0.0
  0
VERTEX
  5
198
  8
LAYER01
 62
     7
 10
4979.9680933603249
 20
7192.4061475761382
 30
0.0
  0
VERTEX
  5
199
  8
LAYER01
 62
     7
 10
4956.1784368633807
 20
7180.5113193276648
 30
0.0
  0
VERTEX
  5
19A
  8
LAYER01
 62
     7
 10
4936.3537231159271
 20
7164.6515483297017
 30
0.0
  0
VERTEX
  5
19B
  8
LAYER01
 62
     7
 10
4912.5640666189829
 20
7148.7917773317413
 30
0.0
  0
VERTEX
  5
19C
  8
LAYER01
 62
     7
 10
4896.7042956210198
 20
7128.9670635842867
 30
0.0
  0
VERTEX
  5
19D
  8
LAYER01
 62
     7
 10
4876.8795818735662
 20
7105.1774070873416
 30
0.0
  0
VERTEX
  5
19E
  8
LAYER01
 62
     7
 10
4864.9847536250936
 20
7081.3877505903993
 30
0.0
  0
VERTEX
  5
19F
  8
LAYER01
 62
     7
 10
4849.1249826271314
 20
7057.5980940934542
 30
0.0
  0
VERTEX
  5
1A0
  8
LAYER01
 62
     7
 10
4837.2301543786589
 20
7033.8084375965091
 30
0.0
  0
VERTEX
  5
1A1
  8
LAYER01
 62
     7
 10
4829.3002688796769
 20
7006.0538383500743
 30
0.0
  0
VERTEX
  5
1A2
  8
LAYER01
 62
     7
 10
4825.3353261301872
 20
6978.2992391036396
 30
0.0
  0
VERTEX
  5
1A3
  8
LAYER01
 62
     7
 10
4821.3703833806958
 20
6950.5446398572049
 30
0.0
  0
VERTEX
  5
1A4
  8
LAYER01
 62
     7
 10
4817.4054406312061
 20
6918.8250978612787
 30
0.0
  0
VERTEX
  5
1A5
  8
LAYER01
 62
     7
 10
4817.4054406312061
 20
6918.8250978612787
 30
0.0
  0
VERTEX
  5
1A6
  8
LAYER01
 62
     7
 10
4821.3703833806958
 20
6891.0704986148439
 30
0.0
  0
VERTEX
  5
1A7
  8
LAYER01
 62
     7
 10
4825.3353261301872
 20
6863.3158993684092
 30
0.0
  0
VERTEX
  5
1A8
  8
LAYER01
 62
     7
 10
4829.3002688796769
 20
6835.5613001219754
 30
0.0
  0
VERTEX
  5
1A9
  8
LAYER01
 62
     7
 10
4841.1950971281503
 20
6811.7716436250303
 30
0.0
  0
VERTEX
  5
1AA
  8
LAYER01
 62
     7
 10
4849.1249826271314
 20
6787.9819871280861
 30
0.0
  0
VERTEX
  5
1AB
  8
LAYER01
 62
     7
 10
4864.9847536250936
 20
6764.1923306311428
 30
0.0
  0
VERTEX
  5
1AC
  8
LAYER01
 62
     7
 10
4880.8445246230567
 20
6740.4026741341977
 30
0.0
  0
VERTEX
  5
1AD
  8
LAYER01
 62
     7
 10
4896.7042956210198
 20
6720.5779603867441
 30
0.0
  0
VERTEX
  5
1AE
  8
LAYER01
 62
     7
 10
4916.5290093684744
 20
6700.7532466392904
 30
0.0
  0
VERTEX
  5
1AF
  8
LAYER01
 62
     7
 10
4936.3537231159271
 20
6684.8934756413273
 30
0.0
  0
VERTEX
  5
1B0
  8
LAYER01
 62
     7
 10
4960.1433796128722
 20
6672.9986473928557
 30
0.0
  0
VERTEX
  5
1B1
  8
LAYER01
 62
     7
 10
4983.9330361098146
 20
6661.103819144384
 30
0.0
  0
VERTEX
  5
1B2
  8
LAYER01
 62
     7
 10
5011.6876353562502
 20
6649.2089908959106
 30
0.0
  0
VERTEX
  5
1B3
  8
LAYER01
 62
     7
 10
5035.4772918531944
 20
6641.2791053969304
 30
0.0
  0
VERTEX
  5
1B4
  8
LAYER01
 62
     7
 10
5063.2318910996291
 20
6637.3141626474389
 30
0.0
  0
VERTEX
  5
1B5
  8
LAYER01
 62
     7
 10
5094.9514330955553
 20
6637.3141626474389
 30
0.0
  0
VERTEX
  5
1B6
  8
LAYER01
 62
     7
 10
5094.9514330955553
 20
6637.3141626474389
 30
0.0
  0
VERTEX
  5
1B7
  8
LAYER01
 62
     7
 10
5138.5658033399532
 20
6641.2791053969304
 30
0.0
  0
VERTEX
  5
1B8
  8
LAYER01
 62
     7
 10
5174.250288085369
 20
6649.2089908959106
 30
0.0
  0
VERTEX
  5
1B9
  8
LAYER01
 62
     7
 10
5209.9347728307857
 20
6669.0337046433651
 30
0.0
  0
VERTEX
  5
1BA
  8
LAYER01
 62
     7
 10
5245.6192575762007
 20
6692.8233611403102
 30
0.0
  0
VERTEX
  5
1BB
  8
LAYER01
 62
     7
 10
5348.7077690629603
 20
6554.0503649081338
 30
0.0
  0
VERTEX
  5
1BC
  8
LAYER01
 62
     7
 10
5348.7077690629603
 20
6554.0503649081338
 30
0.0
  0
VERTEX
  5
1BD
  8
LAYER01
 62
     7
 10
5289.2336278206003
 20
6518.365880162718
 30
0.0
  0
VERTEX
  5
1BE
  8
LAYER01
 62
     7
 10
5257.5140858246741
 20
6506.4710519142463
 30
0.0
  0
VERTEX
  5
1BF
  8
LAYER01
 62
     7
 10
5229.7594865782394
 20
6494.5762236657738
 30
0.0
  0
VERTEX
  5
1C0
  8
LAYER01
 62
     7
 10
5198.0399445823132
 20
6486.6463381667918
 30
0.0
  0
VERTEX
  5
1C1
  8
LAYER01
 62
     7
 10
5166.3204025863879
 20
6482.6813954173012
 30
0.0
  0
VERTEX
  5
1C2
  8
LAYER01
 62
     7
 10
5094.9514330955553
 20
6478.7164526678107
 30
0.0
  0
VERTEX
  5
1C3
  8
LAYER01
 62
     7
 10
5094.9514330955553
 20
6478.7164526678107
 30
0.0
  0
VERTEX
  5
1C4
  8
LAYER01
 62
     7
 10
5047.372120101667
 20
6482.6813954173012
 30
0.0
  0
VERTEX
  5
1C5
  8
LAYER01
 62
     7
 10
5003.7577498572691
 20
6490.6112809162832
 30
0.0
  0
VERTEX
  5
1C6
  8
LAYER01
 62
     7
 10
4960.1433796128722
 20
6498.5411664152653
 30
0.0
  0
VERTEX
  5
1C7
  8
LAYER01
 62
     7
 10
4920.493952117964
 20
6514.4009374132283
 30
0.0
  0
VERTEX
  5
1C8
  8
LAYER01
 62
     7
 10
4880.8445246230567
 20
6534.2256511606811
 30
0.0
  0
VERTEX
  5
1C9
  8
LAYER01
 62
     7
 10
4845.16003987764
 20
6554.0503649081338
 30
0.0
  0
VERTEX
  5
1CA
  8
LAYER01
 62
     7
 10
4809.4755551322241
 20
6581.8049641545704
 30
0.0
  0
VERTEX
  5
1CB
  8
LAYER01
 62
     7
 10
4777.7560131362989
 20
6609.5595634010042
 30
0.0
  0
VERTEX
  5
1CC
  8
LAYER01
 62
     7
 10
4746.0364711403727
 20
6641.2791053969304
 30
0.0
  0
VERTEX
  5
1CD
  8
LAYER01
 62
     7
 10
4722.2468146434294
 20
6676.9635901423471
 30
0.0
  0
VERTEX
  5
1CE
  8
LAYER01
 62
     7
 10
4698.4571581464843
 20
6712.648074887763
 30
0.0
  0
VERTEX
  5
1CF
  8
LAYER01
 62
     7
 10
4678.6324443990306
 20
6752.2975023826693
 30
0.0
  0
VERTEX
  5
1D0
  8
LAYER01
 62
     7
 10
4666.737616150559
 20
6791.9469298775757
 30
0.0
  0
VERTEX
  5
1D1
  8
LAYER01
 62
     7
 10
4654.8427879020874
 20
6835.5613001219754
 30
0.0
  0
VERTEX
  5
1D2
  8
LAYER01
 62
     7
 10
4646.9129024031054
 20
6879.1756703663723
 30
0.0
  0
VERTEX
  5
1D3
  8
LAYER01
 62
     7
 10
4642.9479596536139
 20
6926.7549833602607
 30
0.0
  0
VERTEX
  5
1D4
  8
LAYER01
 62
     7
 10
4642.9479596536139
 20
6926.7549833602607
 30
0.0
  0
VERTEX
  5
1D5
  8
LAYER01
 62
     7
 10
4646.9129024031054
 20
6970.3693536046594
 30
0.0
  0
VERTEX
  5
1D6
  8
LAYER01
 62
     7
 10
4654.8427879020874
 20
7017.948666598546
 30
0.0
  0
VERTEX
  5
1D7
  8
LAYER01
 62
     7
 10
4662.7726734010676
 20
7057.5980940934542
 30
0.0
  0
VERTEX
  5
1D8
  8
LAYER01
 62
     7
 10
4678.6324443990306
 20
7101.212464337852
 30
0.0
  0
VERTEX
  5
1D9
  8
LAYER01
 62
     7
 10
4698.4571581464843
 20
7140.8618918327593
 30
0.0
  0
VERTEX
  5
1DA
  8
LAYER01
 62
     7
 10
4718.2818718939379
 20
7176.5463765781742
 30
0.0
  0
VERTEX
  5
1DB
  8
LAYER01
 62
     7
 10
4746.0364711403727
 20
7212.2308613235909
 30
0.0
  0
VERTEX
  5
1DC
  8
LAYER01
 62
     7
 10
4773.7910703868083
 20
7243.950403319518
 30
0.0
  0
VERTEX
  5
1DD
  8
LAYER01
 62
     7
 10
4805.5106123827327
 20
7271.705002565951
 30
0.0
  0
VERTEX
  5
1DE
  8
LAYER01
 62
     7
 10
4841.1950971281503
 20
7299.4596018123866
 30
0.0
  0
VERTEX
  5
1DF
  8
LAYER01
 62
     7
 10
4876.8795818735662
 20
7319.2843155598412
 30
0.0
  0
VERTEX
  5
1E0
  8
LAYER01
 62
     7
 10
4916.5290093684744
 20
7339.1090293072939
 30
0.0
  0
VERTEX
  5
1E1
  8
LAYER01
 62
     7
 10
4956.1784368633807
 20
7354.968800305257
 30
0.0
  0
VERTEX
  5
1E2
  8
LAYER01
 62
     7
 10
4999.7928071077786
 20
7366.8636285537286
 30
0.0
  0
VERTEX
  5
1E3
  8
LAYER01
 62
     7
 10
5047.372120101667
 20
7370.8285713032201
 30
0.0
  0
VERTEX
  5
1E4
  8
LAYER01
 62
     7
 10
5090.9864903460648
 20
7374.7935140527097
 30
0.0
  0
VERTEX
  5
1E5
  8
LAYER01
 62
     7
 10
5090.9864903460648
 20
7374.7935140527097
 30
0.0
  0
VERTEX
  5
1E6
  8
LAYER01
 62
     7
 10
5162.3554598368983
 20
7370.8285713032201
 30
0.0
  0
VERTEX
  5
1E7
  8
LAYER01
 62
     7
 10
5198.0399445823132
 20
7366.8636285537286
 30
0.0
  0
VERTEX
  5
1E8
  8
LAYER01
 62
     7
 10
5229.7594865782394
 20
7358.9337430547466
 30
0.0
  0
VERTEX
  5
1E9
  8
LAYER01
 62
     7
 10
5257.5140858246741
 20
7347.038914806275
 30
0.0
  0
VERTEX
  5
1EA
  8
LAYER01
 62
     7
 10
5289.2336278206003
 20
7335.1440865578043
 30
0.0
  0
VERTEX
  5
1EB
  8
LAYER01
 62
     7
 10
5320.9531698165256
 20
7315.3193728103497
 30
0.0
  0
VERTEX
  5
1EC
  8
LAYER01
 62
     7
 10
5352.6727118124509
 20
7295.4946590628961
 30
0.0
  0
VERTEX
  5
1ED
  8
LAYER01
 62
     7
 10
5352.6727118124509
 20
7295.4946590628961
 30
0.0
  0
SEQEND
  5
1EE
  8
LAYER01
 62
     7
  0
POLYLINE
  5
1EF
  8
LAYER01
 62
     7
 66
     1
 10
0.0
 20
0.0
 30
0.0
 70
     1
  0
VERTEX
  5
1F0
  8
LAYER01
 62
     7
 10
5737.2721585130494
 20
7370.8285713032201
 30
0.0
  0
VERTEX
  5
1F1
  8
LAYER01
 62
     7
 10
5737.2721585130494
 20
7370.8285713032201
 30
0.0
  0
VERTEX
  5
1F2
  8
LAYER01
 62
     7
 10
5693.6577882686524
 20
7366.8636285537286
 30
0.0
  0
VERTEX
  5
1F3
  8
LAYER01
 62
     7
 10
5646.0784752747632
 20
7362.8986858042381
 30
0.0
  0
VERTEX
  5
1F4
  8
LAYER01
 62
     7
 10
5606.429047779855
 20
7351.0038575557664
 30
0.0
  0
VERTEX
  5
1F5
  8
LAYER01
 62
     7
 10
5562.814677535458
 20
7335.1440865578043
 30
0.0
  0
VERTEX
  5
1F6
  8
LAYER01
 62
     7
 10
5523.1652500405517
 20
7319.2843155598412
 30
0.0
  0
VERTEX
  5
1F7
  8
LAYER01
 62
     7
 10
5487.4807652951349
 20
7295.4946590628961
 30
0.0
  0
VERTEX
  5
1F8
  8
LAYER01
 62
     7
 10
5451.7962805497182
 20
7271.705002565951
 30
0.0
  0
VERTEX
  5
1F9
  8
LAYER01
 62
     7
 10
5420.0767385537929
 20
7239.9854605700266
 30
0.0
  0
VERTEX
  5
1FA
  8
LAYER01
 62
     7
 10
5392.3221393073582
 20
7208.2659185741013
 30
0.0
  0
VERTEX
  5
1FB
  8
LAYER01
 62
     7
 10
5364.5675400609243
 20
7176.5463765781742
 30
0.0
  0
VERTEX
  5
1FC
  8
LAYER01
 62
     7
 10
5340.7778835639801
 20
7140.8618918327593
 30
0.0
  0
VERTEX
  5
1FD
  8
LAYER01
 62
     7
 10
5320.9531698165256
 20
7101.212464337852
 30
0.0
  0
VERTEX
  5
1FE
  8
LAYER01
 62
     7
 10
5309.0583415680539
 20
7057.5980940934542
 30
0.0
  0
VERTEX
  5
1FF
  8
LAYER01
 62
     7
 10
5297.1635133195814
 20
7017.948666598546
 30
0.0
  0
VERTEX
  5
200
  8
LAYER01
 62
     7
 10
5289.2336278206003
 20
6970.3693536046594
 30
0.0
  0
VERTEX
  5
201
  8
LAYER01
 62
     7
 10
5285.2686850711088
 20
6926.7549833602607
 30
0.0
  0
VERTEX
  5
202
  8
LAYER01
 62
     7
 10
5285.2686850711088
 20
6926.7549833602607
 30
0.0
  0
VERTEX
  5
203
  8
LAYER01
 62
     7
 10
5289.2336278206003
 20
6879.1756703663723
 30
0.0
  0
VERTEX
  5
204
  8
LAYER01
 62
     7
 10
5293.1985705700909
 20
6835.5613001219754
 30
0.0
  0
VERTEX
  5
205
  8
LAYER01
 62
     7
 10
5305.0933988185634
 20
6791.9469298775757
 30
0.0
  0
VERTEX
  5
206
  8
LAYER01
 62
     7
 10
5320.9531698165256
 20
6752.2975023826693
 30
0.0
  0
VERTEX
  5
207
  8
LAYER01
 62
     7
 10
5336.8129408144878
 20
6712.648074887763
 30
0.0
  0
VERTEX
  5
208
  8
LAYER01
 62
     7
 10
5360.602597311432
 20
6676.9635901423471
 30
0.0
  0
VERTEX
  5
209
  8
LAYER01
 62
     7
 10
5384.3922538083762
 20
6641.2791053969304
 30
0.0
  0
VERTEX
  5
20A
  8
LAYER01
 62
     7
 10
5412.1468530548118
 20
6609.5595634010042
 30
0.0
  0
VERTEX
  5
20B
  8
LAYER01
 62
     7
 10
5443.8663950507362
 20
6577.8400214050789
 30
0.0
  0
VERTEX
  5
20C
  8
LAYER01
 62
     7
 10
5479.5508797961529
 20
6554.0503649081338
 30
0.0
  0
VERTEX
  5
20D
  8
LAYER01
 62
     7
 10
5515.2353645415697
 20
6530.2607084111914
 30
0.0
  0
VERTEX
  5
20E
  8
LAYER01
 62
     7
 10
5554.8847920364769
 20
6510.4359946637369
 30
0.0
  0
VERTEX
  5
20F
  8
LAYER01
 62
     7
 10
5594.5342195313842
 20
6494.5762236657738
 30
0.0
  0
VERTEX
  5
210
  8
LAYER01
 62
     7
 10
5638.1485897757821
 20
6486.6463381667918
 30
0.0
  0
VERTEX
  5
211
  8
LAYER01
 62
     7
 10
5681.762960020179
 20
6478.7164526678107
 30
0.0
  0
VERTEX
  5
212
  8
LAYER01
 62
     7
 10
5725.3773302645768
 20
6474.7515099183202
 30
0.0
  0
VERTEX
  5
213
  8
LAYER01
 62
     7
 10
5725.3773302645768
 20
6474.7515099183202
 30
0.0
  0
VERTEX
  5
214
  8
LAYER01
 62
     7
 10
5772.9566432584652
 20
6478.7164526678107
 30
0.0
  0
VERTEX
  5
215
  8
LAYER01
 62
     7
 10
5816.571013502863
 20
6486.6463381667918
 30
0.0
  0
VERTEX
  5
216
  8
LAYER01
 62
     7
 10
5860.1853837472609
 20
6498.5411664152653
 30
0.0
  0
VERTEX
  5
217
  8
LAYER01
 62
     7
 10
5899.8348112421681
 20
6514.4009374132283
 30
0.0
  0
VERTEX
  5
218
  8
LAYER01
 62
     7
 10
5939.4842387370763
 20
6534.2256511606811
 30
0.0
  0
VERTEX
  5
219
  8
LAYER01
 62
     7
 10
5975.1687234824913
 20
6558.0153076576253
 30
0.0
  0
VERTEX
  5
21A
  8
LAYER01
 62
     7
 10
6010.853208227908
 20
6581.8049641545704
 30
0.0
  0
VERTEX
  5
21B
  8
LAYER01
 62
     7
 10
6042.5727502238333
 20
6613.5245061504938
 30
0.0
  0
VERTEX
  5
21C
  8
LAYER01
 62
     7
 10
6070.327349470268
 20
6645.2440481464209
 30
0.0
  0
VERTEX
  5
21D
  8
LAYER01
 62
     7
 10
6094.1170059672131
 20
6680.9285328918368
 30
0.0
  0
VERTEX
  5
21E
  8
LAYER01
 62
     7
 10
6113.9417197146659
 20
6716.6130176372544
 30
0.0
  0
VERTEX
  5
21F
  8
LAYER01
 62
     7
 10
6133.7664334621204
 20
6756.2624451321599
 30
0.0
  0
VERTEX
  5
220
  8
LAYER01
 62
     7
 10
6149.6262044600826
 20
6799.8768153765577
 30
0.0
  0
VERTEX
  5
221
  8
LAYER01
 62
     7
 10
6157.5560899590637
 20
6843.4911856209546
 30
0.0
  0
VERTEX
  5
222
  8
LAYER01
 62
     7
 10
6161.5210327085542
 20
6887.1055558653534
 30
0.0
  0
VERTEX
  5
223
  8
LAYER01
 62
     7
 10
6165.4859754580457
 20
6934.6848688592418
 30
0.0
  0
VERTEX
  5
224
  8
LAYER01
 62
     7
 10
6165.4859754580457
 20
6934.6848688592418
 30
0.0
  0
VERTEX
  5
225
  8
LAYER01
 62
     7
 10
6161.5210327085542
 20
6978.2992391036396
 30
0.0
  0
VERTEX
  5
226
  8
LAYER01
 62
     7
 10
6153.5911472095731
 20
7021.9136093480374
 30
0.0
  0
VERTEX
  5
227
  8
LAYER01
 62
     7
 10
6141.6963189611024
 20
7061.5630368429447
 30
0.0
  0
VERTEX
  5
228
  8
LAYER01
 62
     7
 10
6129.8014907126289
 20
7101.212464337852
 30
0.0
  0
VERTEX
  5
229
  8
LAYER01
 62
     7
 10
6109.9767769651762
 20
7136.8969490832678
 30
0.0
  0
VERTEX
  5
22A
  8
LAYER01
 62
     7
 10
6090.1520632177217
 20
7172.5814338286846
 30
0.0
  0
VERTEX
  5
22B
  8
LAYER01
 62
     7
 10
6066.3624067207766
 20
7208.2659185741013
 30
0.0
  0
VERTEX
  5
22C
  8
LAYER01
 62
     7
 10
6038.6078074743427
 20
7236.0205178205342
 30
0.0
  0
VERTEX
  5
22D
  8
LAYER01
 62
     7
 10
6006.8882654784175
 20
7263.7751170669708
 30
0.0
  0
VERTEX
  5
22E
  8
LAYER01
 62
     7
 10
5975.1687234824913
 20
7291.5297163134046
 30
0.0
  0
VERTEX
  5
22F
  8
LAYER01
 62
     7
 10
5939.4842387370763
 20
7311.3544300608592
 30
0.0
  0
VERTEX
  5
230
  8
LAYER01
 62
     7
 10
5903.7997539916587
 20
7331.1791438083128
 30
0.0
  0
VERTEX
  5
231
  8
LAYER01
 62
     7
 10
5864.1503264967514
 20
7347.038914806275
 30
0.0
  0
VERTEX
  5
232
  8
LAYER01
 62
     7
 10
5824.5008990018441
 20
7358.9337430547466
 30
0.0
  0
VERTEX
  5
233
  8
LAYER01
 62
     7
 10
5780.8865287574472
 20
7366.8636285537286
 30
0.0
  0
VERTEX
  5
234
  8
LAYER01
 62
     7
 10
5737.2721585130494
 20
7370.8285713032201
 30
0.0
  0
VERTEX
  5
235
  8
LAYER01
 62
     7
 10
5737.2721585130494
 20
7370.8285713032201
 30
0.0
  0
SEQEND
  5
236
  8
LAYER01
 62
     7
  0
POLYLINE
  5
237
  8
LAYER01
 62
     7
 66
     1
 10
0.0
 20
0.0
 30
0.0
 70
     1
  0
VERTEX
  5
238
  8
LAYER01
 62
     7
 10
5725.3773302645768
 20
6637.3141626474389
 30
0.0
  0
VERTEX
  5
239
  8
LAYER01
 62
     7
 10
5725.3773302645768
 20
6637.3141626474389
 30
0.0
  0
VERTEX
  5
23A
  8
LAYER01
 62
     7
 10
5697.6227310181421
 20
6641.2791053969304
 30
0.0
  0
VERTEX
  5
23B
  8
LAYER01
 62
     7
 10
5669.8681317717073
 20
6645.2440481464209
 30
0.0
  0
VERTEX
  5
23C
  8
LAYER01
 62
     7
 10
5642.1135325252717
 20
6649.2089908959106
 30
0.0
  0
VERTEX
  5
23D
  8
LAYER01
 62
     7
 10
5614.3589332788379
 20
6661.103819144384
 30
0.0
  0
VERTEX
  5
23E
  8
LAYER01
 62
     7
 10
5590.5692767818919
 20
6672.9986473928557
 30
0.0
  0
VERTEX
  5
23F
  8
LAYER01
 62
     7
 10
5566.7796202849486
 20
6688.8584183908179
 30
0.0
  0
VERTEX
  5
240
  8
LAYER01
 62
     7
 10
5546.9549065374968
 20
6704.718189388781
 30
0.0
  0
VERTEX
  5
241
  8
LAYER01
 62
     7
 10
5527.1301927900431
 20
6724.5429031362346
 30
0.0
  0
VERTEX
  5
242
  8
LAYER01
 62
     7
 10
5507.3054790425886
 20
6744.3676168836892
 30
0.0
  0
VERTEX
  5
243
  8
LAYER01
 62
     7
 10
5491.4457080446264
 20
6764.1923306311428
 30
0.0
  0
VERTEX
  5
244
  8
LAYER01
 62
     7
 10
5479.5508797961529
 20
6787.9819871280861
 30
0.0
  0
VERTEX
  5
245
  8
LAYER01
 62
     7
 10
5467.6560515476813
 20
6815.7365863745208
 30
0.0
  0
VERTEX
  5
246
  8
LAYER01
 62
     7
 10
5455.7612232992096
 20
6839.5262428714641
 30
0.0
  0
VERTEX
  5
247
  8
LAYER01
 62
     7
 10
5451.7962805497182
 20
6867.2808421178988
 30
0.0
  0
VERTEX
  5
248
  8
LAYER01
 62
     7
 10
5443.8663950507362
 20
6895.0354413643354
 30
0.0
  0
VERTEX
  5
249
  8
LAYER01
 62
     7
 10
5443.8663950507362
 20
6926.7549833602607
 30
0.0
  0
VERTEX
  5
24A
  8
LAYER01
 62
     7
 10
5443.8663950507362
 20
6926.7549833602607
 30
0.0
  0
VERTEX
  5
24B
  8
LAYER01
 62
     7
 10
5447.8313378002267
 20
6954.5095826066963
 30
0.0
  0
VERTEX
  5
24C
  8
LAYER01
 62
     7
 10
5451.7962805497182
 20
6982.264181853131
 30
0.0
  0
VERTEX
  5
24D
  8
LAYER01
 62
     7
 10
5459.7261660486993
 20
7010.0187810995658
 30
0.0
  0
VERTEX
  5
24E
  8
LAYER01
 62
     7
 10
5467.6560515476813
 20
7037.7733803459996
 30
0.0
  0
VERTEX
  5
24F
  8
LAYER01
 62
     7
 10
5479.5508797961529
 20
7061.5630368429447
 30
0.0
  0
VERTEX
  5
250
  8
LAYER01
 62
     7
 10
5495.410650794116
 20
7085.3526933398889
 30
0.0
  0
VERTEX
  5
251
  8
LAYER01
 62
     7
 10
5511.27042179208
 20
7105.1774070873416
 30
0.0
  0
VERTEX
  5
252
  8
LAYER01
 62
     7
 10
5531.0951355395327
 20
7125.0021208347962
 30
0.0
  0
VERTEX
  5
253
  8
LAYER01
 62
     7
 10
5550.9198492869864
 20
7144.826834582248
 30
0.0
  0
VERTEX
  5
254
  8
LAYER01
 62
     7
 10
5570.74456303444
 20
7160.6866055802111
 30
0.0
  0
VERTEX
  5
255
  8
LAYER01
 62
     7
 10
5594.5342195313842
 20
7176.5463765781742
 30
0.0
  0
VERTEX
  5
256
  8
LAYER01
 62
     7
 10
5622.288818777819
 20
7188.4412048266468
 30
0.0
  0
VERTEX
  5
257
  8
LAYER01
 62
     7
 10
5646.0784752747632
 20
7196.3710903256278
 30
0.0
  0
VERTEX
  5
258
  8
LAYER01
 62
     7
 10
5673.8330745211979
 20
7204.3009758246098
 30
0.0
  0
VERTEX
  5
259
  8
LAYER01
 62
     7
 10
5701.5876737676326
 20
7208.2659185741013
 30
0.0
  0
VERTEX
  5
25A
  8
LAYER01
 62
     7
 10
5733.3072157635588
 20
7208.2659185741013
 30
0.0
  0
VERTEX
  5
25B
  8
LAYER01
 62
     7
 10
5733.3072157635588
 20
7208.2659185741013
 30
0.0
  0
VERTEX
  5
25C
  8
LAYER01
 62
     7
 10
5761.0618150099936
 20
7204.3009758246098
 30
0.0
  0
VERTEX
  5
25D
  8
LAYER01
 62
     7
 10
5788.8164142564283
 20
7200.3360330751193
 30
0.0
  0
VERTEX
  5
25E
  8
LAYER01
 62
     7
 10
5812.6060707533716
 20
7192.4061475761382
 30
0.0
  0
VERTEX
  5
25F
  8
LAYER01
 62
     7
 10
5840.3606699998072
 20
7184.4762620771562
 30
0.0
  0
VERTEX
  5
260
  8
LAYER01
 62
     7
 10
5860.1853837472609
 20
7172.5814338286846
 30
0.0
  0
VERTEX
  5
261
  8
LAYER01
 62
     7
 10
5883.975040244205
 20
7156.7216628307224
 30
0.0
  0
VERTEX
  5
262
  8
LAYER01
 62
     7
 10
5903.7997539916587
 20
7140.8618918327593
 30
0.0
  0
VERTEX
  5
263
  8
LAYER01
 62
     7
 10
5923.6244677391132
 20
7125.0021208347962
 30
0.0
  0
VERTEX
  5
264
  8
LAYER01
 62
     7
 10
5939.4842387370763
 20
7105.1774070873416
 30
0.0
  0
VERTEX
  5
265
  8
LAYER01
 62
     7
 10
5955.3440097350367
 20
7081.3877505903993
 30
0.0
  0
VERTEX
  5
266
  8
LAYER01
 62
     7
 10
5971.2037807329998
 20
7061.5630368429447
 30
0.0
  0
VERTEX
  5
267
  8
LAYER01
 62
     7
 10
5983.0986089814742
 20
7037.7733803459996
 30
0.0
  0
VERTEX
  5
268
  8
LAYER01
 62
     7
 10
5991.0284944804544
 20
7010.0187810995658
 30
0.0
  0
VERTEX
  5
269
  8
LAYER01
 62
     7
 10
5998.9583799794354
 20
6986.2291246026198
 30
0.0
  0
VERTEX
  5
26A
  8
LAYER01
 62
     7
 10
6002.923322728926
 20
6958.4745253561859
 30
0.0
  0
VERTEX
  5
26B
  8
LAYER01
 62
     7
 10
6002.923322728926
 20
6930.7199261097512
 30
0.0
  0
VERTEX
  5
26C
  8
LAYER01
 62
     7
 10
6002.923322728926
 20
6930.7199261097512
 30
0.0
  0
VERTEX
  5
26D
  8
LAYER01
 62
     7
 10
6002.923322728926
 20
6899.0003841138259
 30
0.0
  0
VERTEX
  5
26E
  8
LAYER01
 62
     7
 10
5998.9583799794354
 20
6871.2457848673903
 30
0.0
  0
VERTEX
  5
26F
  8
LAYER01
 62
     7
 10
5994.9934372299449
 20
6843.4911856209546
 30
0.0
  0
VERTEX
  5
270
  8
LAYER01
 62
     7
 10
5983.0986089814742
 20
6819.7015291240123
 30
0.0
  0
VERTEX
  5
271
  8
LAYER01
 62
     7
 10
5975.1687234824913
 20
6791.9469298775757
 30
0.0
  0
VERTEX
  5
272
  8
LAYER01
 62
     7
 10
5959.3089524845291
 20
6768.1572733806324
 30
0.0
  0
VERTEX
  5
273
  8
LAYER01
 62
     7
 10
5943.449181486566
 20
6744.3676168836892
 30
0.0
  0
VERTEX
  5
274
  8
LAYER01
 62
     7
 10
5923.6244677391132
 20
6724.5429031362346
 30
0.0
  0
VERTEX
  5
275
  8
LAYER01
 62
     7
 10
5903.7997539916587
 20
6704.718189388781
 30
0.0
  0
VERTEX
  5
276
  8
LAYER01
 62
     7
 10
5883.975040244205
 20
6688.8584183908179
 30
0.0
  0
VERTEX
  5
277
  8
LAYER01
 62
     7
 10
5860.1853837472609
 20
6672.9986473928557
 30
0.0
  0
VERTEX
  5
278
  8
LAYER01
 62
     7
 10
5836.3957272503167
 20
6661.103819144384
 30
0.0
  0
VERTEX
  5
279
  8
LAYER01
 62
     7
 10
5808.641128003881
 20
6653.173933645402
 30
0.0
  0
VERTEX
  5
27A
  8
LAYER01
 62
     7
 10
5780.8865287574472
 20
6645.2440481464209
 30
0.0
  0
VERTEX
  5
27B
  8
LAYER01
 62
     7
 10
5753.1319295110115
 20
6641.2791053969304
 30
0.0
  0
VERTEX
  5
27C
  8
LAYER01
 62
     7
 10
5725.3773302645768
 20
6637.3141626474389
 30
0.0
  0
VERTEX
  5
27D
  8
LAYER01
 62
     7
 10
5725.3773302645768
 20
6637.3141626474389
 30
0.0
  0
SEQEND
  5
27E
  8
LAYER01
 62
     7
  0
POLYLINE
  5
27F
  8
LAYER01
 62
     7
 66
     1
 10
0.0
 20
0.0
 30
0.0
 70
     1
  0
VERTEX
  5
280
  8
LAYER01
 62
     7
 10
6042.5727502238333
 20
7351.0038575557664
 30
0.0
  0
VERTEX
  5
281
  8
LAYER01
 62
     7
 10
6462.8566816698476
 20
7351.0038575557664
 30
0.0
  0
VERTEX
  5
282
  8
LAYER01
 62
     7
 10
6462.8566816698476
 20
7351.0038575557664
 30
0.0
  0
VERTEX
  5
283
  8
LAYER01
 62
     7
 10
6510.4359946637369
 20
7343.0739720567844
 30
0.0
  0
VERTEX
  5
284
  8
LAYER01
 62
     7
 10
6554.0503649081338
 20
7323.2492583093299
 30
0.0
  0
VERTEX
  5
285
  8
LAYER01
 62
     7
 10
6589.7348496535496
 20
7299.4596018123866
 30
0.0
  0
VERTEX
  5
286
  8
LAYER01
 62
     7
 10
6621.4543916494758
 20
7267.7400598164604
 30
0.0
  0
VERTEX
  5
287
  8
LAYER01
 62
     7
 10
6649.2089908959106
 20
7236.0205178205342
 30
0.0
  0
VERTEX
  5
288
  8
LAYER01
 62
     7
 10
6669.0337046433651
 20
7196.3710903256278
 30
0.0
  0
VERTEX
  5
289
  8
LAYER01
 62
     7
 10
6680.9285328918368
 20
7148.7917773317413
 30
0.0
  0
VERTEX
  5
28A
  8
LAYER01
 62
     7
 10
6684.8934756413273
 20
7105.1774070873416
 30
0.0
  0
VERTEX
  5
28B
  8
LAYER01
 62
     7
 10
6684.8934756413273
 20
7105.1774070873416
 30
0.0
  0
VERTEX
  5
28C
  8
LAYER01
 62
     7
 10
6680.9285328918368
 20
7057.5980940934542
 30
0.0
  0
VERTEX
  5
28D
  8
LAYER01
 62
     7
 10
6672.9986473928557
 20
7017.948666598546
 30
0.0
  0
VERTEX
  5
28E
  8
LAYER01
 62
     7
 10
6657.1388763948926
 20
6978.2992391036396
 30
0.0
  0
VERTEX
  5
28F
  8
LAYER01
 62
     7
 10
6637.3141626474389
 20
6942.6147543582238
 30
0.0
  0
VERTEX
  5
290
  8
LAYER01
 62
     7
 10
6609.5595634010042
 20
6910.8952123622976
 30
0.0
  0
VERTEX
  5
291
  8
LAYER01
 62
     7
 10
6581.8049641545704
 20
6887.1055558653534
 30
0.0
  0
VERTEX
  5
292
  8
LAYER01
 62
     7
 10
6542.1555366596622
 20
6863.3158993684092
 30
0.0
  0
VERTEX
  5
293
  8
LAYER01
 62
     7
 10
6502.506109164754
 20
6847.4561283704461
 30
0.0
  0
VERTEX
  5
294
  8
LAYER01
 62
     7
 10
6760.2273878816522
 20
6502.506109164754
 30
0.0
  0
VERTEX
  5
295
  8
LAYER01
 62
     7
 10
6561.9802504071158
 20
6502.506109164754
 30
0.0
  0
VERTEX
  5
296
  8
LAYER01
 62
     7
 10
6217.0302312014246
 20
6942.6147543582238
 30
0.0
  0
VERTEX
  5
297
  8
LAYER01
 62
     7
 10
6411.3124259264687
 20
6942.6147543582238
 30
0.0
  0
VERTEX
  5
298
  8
LAYER01
 62
     7
 10
6411.3124259264687
 20
6942.6147543582238
 30
0.0
  0
VERTEX
  5
299
  8
LAYER01
 62
     7
 10
6435.102082423412
 20
6950.5446398572049
 30
0.0
  0
VERTEX
  5
29A
  8
LAYER01
 62
     7
 10
6454.9267961708656
 20
6958.4745253561859
 30
0.0
  0
VERTEX
  5
29B
  8
LAYER01
 62
     7
 10
6470.7865671688287
 20
6974.334296354149
 30
0.0
  0
VERTEX
  5
29C
  8
LAYER01
 62
     7
 10
6486.6463381667918
 20
6990.1940673521131
 30
0.0
  0
VERTEX
  5
29D
  8
LAYER01
 62
     7
 10
6498.5411664152653
 20
7010.0187810995658
 30
0.0
  0
VERTEX
  5
29E
  8
LAYER01
 62
     7
 10
6510.4359946637369
 20
7029.8434948470176
 30
0.0
  0
VERTEX
  5
29F
  8
LAYER01
 62
     7
 10
6514.4009374132283
 20
7053.6331513439627
 30
0.0
  0
VERTEX
  5
2A0
  8
LAYER01
 62
     7
 10
6514.4009374132283
 20
7077.4228078409069
 30
0.0
  0
VERTEX
  5
2A1
  8
LAYER01
 62
     7
 10
6514.4009374132283
 20
7077.4228078409069
 30
0.0
  0
VERTEX
  5
2A2
  8
LAYER01
 62
     7
 10
6514.4009374132283
 20
7101.212464337852
 30
0.0
  0
VERTEX
  5
2A3
  8
LAYER01
 62
     7
 10
6506.4710519142463
 20
7121.0371780853047
 30
0.0
  0
VERTEX
  5
2A4
  8
LAYER01
 62
     7
 10
6498.5411664152653
 20
7140.8618918327593
 30
0.0
  0
VERTEX
  5
2A5
  8
LAYER01
 62
     7
 10
6486.6463381667918
 20
7160.6866055802111
 30
0.0
  0
VERTEX
  5
2A6
  8
LAYER01
 62
     7
 10
6470.7865671688287
 20
7176.5463765781742
 30
0.0
  0
VERTEX
  5
2A7
  8
LAYER01
 62
     7
 10
6454.9267961708656
 20
7188.4412048266468
 30
0.0
  0
VERTEX
  5
2A8
  8
LAYER01
 62
     7
 10
6431.1371396739214
 20
7200.3360330751193
 30
0.0
  0
VERTEX
  5
2A9
  8
LAYER01
 62
     7
 10
6411.3124259264687
 20
7208.2659185741013
 30
0.0
  0
VERTEX
  5
2AA
  8
LAYER01
 62
     7
 10
6185.3106892054993
 20
7208.2659185741013
 30
0.0
  0
VERTEX
  5
2AB
  8
LAYER01
 62
     7
 10
6042.5727502238333
 20
7351.0038575557664
 30
0.0
  0
VERTEX
  5
2AC
  8
LAYER01
 62
     7
 10
6042.5727502238333
 20
7351.0038575557664
 30
0.0
  0
SEQEND
  5
2AD
  8
LAYER01
 62
     7
  0
POLYLINE
  5
2AE
  8
LAYER01
 62
     7
 66
     1
 10
0.0
 20
0.0
 30
0.0
 70
     1
  0
VERTEX
  5
2AF
  8
LAYER01
 62
     7
 10
6867.2808421178988
 20
7140.8618918327593
 30
0.0
  0
VERTEX
  5
2B0
  8
LAYER01
 62
     7
 10
6867.2808421178988
 20
7140.8618918327593
 30
0.0
  0
VERTEX
  5
2B1
  8
LAYER01
 62
     7
 10
6887.1055558653534
 20
7144.826834582248
 30
0.0
  0
VERTEX
  5
2B2
  8
LAYER01
 62
     7
 10
6906.930269612807
 20
7148.7917773317413
 30
0.0
  0
VERTEX
  5
2B3
  8
LAYER01
 62
     7
 10
6926.7549833602607
 20
7160.6866055802111
 30
0.0
  0
VERTEX
  5
2B4
  8
LAYER01
 62
     7
 10
6942.6147543582238
 20
7172.5814338286846
 30
0.0
  0
VERTEX
  5
2B5
  8
LAYER01
 62
     7
 10
6954.5095826066963
 20
7188.4412048266468
 30
0.0
  0
VERTEX
  5
2B6
  8
LAYER01
 62
     7
 10
6962.4394681056774
 20
7204.3009758246098
 30
0.0
  0
VERTEX
  5
2B7
  8
LAYER01
 62
     7
 10
6970.3693536046594
 20
7224.1256895720644
 30
0.0
  0
VERTEX
  5
2B8
  8
LAYER01
 62
     7
 10
6970.3693536046594
 20
7247.9153460690077
 30
0.0
  0
VERTEX
  5
2B9
  8
LAYER01
 62
     7
 10
6970.3693536046594
 20
7247.9153460690077
 30
0.0
  0
VERTEX
  5
2BA
  8
LAYER01
 62
     7
 10
6970.3693536046594
 20
7267.7400598164604
 30
0.0
  0
VERTEX
  5
2BB
  8
LAYER01
 62
     7
 10
6962.4394681056774
 20
7287.5647735639141
 30
0.0
  0
VERTEX
  5
2BC
  8
LAYER01
 62
     7
 10
6954.5095826066963
 20
7303.4245445618772
 30
0.0
  0
VERTEX
  5
2BD
  8
LAYER01
 62
     7
 10
6942.6147543582238
 20
7319.2843155598412
 30
0.0
  0
VERTEX
  5
2BE
  8
LAYER01
 62
     7
 10
6926.7549833602607
 20
7331.1791438083128
 30
0.0
  0
VERTEX
  5
2BF
  8
LAYER01
 62
     7
 10
6906.930269612807
 20
7343.0739720567844
 30
0.0
  0
VERTEX
  5
2C0
  8
LAYER01
 62
     7
 10
6887.1055558653534
 20
7347.038914806275
 30
0.0
  0
VERTEX
  5
2C1
  8
LAYER01
 62
     7
 10
6867.2808421178988
 20
7351.0038575557664
 30
0.0
  0
VERTEX
  5
2C2
  8
LAYER01
 62
     7
 10
6867.2808421178988
 20
7351.0038575557664
 30
0.0
  0
VERTEX
  5
2C3
  8
LAYER01
 62
     7
 10
6847.4561283704461
 20
7347.038914806275
 30
0.0
  0
VERTEX
  5
2C4
  8
LAYER01
 62
     7
 10
6827.6314146229934
 20
7343.0739720567844
 30
0.0
  0
VERTEX
  5
2C5
  8
LAYER01
 62
     7
 10
6807.8067008755397
 20
7331.1791438083128
 30
0.0
  0
VERTEX
  5
2C6
  8
LAYER01
 62
     7
 10
6791.9469298775757
 20
7319.2843155598412
 30
0.0
  0
VERTEX
  5
2C7
  8
LAYER01
 62
     7
 10
6780.0521016291041
 20
7303.4245445618772
 30
0.0
  0
VERTEX
  5
2C8
  8
LAYER01
 62
     7
 10
6772.122216130123
 20
7287.5647735639141
 30
0.0
  0
VERTEX
  5
2C9
  8
LAYER01
 62
     7
 10
6764.1923306311428
 20
7267.7400598164604
 30
0.0
  0
VERTEX
  5
2CA
  8
LAYER01
 62
     7
 10
6764.1923306311428
 20
7247.9153460690077
 30
0.0
  0
VERTEX
  5
2CB
  8
LAYER01
 62
     7
 10
6764.1923306311428
 20
7247.9153460690077
 30
0.0
  0
VERTEX
  5
2CC
  8
LAYER01
 62
     7
 10
6764.1923306311428
 20
7224.1256895720644
 30
0.0
  0
VERTEX
  5
2CD
  8
LAYER01
 62
     7
 10
6772.122216130123
 20
7204.3009758246098
 30
0.0
  0
VERTEX
  5
2CE
  8
LAYER01
 62
     7
 10
6780.0521016291041
 20
7188.4412048266468
 30
0.0
  0
VERTEX
  5
2CF
  8
LAYER01
 62
     7
 10
6791.9469298775757
 20
7172.5814338286846
 30
0.0
  0
VERTEX
  5
2D0
  8
LAYER01
 62
     7
 10
6807.8067008755397
 20
7160.6866055802111
 30
0.0
  0
VERTEX
  5
2D1
  8
LAYER01
 62
     7
 10
6827.6314146229934
 20
7148.7917773317413
 30
0.0
  0
VERTEX
  5
2D2
  8
LAYER01
 62
     7
 10
6847.4561283704461
 20
7144.826834582248
 30
0.0
  0
VERTEX
  5
2D3
  8
LAYER01
 62
     7
 10
6867.2808421178988
 20
7140.8618918327593
 30
0.0
  0
VERTEX
  5
2D4
  8
LAYER01
 62
     7
 10
6867.2808421178988
 20
7140.8618918327593
 30
0.0
  0
SEQEND
  5
2D5
  8
LAYER01
 62
     7
  0
POLYLINE
  5
2D6
  8
LAYER01
 62
     7
 66
     1
 10
0.0
 20
0.0
 30
0.0
 70
     1
  0
VERTEX
  5
2D7
  8
LAYER01
 62
     7
 10
6867.2808421178988
 20
7335.1440865578043
 30
0.0
  0
VERTEX
  5
2D8
  8
LAYER01
 62
     7
 10
6867.2808421178988
 20
7335.1440865578043
 30
0.0
  0
VERTEX
  5
2D9
  8
LAYER01
 62
     7
 10
6883.1406131158628
 20
7331.1791438083128
 30
0.0
  0
VERTEX
  5
2DA
  8
LAYER01
 62
     7
 10
6899.0003841138259
 20
7327.2142010588213
 30
0.0
  0
VERTEX
  5
2DB
  8
LAYER01
 62
     7
 10
6914.8601551117881
 20
7319.2843155598412
 30
0.0
  0
VERTEX
  5
2DC
  8
LAYER01
 62
     7
 10
6926.7549833602607
 20
7307.3894873113677
 30
0.0
  0
VERTEX
  5
2DD
  8
LAYER01
 62
     7
 10
6938.6498116087323
 20
7295.4946590628961
 30
0.0
  0
VERTEX
  5
2DE
  8
LAYER01
 62
     7
 10
6946.5796971077143
 20
7279.634888064933
 30
0.0
  0
VERTEX
  5
2DF
  8
LAYER01
 62
     7
 10
6954.5095826066963
 20
7263.7751170669708
 30
0.0
  0
VERTEX
  5
2E0
  8
LAYER01
 62
     7
 10
6954.5095826066963
 20
7247.9153460690077
 30
0.0
  0
VERTEX
  5
2E1
  8
LAYER01
 62
     7
 10
6954.5095826066963
 20
7247.9153460690077
 30
0.0
  0
VERTEX
  5
2E2
  8
LAYER01
 62
     7
 10
6954.5095826066963
 20
7228.0906323215549
 30
0.0
  0
VERTEX
  5
2E3
  8
LAYER01
 62
     7
 10
6946.5796971077143
 20
7212.2308613235909
 30
0.0
  0
VERTEX
  5
2E4
  8
LAYER01
 62
     7
 10
6938.6498116087323
 20
7196.3710903256278
 30
0.0
  0
VERTEX
  5
2E5
  8
LAYER01
 62
     7
 10
6926.7549833602607
 20
7184.4762620771562
 30
0.0
  0
VERTEX
  5
2E6
  8
LAYER01
 62
     7
 10
6914.8601551117881
 20
7172.5814338286846
 30
0.0
  0
VERTEX
  5
2E7
  8
LAYER01
 62
     7
 10
6899.0003841138259
 20
7164.6515483297017
 30
0.0
  0
VERTEX
  5
2E8
  8
LAYER01
 62
     7
 10
6883.1406131158628
 20
7160.6866055802111
 30
0.0
  0
VERTEX
  5
2E9
  8
LAYER01
 62
     7
 10
6867.2808421178988
 20
7160.6866055802111
 30
0.0
  0
VERTEX
  5
2EA
  8
LAYER01
 62
     7
 10
6867.2808421178988
 20
7160.6866055802111
 30
0.0
  0
VERTEX
  5
2EB
  8
LAYER01
 62
     7
 10
6851.4210711199376
 20
7160.6866055802111
 30
0.0
  0
VERTEX
  5
2EC
  8
LAYER01
 62
     7
 10
6831.5963573724839
 20
7164.6515483297017
 30
0.0
  0
VERTEX
  5
2ED
  8
LAYER01
 62
     7
 10
6819.7015291240123
 20
7172.5814338286846
 30
0.0
  0
VERTEX
  5
2EE
  8
LAYER01
 62
     7
 10
6803.8417581260492
 20
7184.4762620771562
 30
0.0
  0
VERTEX
  5
2EF
  8
LAYER01
 62
     7
 10
6795.9118726270672
 20
7196.3710903256278
 30
0.0
  0
VERTEX
  5
2F0
  8
LAYER01
 62
     7
 10
6787.9819871280861
 20
7212.2308613235909
 30
0.0
  0
VERTEX
  5
2F1
  8
LAYER01
 62
     7
 10
6780.0521016291041
 20
7228.0906323215549
 30
0.0
  0
VERTEX
  5
2F2
  8
LAYER01
 62
     7
 10
6780.0521016291041
 20
7247.9153460690077
 30
0.0
  0
VERTEX
  5
2F3
  8
LAYER01
 62
     7
 10
6780.0521016291041
 20
7247.9153460690077
 30
0.0
  0
VERTEX
  5
2F4
  8
LAYER01
 62
     7
 10
6780.0521016291041
 20
7263.7751170669708
 30
0.0
  0
VERTEX
  5
2F5
  8
LAYER01
 62
     7
 10
6787.9819871280861
 20
7279.634888064933
 30
0.0
  0
VERTEX
  5
2F6
  8
LAYER01
 62
     7
 10
6795.9118726270672
 20
7295.4946590628961
 30
0.0
  0
VERTEX
  5
2F7
  8
LAYER01
 62
     7
 10
6803.8417581260492
 20
7307.3894873113677
 30
0.0
  0
VERTEX
  5
2F8
  8
LAYER01
 62
     7
 10
6819.7015291240123
 20
7319.2843155598412
 30
0.0
  0
VERTEX
  5
2F9
  8
LAYER01
 62
     7
 10
6831.5963573724839
 20
7327.2142010588213
 30
0.0
  0
VERTEX
  5
2FA
  8
LAYER01
 62
     7
 10
6851.4210711199376
 20
7331.1791438083128
 30
0.0
  0
VERTEX
  5
2FB
  8
LAYER01
 62
     7
 10
6867.2808421178988
 20
7335.1440865578043
 30
0.0
  0
VERTEX
  5
2FC
  8
LAYER01
 62
     7
 10
6867.2808421178988
 20
7335.1440865578043
 30
0.0
  0
SEQEND
  5
2FD
  8
LAYER01
 62
     7
  0
POLYLINE
  5
2FE
  8
LAYER01
 62
     7
 66
     1
 10
0.0
 20
0.0
 30
0.0
 70
     1
  0
VERTEX
  5
2FF
  8
LAYER01
 62
     7
 10
6883.1406131158628
 20
7239.9854605700266
 30
0.0
  0
VERTEX
  5
300
  8
LAYER01
 62
     7
 10
6883.1406131158628
 20
7239.9854605700266
 30
0.0
  0
VERTEX
  5
301
  8
LAYER01
 62
     7
 10
6895.0354413643354
 20
7243.950403319518
 30
0.0
  0
VERTEX
  5
302
  8
LAYER01
 62
     7
 10
6906.930269612807
 20
7247.9153460690077
 30
0.0
  0
VERTEX
  5
303
  8
LAYER01
 62
     7
 10
6914.8601551117881
 20
7259.8101743174793
 30
0.0
  0
VERTEX
  5
304
  8
LAYER01
 62
     7
 10
6914.8601551117881
 20
7271.705002565951
 30
0.0
  0
VERTEX
  5
305
  8
LAYER01
 62
     7
 10
6914.8601551117881
 20
7271.705002565951
 30
0.0
  0
VERTEX
  5
306
  8
LAYER01
 62
     7
 10
6914.8601551117881
 20
7287.5647735639141
 30
0.0
  0
VERTEX
  5
307
  8
LAYER01
 62
     7
 10
6902.9653268633156
 20
7299.4596018123866
 30
0.0
  0
VERTEX
  5
308
  8
LAYER01
 62
     7
 10
6891.0704986148439
 20
7303.4245445618772
 30
0.0
  0
VERTEX
  5
309
  8
LAYER01
 62
     7
 10
6875.2107276168808
 20
7303.4245445618772
 30
0.0
  0
VERTEX
  5
30A
  8
LAYER01
 62
     7
 10
6827.6314146229934
 20
7303.4245445618772
 30
0.0
  0
VERTEX
  5
30B
  8
LAYER01
 62
     7
 10
6827.6314146229934
 20
7188.4412048266468
 30
0.0
  0
VERTEX
  5
30C
  8
LAYER01
 62
     7
 10
6843.4911856209546
 20
7188.4412048266468
 30
0.0
  0
VERTEX
  5
30D
  8
LAYER01
 62
     7
 10
6843.4911856209546
 20
7239.9854605700266
 30
0.0
  0
VERTEX
  5
30E
  8
LAYER01
 62
     7
 10
6867.2808421178988
 20
7239.9854605700266
 30
0.0
  0
VERTEX
  5
30F
  8
LAYER01
 62
     7
 10
6895.0354413643354
 20
7188.4412048266468
 30
0.0
  0
VERTEX
  5
310
  8
LAYER01
 62
     7
 10
6914.8601551117881
 20
7188.4412048266468
 30
0.0
  0
VERTEX
  5
311
  8
LAYER01
 62
     7
 10
6883.1406131158628
 20
7239.9854605700266
 30
0.0
  0
VERTEX
  5
312
  8
LAYER01
 62
     7
 10
6883.1406131158628
 20
7239.9854605700266
 30
0.0
  0
SEQEND
  5
313
  8
LAYER01
 62
     7
  0
POLYLINE
  5
314
  8
LAYER01
 62
     7
 66
     1
 10
0.0
 20
0.0
 30
0.0
 70
     1
  0
VERTEX
  5
315
  8
LAYER01
 62
     7
 10
6871.2457848673903
 20
7287.5647735639141
 30
0.0
  0
VERTEX
  5
316
  8
LAYER01
 62
     7
 10
6871.2457848673903
 20
7287.5647735639141
 30
0.0
  0
VERTEX
  5
317
  8
LAYER01
 62
     7
 10
6891.0704986148439
 20
7283.5998308144244
 30
0.0
  0
VERTEX
  5
318
  8
LAYER01
 62
     7
 10
6899.0003841138259
 20
7279.634888064933
 30
0.0
  0
VERTEX
  5
319
  8
LAYER01
 62
     7
 10
6899.0003841138259
 20
7271.705002565951
 30
0.0
  0
VERTEX
  5
31A
  8
LAYER01
 62
     7
 10
6899.0003841138259
 20
7271.705002565951
 30
0.0
  0
VERTEX
  5
31B
  8
LAYER01
 62
     7
 10
6895.0354413643354
 20
7263.7751170669708
 30
0.0
  0
VERTEX
  5
31C
  8
LAYER01
 62
     7
 10
6887.1055558653534
 20
7259.8101743174793
 30
0.0
  0
VERTEX
  5
31D
  8
LAYER01
 62
     7
 10
6863.3158993684092
 20
7255.8452315679879
 30
0.0
  0
VERTEX
  5
31E
  8
LAYER01
 62
     7
 10
6843.4911856209546
 20
7255.8452315679879
 30
0.0
  0
VERTEX
  5
31F
  8
LAYER01
 62
     7
 10
6843.4911856209546
 20
7287.5647735639141
 30
0.0
  0
VERTEX
  5
320
  8
LAYER01
 62
     7
 10
6871.2457848673903
 20
7287.5647735639141
 30
0.0
  0
VERTEX
  5
321
  8
LAYER01
 62
     7
 10
6871.2457848673903
 20
7287.5647735639141
 30
0.0
  0
SEQEND
  5
322
  8
LAYER01
 62
     7
  0
ENDBLK
  5
323
  8
0
 62
     7
  0
BLOCK
  8
0
 62
     7
  2
*U16
 70
     1
 10
0.0
 20
0.0
 30
0.0
  3
*U16
  1

  0
SOLID
  5
390
  8
0
  6
CONTINUOUS
 62
     7
 10
-43.871083404559862
 20
715.93570884423104
 30
0.0
 11
-63.877834876882851
 21
712.64314044922185
 31
0.0
 12
-43.877793346355588
 22
712.64314044922185
 32
0.0
 13
-43.877793346355588
 23
712.64314044922185
 33
0.0
210
0.0
220
0.0
230
1.0
  0
SOLID
  5
391
  8
0
  6
CONTINUOUS
 62
     7
 10
63.877834876882851
 20
712.64314044922185
 30
0.0
 11
43.877793346355588
 21
712.64314044922185
 31
0.0
 12
43.884669410087852
 22
709.26905602104466
 32
0.0
 13
43.884669410087852
 23
709.26905602104466
 33
0.0
210
0.0
220
0.0
230
-1.0
  0
LINE
  5
392
  8
0
  6
CONTINUOUS
 62
     7
 10
-43.871083404559862
 20
715.93570884423104
 30
0.0
 11
-63.877834876882851
 21
712.64314044922185
 31
0.0
  0
LINE
  5
393
  8
0
  6
CONTINUOUS
 62
     7
 10
-43.877793346355588
 20
712.64314044922185
 30
0.0
 11
-43.871083404559862
 21
715.93570884423104
 31
0.0
  0
LINE
  5
394
  8
0
  6
CONTINUOUS
 62
     7
 10
-43.877793346355588
 20
712.64314044922185
 30
0.0
 11
-43.884669410087852
 21
709.26905602104466
 31
0.0
  0
LINE
  5
395
  8
0
  6
CONTINUOUS
 62
     7
 10
-43.884669410087852
 20
709.26905602104466
 30
0.0
 11
-63.877834876882851
 21
712.64314044922185
 31
0.0
  0
ENDBLK
  5
397
  8
0
 62
     7
  0
BLOCK
  8
0
 62
     7
  2
*U17
 70
     1
 10
0.0
 20
0.0
 30
0.0
  3
*U17
  1

  0
SOLID
  5
39D
  8
0
  6
CONTINUOUS
 62
     7
 10
573.05362468264218
 20
714.67847485939262
 30
0.0
 11
573.04674861890987
 21
711.30439043121555
 31
0.0
 12
593.04679014943724
 22
711.30439043121555
 32
0.0
 13
593.04679014943724
 23
711.30439043121555
 33
0.0
210
0.0
220
0.0
230
1.0
  0
SOLID
  5
39E
  8
0
  6
CONTINUOUS
 62
     7
 10
-573.04674861890987
 20
711.30439043121555
 30
0.0
 11
-593.04679014943724
 21
711.30439043121555
 31
0.0
 12
-573.04003867711424
 22
708.01182203620635
 32
0.0
 13
-573.04003867711424
 23
708.01182203620635
 33
0.0
210
0.0
220
0.0
230
-1.0
  0
LINE
  5
39F
  8
0
  6
CONTINUOUS
 62
     7
 10
573.05362468264218
 20
714.67847485939262
 30
0.0
 11
573.04674861890987
 21
711.30439043121555
 31
0.0
  0
LINE
  5
3A0
  8
0
  6
CONTINUOUS
 62
     7
 10
593.04679014943724
 20
711.30439043121555
 30
0.0
 11
573.05362468264218
 21
714.67847485939262
 31
0.0
  0
LINE
  5
3A1
  8
0
  6
CONTINUOUS
 62
     7
 10
593.04679014943724
 20
711.30439043121555
 30
0.0
 11
573.04003867711424
 21
708.01182203620635
 31
0.0
  0
LINE
  5
3A2
  8
0
  6
CONTINUOUS
 62
     7
 10
573.04003867711424
 20
708.01182203620635
 30
0.0
 11
573.04674861890987
 21
711.30439043121555
 31
0.0
  0
ENDBLK
  5
3A4
  8
0
 62
     7
  0
BLOCK
  8
0
 62
     7
  2
*U18
 70
     1
 10
0.0
 20
0.0
 30
0.0
  3
*U18
  1

  0
TEXT
  5
3AA
  8
0
  6
CONTINUOUS
 62
     7
 10
238.03220654759659
 20
700.2160148994833
 30
0.0
 40
24.0
  1
657
  0
ENDBLK
  5
3AC
  8
0
 62
     7
  0
BLOCK
  8
0
 62
     7
  2
*U19
 70
     1
 10
0.0
 20
0.0
 30
0.0
  3
*U19
  1

  0
SOLID
  5
3B8
  8
0
  6
CONTINUOUS
 62
     7
 10
689.25081271837621
 20
642.90902718613529
 30
0.0
 11
685.90262994195461
 21
622.91150775979679
 31
0.0
 12
692.56847352792045
 22
622.91150775979679
 32
0.0
 13
692.56847352792045
 23
622.91150775979679
 33
0.0
210
0.0
220
0.0
230
1.0
  0
SOLID
  5
3B9
  8
0
  6
CONTINUOUS
 62
     7
 10
-685.90262994195461
 20
622.91150775979679
 30
0.0
 11
-692.56847352792045
 21
622.91150775979679
 31
0.0
 12
-692.56929477084384
 22
622.90655763913765
 32
0.0
 13
-692.56929477084384
 23
622.90655763913765
 33
0.0
210
0.0
220
0.0
230
-1.0
  0
LINE
  5
3BA
  8
0
  6
CONTINUOUS
 62
     7
 10
689.25081271837621
 20
642.90902718613529
 30
0.0
 11
685.90262994195461
 21
622.91150775979679
 31
0.0
  0
LINE
  5
3BB
  8
0
  6
CONTINUOUS
 62
     7
 10
692.56847352792045
 20
622.91150775979679
 30
0.0
 11
689.25081271837621
 21
642.90902718613529
 31
0.0
  0
LINE
  5
3BC
  8
0
  6
CONTINUOUS
 62
     7
 10
692.56847352792045
 20
622.91150775979679
 30
0.0
 11
692.56929477084384
 21
622.90655763913765
 31
0.0
  0
LINE
  5
3BD
  8
0
  6
CONTINUOUS
 62
     7
 10
692.56929477084384
 20
622.90655763913765
 30
0.0
 11
685.90262994195461
 21
622.91150775979679
 31
0.0
  0
ENDBLK
  5
3BF
  8
0
 62
     7
  0
BLOCK
  8
0
 62
     7
  2
*U20
 70
     1
 10
0.0
 20
0.0
 30
0.0
  3
*U20
  1

  0
SOLID
  5
3C5
  8
0
  6
CONTINUOUS
 62
     7
 10
685.51801213514068
 20
104.9204966532359
 30
0.0
 11
685.51883337806396
 21
104.9155465325769
 31
0.0
 12
692.18467696403002
 22
104.9155465325769
 32
0.0
 13
692.18467696403002
 23
104.9155465325769
 33
0.0
210
0.0
220
0.0
230
1.0
  0
SOLID
  5
3C6
  8
0
  6
CONTINUOUS
 62
     7
 10
-685.51883337806396
 20
104.9155465325769
 30
0.0
 11
-692.18467696403002
 21
104.9155465325769
 31
0.0
 12
-688.83649418760831
 22
84.918027106238483
 32
0.0
 13
-688.83649418760831
 23
84.918027106238483
 33
0.0
210
0.0
220
0.0
230
-1.0
  0
LINE
  5
3C7
  8
0
  6
CONTINUOUS
 62
     7
 10
685.51801213514068
 20
104.9204966532359
 30
0.0
 11
685.51883337806396
 21
104.9155465325769
 31
0.0
  0
LINE
  5
3C8
  8
0
  6
CONTINUOUS
 62
     7
 10
692.18467696403002
 20
104.9155465325769
 30
0.0
 11
685.51801213514068
 21
104.9204966532359
 31
0.0
  0
LINE
  5
3C9
  8
0
  6
CONTINUOUS
 62
     7
 10
692.18467696403002
 20
104.9155465325769
 30
0.0
 11
688.83649418760831
 21
84.918027106238483
 31
0.0
  0
LINE
  5
3CA
  8
0
  6
CONTINUOUS
 62
     7
 10
688.83649418760831
 20
84.918027106238483
 30
0.0
 11
685.51883337806396
 21
104.9155465325769
 31
0.0
  0
ENDBLK
  5
3CC
  8
0
 62
     7
  0
BLOCK
  8
0
 62
     7
  2
*U21
 70
     1
 10
0.0
 20
0.0
 30
0.0
  3
*U21
  1

  0
TEXT
  5
3D2
  8
0
  6
CONTINUOUS
 62
     7
 10
662.40486470028861
 20
352.15577660545148
 30
0.0
 40
24.0
  1
557
  0
ENDBLK
  5
3D4
  8
0
 62
     7
  0
BLOCK
  8
0
 62
     7
  2
*U22
 70
     1
 10
0.0
 20
0.0
 30
0.0
  3
*U22
  1

  0
SOLID
  5
3E5
  8
0
  6
CONTINUOUS
 62
     7
 10
1403.7766556129779
 20
640.7275422958794
 30
0.0
 11
1402.303240882143
 21
628.7275422958794
 31
0.0
 12
1433.7766556129779
 22
628.7275422958794
 32
0.0
 13
1433.7766556129779
 23
628.7275422958794
 33
0.0
  0
SOLID
  5
3E6
  8
0
  6
CONTINUOUS
 62
     7
 10
-1403.7766556129779
 20
640.7275422958794
 30
0.0
 11
-1433.7766556129779
 21
640.7275422958794
 31
0.0
 12
-1433.7766556129779
 22
628.7275422958794
 32
0.0
 13
-1433.7766556129779
 23
628.7275422958794
 33
0.0
210
0.0
220
0.0
230
-1.0
  0
SOLID
  5
3E7
  8
0
  6
CONTINUOUS
 62
     7
 10
1402.303240882143
 20
628.7275422958794
 30
0.0
 11
1351.468446766235
 21
214.71136842115439
 31
0.0
 12
1362.9418614970691
 22
214.71136842115439
 32
0.0
 13
1362.9418614970691
 23
214.71136842115439
 33
0.0
210
0.0
220
0.0
230
1.0
  0
SOLID
  5
3E8
  8
0
  6
CONTINUOUS
 62
     7
 10
-1402.303240882143
 20
628.7275422958794
 30
0.0
 11
-1413.7766556129779
 21
628.7275422958794
 31
0.0
 12
-1362.9418614970691
 22
214.71136842115439
 32
0.0
 13
-1362.9418614970691
 23
214.71136842115439
 33
0.0
210
0.0
220
0.0
230
-1.0
  0
SOLID
  5
3E9
  8
0
  6
CONTINUOUS
 62
     7
 10
1351.468446766235
 20
214.71136842115439
 30
0.0
 11
1351.2083229409691
 21
213.2198282612558
 31
0.0
 12
1362.7587233934671
 22
213.2198282612558
 32
0.0
 13
1362.7587233934671
 23
213.2198282612558
 33
0.0
210
0.0
220
0.0
230
1.0
  0
SOLID
  5
3EA
  8
0
  6
CONTINUOUS
 62
     7
 10
-1351.468446766235
 20
214.71136842115439
 30
0.0
 11
-1362.9418614970691
 21
214.71136842115439
 31
0.0
 12
-1362.7587233934671
 22
213.2198282612558
 32
0.0
 13
-1362.7587233934671
 23
213.2198282612558
 33
0.0
210
0.0
220
0.0
230
-1.0
  0
SOLID
  5
3EB
  8
0
  6
CONTINUOUS
 62
     7
 10
1351.2083229409691
 20
213.2198282612558
 30
0.0
 11
1350.799164684121
 21
211.7621088184564
 31
0.0
 12
1362.579737951763
 22
211.7621088184564
 32
0.0
 13
1362.579737951763
 23
211.7621088184564
 33
0.0
210
0.0
220
0.0
230
1.0
  0
SOLID
  5
3EC
  8
0
  6
CONTINUOUS
 62
     7
 10
-1351.2083229409691
 20
213.2198282612558
 30
0.0
 11
-1362.7587233934671
 21
213.2198282612558
 31
0.0
 12
-1362.579737951763
 22
211.7621088184564
 32
0.0
 13
-1362.579737951763
 23
211.7621088184564
 33
0.0
210
0.0
220
0.0
230
-1.0
  0
SOLID
  5
3ED
  8
0
  6
CONTINUOUS
 62
     7
 10
1350.799164684121
 20
211.7621088184564
 30
0.0
 11
1350.245140602673
 21
210.35306170418491
 31
0.0
 12
1362.406728720546
 22
210.35306170418491
 32
0.0
 13
1362.406728720546
 23
210.35306170418491
 33
0.0
210
0.0
220
0.0
230
1.0
  0
SOLID
  5
3EE
  8
0
  6
CONTINUOUS
 62
     7
 10
-1350.799164684121
 20
211.7621088184564
 30
0.0
 11
-1362.579737951763
 21
211.7621088184564
 31
0.0
 12
-1362.406728720546
 22
210.35306170418491
 32
0.0
 13
-1362.406728720546
 23
210.35306170418491
 33
0.0
210
0.0
220
0.0
230
-1.0
  0
SOLID
  5
3EF
  8
0
  6
CONTINUOUS
 62
     7
 10
1350.245140602673
 20
210.35306170418491
 30
0.0
 11
1349.5518952329719
 21
209.0070426439749
 31
0.0
 12
1362.241458361271
 22
209.0070426439749
 32
0.0
 13
1362.241458361271
 23
209.0070426439749
 33
0.0
  0
SOLID
  5
3F0
  8
0
  6
CONTINUOUS
 62
     7
 10
-1350.245140602673
 20
210.35306170418491
 30
0.0
 11
-1362.406728720546
 21
210.35306170418491
 31
0.0
 12
-1362.241458361271
 22
209.0070426439749
 32
0.0
 13
-1362.241458361271
 23
209.0070426439749
 33
0.0
210
0.0
220
0.0
230
-1.0
  0
SOLID
  5
3F1
  8
0
  6
CONTINUOUS
 62
     7
 10
1349.5518952329719
 20
209.0070426439749
 30
0.0
 11
1348.7264915327801
 21
207.73776521773141
 31
0.0
 12
1362.0856106898259
 22
207.73776521773141
 32
0.0
 13
1362.0856106898259
 23
207.73776521773141
 33
0.0
210
0.0
220
0.0
230
1.0
  0
SOLID
  5
3F2
  8
0
  6
CONTINUOUS
 62
     7
 10
-1349.5518952329719
 20
209.0070426439749
 30
0.0
 11
-1362.241458361271
 21
209.0070426439749
 31
0.0
 12
-1362.0856106898259
 22
207.73776521773141
 32
0.0
 13
-1362.0856106898259
 23
207.73776521773141
 33
0.0
210
0.0
220
0.0
230
-1.0
  0
SOLID
  5
3F3
  8
0
  6
CONTINUOUS
 62
     7
 10
1348.7264915327801
 20
207.73776521773141
 30
0.0
 11
1347.777338922092
 21
206.55816114233781
 31
0.0
 12
1361.940773521389
 22
206.55816114233781
 32
0.0
 13
1361.940773521389
 23
206.55816114233781
 33
0.0
210
0.0
220
0.0
230
1.0
  0
SOLID
  5
3F4
  8
0
  6
CONTINUOUS
 62
     7
 10
-1348.7264915327801
 20
207.73776521773141
 30
0.0
 11
-1362.0856106898259
 21
207.73776521773141
 31
0.0
 12
-1361.940773521389
 22
206.55816114233781
 32
0.0
 13
-1361.940773521389
 23
206.55816114233781
 33
0.0
210
0.0
220
0.0
230
-1.0
  0
SOLID
  5
3F5
  8
0
  6
CONTINUOUS
 62
     7
 10
1347.777338922092
 20
206.55816114233781
 30
0.0
 11
1346.714107605849
 21
205.4802485200799
 31
0.0
 12
1361.8084224933741
 22
205.4802485200799
 32
0.0
 13
1361.8084224933741
 23
205.4802485200799
 33
0.0
210
0.0
220
0.0
230
1.0
  0
SOLID
  5
3F6
  8
0
  6
CONTINUOUS
 62
     7
 10
-1347.777338922092
 20
206.55816114233781
 30
0.0
 11
-1361.940773521389
 21
206.55816114233781
 31
0.0
 12
-1361.8084224933741
 22
205.4802485200799
 32
0.0
 13
-1361.8084224933741
 23
205.4802485200799
 33
0.0
210
0.0
220
0.0
230
-1.0
  0
SOLID
  5
3F7
  8
0
  6
CONTINUOUS
 62
     7
 10
1346.714107605849
 20
205.4802485200799
 30
0.0
 11
1345.5476300514699
 21
204.51500939520409
 31
0.0
 12
1361.6899060312589
 22
204.51500939520409
 32
0.0
 13
1361.6899060312589
 23
204.51500939520409
 33
0.0
210
0.0
220
0.0
230
1.0
  0
SOLID
  5
3F8
  8
0
  6
CONTINUOUS
 62
     7
 10
-1346.714107605849
 20
205.4802485200799
 30
0.0
 11
-1361.8084224933741
 21
205.4802485200799
 31
0.0
 12
-1361.6899060312589
 22
204.51500939520409
 32
0.0
 13
-1361.6899060312589
 23
204.51500939520409
 33
0.0
210
0.0
220
0.0
230
-1.0
  0
SOLID
  5
3F9
  8
0
  6
CONTINUOUS
 62
     7
 10
1345.5476300514699
 20
204.51500939520409
 30
0.0
 11
1344.2897906249509
 21
203.67227786609561
 31
0.0
 12
1361.5864316104989
 22
203.67227786609561
 32
0.0
 13
1361.5864316104989
 23
203.67227786609561
 33
0.0
210
0.0
220
0.0
230
1.0
  0
SOLID
  5
3FA
  8
0
  6
CONTINUOUS
 62
     7
 10
-1345.5476300514699
 20
204.51500939520409
 30
0.0
 11
-1361.6899060312589
 21
204.51500939520409
 31
0.0
 12
-1361.5864316104989
 22
203.67227786609561
 32
0.0
 13
-1361.5864316104989
 23
203.67227786609561
 33
0.0
210
0.0
220
0.0
230
-1.0
  0
SOLID
  5
3FB
  8
0
  6
CONTINUOUS
 62
     7
 10
1344.2897906249509
 20
203.67227786609561
 30
0.0
 11
1342.9534045099631
 21
202.96063989301649
 31
0.0
 12
1361.499053454452
 22
202.96063989301649
 32
0.0
 13
1361.499053454452
 23
202.96063989301649
 33
0.0
210
0.0
220
0.0
230
1.0
  0
SOLID
  5
3FC
  8
0
  6
CONTINUOUS
 62
     7
 10
-1344.2897906249509
 20
203.67227786609561
 30
0.0
 11
-1361.5864316104989
 21
203.67227786609561
 31
0.0
 12
-1361.499053454452
 22
202.96063989301649
 32
0.0
 13
-1361.499053454452
 23
202.96063989301649
 33
0.0
210
0.0
220
0.0
230
-1.0
  0
SOLID
  5
3FD
  8
0
  6
CONTINUOUS
 62
     7
 10
1342.9534045099631
 20
202.96063989301649
 30
0.0
 11
1341.5520871435481
 21
202.38734582218811
 31
0.0
 12
1361.428661793698
 22
202.38734582218811
 32
0.0
 13
1361.428661793698
 23
202.38734582218811
 33
0.0
210
0.0
220
0.0
230
1.0
  0
SOLID
  5
3FE
  8
0
  6
CONTINUOUS
 62
     7
 10
-1342.9534045099631
 20
202.96063989301649
 30
0.0
 11
-1361.499053454452
 21
202.96063989301649
 31
0.0
 12
-1361.428661793698
 22
202.38734582218811
 32
0.0
 13
-1361.428661793698
 23
202.38734582218811
 33
0.0
210
0.0
220
0.0
230
-1.0
  0
SOLID
  5
3FF
  8
0
  6
CONTINUOUS
 62
     7
 10
1341.5520871435481
 20
202.38734582218811
 30
0.0
 11
1340.1001154986311
 21
201.95823651744499
 31
0.0
 12
1361.3759737961359
 22
201.95823651744499
 32
0.0
 13
1361.3759737961359
 23
201.95823651744499
 33
0.0
210
0.0
220
0.0
230
1.0
  0
SOLID
  5
400
  8
0
  6
CONTINUOUS
 62
     7
 10
-1341.5520871435481
 20
202.38734582218811
 30
0.0
 11
-1361.428661793698
 21
202.38734582218811
 31
0.0
 12
-1361.3759737961359
 22
201.95823651744499
 32
0.0
 13
-1361.3759737961359
 23
201.95823651744499
 33
0.0
210
0.0
220
0.0
230
-1.0
  0
SOLID
  5
401
  8
0
  6
CONTINUOUS
 62
     7
 10
1340.1001154986311
 20
201.95823651744499
 30
0.0
 11
1338.6122826266319
 21
201.6776838520486
 31
0.0
 12
1361.341526260305
 22
201.6776838520486
 32
0.0
 13
1361.341526260305
 23
201.6776838520486
 33
0.0
210
0.0
220
0.0
230
1.0
  0
SOLID
  5
402
  8
0
  6
CONTINUOUS
 62
     7
 10
-1340.1001154986311
 20
201.95823651744499
 30
0.0
 11
-1361.3759737961359
 21
201.95823651744499
 31
0.0
 12
-1361.341526260305
 22
201.6776838520486
 32
0.0
 13
-1361.341526260305
 23
201.6776838520486
 33
0.0
210
0.0
220
0.0
230
-1.0
  0
SOLID
  5
403
  8
0
  6
CONTINUOUS
 62
     7
 10
1338.6122826266319
 20
201.6776838520486
 30
0.0
 11
1337.1037469421519
 21
201.5485461669451
 31
0.0
 12
1361.3256701463431
 22
201.5485461669451
 32
0.0
 13
1361.3256701463431
 23
201.5485461669451
 33
0.0
210
0.0
220
0.0
230
1.0
  0
SOLID
  5
404
  8
0
  6
CONTINUOUS
 62
     7
 10
-1338.6122826266319
 20
201.6776838520486
 30
0.0
 11
-1361.341526260305
 21
201.6776838520486
 31
0.0
 12
-1361.3256701463431
 22
201.5485461669451
 32
0.0
 13
-1361.3256701463431
 23
201.5485461669451
 33
0.0
210
0.0
220
0.0
230
-1.0
  0
SOLID
  5
405
  8
0
  6
CONTINUOUS
 62
     7
 10
1337.1037469421519
 20
201.5485461669451
 30
0.0
 11
1317.4269511028281
 21
200.86141731510389
 31
0.0
 12
1361.2413013319861
 22
200.86141731510389
 32
0.0
 13
1361.2413013319861
 23
200.86141731510389
 33
0.0
210
0.0
220
0.0
230
1.0
  0
SOLID
  5
406
  8
0
  6
CONTINUOUS
 62
     7
 10
-1337.1037469421519
 20
201.5485461669451
 30
0.0
 11
-1361.3256701463431
 21
201.5485461669451
 31
0.0
 12
-1361.2413013319861
 22
200.86141731510389
 32
0.0
 13
-1361.2413013319861
 23
200.86141731510389
 33
0.0
210
0.0
220
0.0
230
-1.0
  0
SOLID
  5
407
  8
0
  6
CONTINUOUS
 62
     7
 10
1317.4269511028281
 20
200.86141731510389
 30
0.0
 11
1310.8855645747069
 21
195.37254229197029
 31
0.0
 12
1360.5673522224199
 22
195.37254229197029
 32
0.0
 13
1360.5673522224199
 23
195.37254229197029
 33
0.0
210
0.0
220
0.0
230
1.0
  0
SOLID
  5
408
  8
0
  6
CONTINUOUS
 62
     7
 10
-1317.4269511028281
 20
200.86141731510389
 30
0.0
 11
-1361.2413013319861
 21
200.86141731510389
 31
0.0
 12
-1360.5673522224199
 22
195.37254229197029
 32
0.0
 13
-1360.5673522224199
 23
195.37254229197029
 33
0.0
210
0.0
220
0.0
230
-1.0
  0
SOLID
  5
409
  8
0
  6
CONTINUOUS
 62
     7
 10
1310.8855645747069
 20
195.37254229197029
 30
0.0
 11
1310.8855645747069
 21
194.62509828484741
 31
0.0
 12
1360.475577638206
 22
194.62509828484741
 32
0.0
 13
1360.475577638206
 23
194.62509828484741
 33
0.0
210
0.0
220
0.0
230
1.0
  0
SOLID
  5
40A
  8
0
  6
CONTINUOUS
 62
     7
 10
-1310.8855645747069
 20
195.37254229197029
 30
0.0
 11
-1360.5673522224199
 21
195.37254229197029
 31
0.0
 12
-1360.475577638206
 22
194.62509828484741
 32
0.0
 13
-1360.475577638206
 23
194.62509828484741
 33
0.0
210
0.0
220
0.0
230
-1.0
  0
SOLID
  5
40B
  8
0
  6
CONTINUOUS
 62
     7
 10
1310.8855645747069
 20
194.62509828484741
 30
0.0
 11
1310.8855645747069
 21
194.12791823154791
 31
0.0
 12
1360.38886969645
 22
194.12791823154791
 32
0.0
 13
1360.38886969645
 23
194.12791823154791
 33
0.0
210
0.0
220
0.0
230
1.0
  0
SOLID
  5
40C
  8
0
  6
CONTINUOUS
 62
     7
 10
-1310.8855645747069
 20
194.62509828484741
 30
0.0
 11
-1360.475577638206
 21
194.62509828484741
 31
0.0
 12
-1360.38886969645
 22
194.12791823154791
 32
0.0
 13
-1360.38886969645
 23
194.12791823154791
 33
0.0
210
0.0
220
0.0
230
-1.0
  0
SOLID
  5
40D
  8
0
  6
CONTINUOUS
 62
     7
 10
1310.8855645747069
 20
194.12791823154791
 30
0.0
 11
1310.8855645747069
 21
193.6420117506147
 31
0.0
 12
1360.252483610835
 22
193.6420117506147
 32
0.0
 13
1360.252483610835
 23
193.6420117506147
 33
0.0
210
0.0
220
0.0
230
1.0
  0
SOLID
  5
40E
  8
0
  6
CONTINUOUS
 62
     7
 10
-1310.8855645747069
 20
194.12791823154791
 30
0.0
 11
-1360.38886969645
 21
194.12791823154791
 31
0.0
 12
-1360.252483610835
 22
193.6420117506147
 32
0.0
 13
-1360.252483610835
 23
193.6420117506147
 33
0.0
210
0.0
220
0.0
230
-1.0
  0
SOLID
  5
40F
  8
0
  6
CONTINUOUS
 62
     7
 10
1310.8855645747069
 20
193.6420117506147
 30
0.0
 11
1310.8855645747069
 21
193.1723293791909
 31
0.0
 12
1360.067808917019
 22
193.1723293791909
 32
0.0
 13
1360.067808917019
 23
193.1723293791909
 33
0.0
210
0.0
220
0.0
230
1.0
  0
SOLID
  5
410
  8
0
  6
CONTINUOUS
 62
     7
 10
-1310.8855645747069
 20
193.6420117506147
 30
0.0
 11
-1360.252483610835
 21
193.6420117506147
 31
0.0
 12
-1360.067808917019
 22
193.1723293791909
 32
0.0
 13
-1360.067808917019
 23
193.1723293791909
 33
0.0
210
0.0
220
0.0
230
-1.0
  0
SOLID
  5
411
  8
0
  6
CONTINUOUS
 62
     7
 10
1310.8855645747069
 20
193.1723293791909
 30
0.0
 11
1310.8855645747069
 21
192.72365635912089
 31
0.0
 12
1359.8367271271179
 22
192.72365635912089
 32
0.0
 13
1359.8367271271179
 23
192.72365635912089
 33
0.0
210
0.0
220
0.0
230
1.0
  0
SOLID
  5
412
  8
0
  6
CONTINUOUS
 62
     7
 10
-1310.8855645747069
 20
193.1723293791909
 30
0.0
 11
-1360.067808917019
 21
193.1723293791909
 31
0.0
 12
-1359.8367271271179
 22
192.72365635912089
 32
0.0
 13
-1359.8367271271179
 23
192.72365635912089
 33
0.0
210
0.0
220
0.0
230
-1.0
  0
SOLID
  5
413
  8
0
  6
CONTINUOUS
 62
     7
 10
1310.8855645747069
 20
192.72365635912089
 30
0.0
 11
1310.8855645747069
 21
192.30056388370639
 31
0.0
 12
1359.561592560387
 22
192.30056388370639
 32
0.0
 13
1359.561592560387
 23
192.30056388370639
 33
0.0
210
0.0
220
0.0
230
1.0
  0
SOLID
  5
414
  8
0
  6
CONTINUOUS
 62
     7
 10
-1310.8855645747069
 20
192.72365635912089
 30
0.0
 11
-1359.8367271271179
 21
192.72365635912089
 31
0.0
 12
-1359.561592560387
 22
192.30056388370639
 32
0.0
 13
-1359.561592560387
 23
192.30056388370639
 33
0.0
210
0.0
220
0.0
230
-1.0
  0
SOLID
  5
415
  8
0
  6
CONTINUOUS
 62
     7
 10
1310.8855645747069
 20
192.30056388370639
 30
0.0
 11
1310.8855645747069
 21
191.90736252524181
 31
0.0
 12
1359.2452083568251
 22
191.90736252524181
 32
0.0
 13
1359.2452083568251
 23
191.90736252524181
 33
0.0
210
0.0
220
0.0
230
1.0
  0
SOLID
  5
416
  8
0
  6
CONTINUOUS
 62
     7
 10
-1310.8855645747069
 20
192.30056388370639
 30
0.0
 11
-1359.561592560387
 21
192.30056388370639
 31
0.0
 12
-1359.2452083568251
 22
191.90736252524181
 32
0.0
 13
-1359.2452083568251
 23
191.90736252524181
 33
0.0
210
0.0
220
0.0
230
-1.0
  0
SOLID
  5
417
  8
0
  6
CONTINUOUS
 62
     7
 10
1310.8855645747069
 20
191.90736252524181
 30
0.0
 11
1310.8855645747069
 21
191.54805831782249
 31
0.0
 12
1358.8907979180769
 22
191.54805831782249
 32
0.0
 13
1358.8907979180769
 23
191.54805831782249
 33
0.0
210
0.0
220
0.0
230
1.0
  0
SOLID
  5
418
  8
0
  6
CONTINUOUS
 62
     7
 10
-1310.8855645747069
 20
191.90736252524181
 30
0.0
 11
-1359.2452083568251
 21
191.90736252524181
 31
0.0
 12
-1358.8907979180769
 22
191.54805831782249
 32
0.0
 13
-1358.8907979180769
 23
191.54805831782249
 33
0.0
210
0.0
220
0.0
230
-1.0
  0
SOLID
  5
419
  8
0
  6
CONTINUOUS
 62
     7
 10
1310.8855645747069
 20
191.54805831782249
 30
0.0
 11
1310.8855645747069
 21
191.2263119428639
 31
0.0
 12
1358.501972066618
 22
191.2263119428639
 32
0.0
 13
1358.501972066618
 23
191.2263119428639
 33
0.0
210
0.0
220
0.0
230
1.0
  0
SOLID
  5
41A
  8
0
  6
CONTINUOUS
 62
     7
 10
-1310.8855645747069
 20
191.54805831782249
 30
0.0
 11
-1358.8907979180769
 21
191.54805831782249
 31
0.0
 12
-1358.501972066618
 22
191.2263119428639
 32
0.0
 13
-1358.501972066618
 23
191.2263119428639
 33
0.0
210
0.0
220
0.0
230
-1.0
  0
SOLID
  5
41B
  8
0
  6
CONTINUOUS
 62
     7
 10
1310.8855645747069
 20
191.2263119428639
 30
0.0
 11
1310.8855645747069
 21
190.94540143316109
 31
0.0
 12
1358.082692257778
 22
190.94540143316109
 32
0.0
 13
1358.082692257778
 23
190.94540143316109
 33
0.0
210
0.0
220
0.0
230
1.0
  0
SOLID
  5
41C
  8
0
  6
CONTINUOUS
 62
     7
 10
-1310.8855645747069
 20
191.2263119428639
 30
0.0
 11
-1358.501972066618
 21
191.2263119428639
 31
0.0
 12
-1358.082692257778
 22
190.94540143316109
 32
0.0
 13
-1358.082692257778
 23
190.94540143316109
 33
0.0
210
0.0
220
0.0
230
-1.0
  0
SOLID
  5
41D
  8
0
  6
CONTINUOUS
 62
     7
 10
1310.8855645747069
 20
190.94540143316109
 30
0.0
 11
1310.8855645747069
 21
190.7081887754681
 31
0.0
 12
1357.6372302194479
 22
190.7081887754681
 32
0.0
 13
1357.6372302194479
 23
190.7081887754681
 33
0.0
210
0.0
220
0.0
230
1.0
  0
SOLID
  5
41E
  8
0
  6
CONTINUOUS
 62
     7
 10
-1310.8855645747069
 20
190.94540143316109
 30
0.0
 11
-1358.082692257778
 21
190.94540143316109
 31
0.0
 12
-1357.6372302194479
 22
190.7081887754681
 32
0.0
 13
-1357.6372302194479
 23
190.7081887754681
 33
0.0
210
0.0
220
0.0
230
-1.0
  0
SOLID
  5
41F
  8
0
  6
CONTINUOUS
 62
     7
 10
1310.8855645747069
 20
190.7081887754681
 30
0.0
 11
1310.8855645747069
 21
190.5170907518586
 31
0.0
 12
1357.170124430643
 22
190.5170907518586
 32
0.0
 13
1357.170124430643
 23
190.5170907518586
 33
0.0
210
0.0
220
0.0
230
1.0
  0
SOLID
  5
420
  8
0
  6
CONTINUOUS
 62
     7
 10
-1310.8855645747069
 20
190.7081887754681
 30
0.0
 11
-1357.6372302194479
 21
190.7081887754681
 31
0.0
 12
-1357.170124430643
 22
190.5170907518586
 32
0.0
 13
-1357.170124430643
 23
190.5170907518586
 33
0.0
210
0.0
220
0.0
230
-1.0
  0
SOLID
  5
421
  8
0
  6
CONTINUOUS
 62
     7
 10
1310.8855645747069
 20
190.5170907518586
 30
0.0
 11
1310.8855645747069
 21
190.3740543169443
 31
0.0
 12
1356.686133882338
 22
190.3740543169443
 32
0.0
 13
1356.686133882338
 23
190.3740543169443
 33
0.0
210
0.0
220
0.0
230
1.0
  0
SOLID
  5
422
  8
0
  6
CONTINUOUS
 62
     7
 10
-1310.8855645747069
 20
190.5170907518586
 30
0.0
 11
-1357.170124430643
 21
190.5170907518586
 31
0.0
 12
-1356.686133882338
 22
190.3740543169443
 32
0.0
 13
-1356.686133882338
 23
190.3740543169443
 33
0.0
210
0.0
220
0.0
230
-1.0
  0
SOLID
  5
423
  8
0
  6
CONTINUOUS
 62
     7
 10
1310.8855645747069
 20
190.3740543169443
 30
0.0
 11
1310.8855645747069
 21
190.2805367618121
 31
0.0
 12
1356.190189591671
 22
190.2805367618121
 32
0.0
 13
1356.190189591671
 23
190.2805367618121
 33
0.0
210
0.0
220
0.0
230
1.0
  0
SOLID
  5
424
  8
0
  6
CONTINUOUS
 62
     7
 10
-1310.8855645747069
 20
190.3740543169443
 30
0.0
 11
-1356.686133882338
 21
190.3740543169443
 31
0.0
 12
-1356.190189591671
 22
190.2805367618121
 32
0.0
 13
-1356.190189591671
 23
190.2805367618121
 33
0.0
210
0.0
220
0.0
230
-1.0
  0
SOLID
  5
425
  8
0
  6
CONTINUOUS
 62
     7
 10
1310.8855645747069
 20
190.2805367618121
 30
0.0
 11
1310.8855645747069
 21
190.2374908667777
 31
0.0
 12
1355.687344363512
 22
190.2374908667777
 32
0.0
 13
1355.687344363512
 23
190.2374908667777
 33
0.0
210
0.0
220
0.0
230
1.0
  0
SOLID
  5
426
  8
0
  6
CONTINUOUS
 62
     7
 10
-1310.8855645747069
 20
190.2805367618121
 30
0.0
 11
-1356.190189591671
 21
190.2805367618121
 31
0.0
 12
-1355.687344363512
 22
190.2374908667777
 32
0.0
 13
-1355.687344363512
 23
190.2374908667777
 33
0.0
210
0.0
220
0.0
230
-1.0
  0
SOLID
  5
427
  8
0
  6
CONTINUOUS
 62
     7
 10
1310.8855645747069
 20
190.2374908667777
 30
0.0
 11
1310.8855645747069
 21
189.53890868394171
 31
0.0
 12
1335.68256803689
 22
189.53890868394171
 32
0.0
 13
1335.68256803689
 23
189.53890868394171
 33
0.0
  0
SOLID
  5
428
  8
0
  6
CONTINUOUS
 62
     7
 10
-1310.8855645747069
 20
190.2374908667777
 30
0.0
 11
-1355.687344363512
 21
190.2374908667777
 31
0.0
 12
-1335.68256803689
 22
189.53890868394171
 32
0.0
 13
-1335.68256803689
 23
189.53890868394171
 33
0.0
210
0.0
220
0.0
230
-1.0
  0
SOLID
  5
429
  8
0
  6
CONTINUOUS
 62
     7
 10
1310.8855645747069
 20
189.53890868394171
 30
0.0
 11
1310.8855645747069
 21
189.49467116517371
 31
0.0
 12
1335.171063976414
 22
189.49467116517371
 32
0.0
 13
1335.171063976414
 23
189.49467116517371
 33
0.0
210
0.0
220
0.0
230
1.0
  0
SOLID
  5
42A
  8
0
  6
CONTINUOUS
 62
     7
 10
-1310.8855645747069
 20
189.53890868394171
 30
0.0
 11
-1335.68256803689
 21
189.53890868394171
 31
0.0
 12
-1335.171063976414
 22
189.49467116517371
 32
0.0
 13
-1335.171063976414
 23
189.49467116517371
 33
0.0
210
0.0
220
0.0
230
-1.0
  0
SOLID
  5
42B
  8
0
  6
CONTINUOUS
 62
     7
 10
1310.8855645747069
 20
189.49467116517371
 30
0.0
 11
1310.8855645747069
 21
189.39821351745849
 31
0.0
 12
1334.6667929340699
 22
189.39821351745849
 32
0.0
 13
1334.6667929340699
 23
189.39821351745849
 33
0.0
  0
SOLID
  5
42C
  8
0
  6
CONTINUOUS
 62
     7
 10
-1310.8855645747069
 20
189.49467116517371
 30
0.0
 11
-1335.171063976414
 21
189.49467116517371
 31
0.0
 12
-1334.6667929340699
 22
189.39821351745849
 32
0.0
 13
-1334.6667929340699
 23
189.39821351745849
 33
0.0
210
0.0
220
0.0
230
-1.0
  0
SOLID
  5
42D
  8
0
  6
CONTINUOUS
 62
     7
 10
1310.8855645747069
 20
189.39821351745849
 30
0.0
 11
1310.8855645747069
 21
189.25055276462189
 31
0.0
 12
1334.1750718098331
 22
189.25055276462189
 32
0.0
 13
1334.1750718098331
 23
189.25055276462189
 33
0.0
210
0.0
220
0.0
230
1.0
  0
SOLID
  5
42E
  8
0
  6
CONTINUOUS
 62
     7
 10
-1310.8855645747069
 20
189.39821351745849
 30
0.0
 11
-1334.6667929340699
 21
189.39821351745849
 31
0.0
 12
-1334.1750718098331
 22
189.25055276462189
 32
0.0
 13
-1334.1750718098331
 23
189.25055276462189
 33
0.0
210
0.0
220
0.0
230
-1.0
  0
SOLID
  5
42F
  8
0
  6
CONTINUOUS
 62
     7
 10
1310.8855645747069
 20
189.25055276462189
 30
0.0
 11
1310.8855645747069
 21
189.05324580243459
 31
0.0
 12
1333.7010851806731
 22
189.05324580243459
 32
0.0
 13
1333.7010851806731
 23
189.05324580243459
 33
0.0
  0
SOLID
  5
430
  8
0
  6
CONTINUOUS
 62
     7
 10
-1310.8855645747069
 20
189.25055276462189
 30
0.0
 11
-1334.1750718098331
 21
189.25055276462189
 31
0.0
 12
-1333.7010851806731
 22
189.05324580243459
 32
0.0
 13
-1333.7010851806731
 23
189.05324580243459
 33
0.0
210
0.0
220
0.0
230
-1.0
  0
SOLID
  5
431
  8
0
  6
CONTINUOUS
 62
     7
 10
1310.8855645747069
 20
189.05324580243459
 30
0.0
 11
1310.8855645747069
 21
188.8083729831167
 31
0.0
 12
1333.2498306357561
 22
188.8083729831167
 32
0.0
 13
1333.2498306357561
 23
188.8083729831167
 33
0.0
210
0.0
220
0.0
230
1.0
  0
SOLID
  5
432
  8
0
  6
CONTINUOUS
 62
     7
 10
-1310.8855645747069
 20
189.05324580243459
 30
0.0
 11
-1333.7010851806731
 21
189.05324580243459
 31
0.0
 12
-1333.2498306357561
 22
188.8083729831167
 32
0.0
 13
-1333.2498306357561
 23
188.8083729831167
 33
0.0
210
0.0
220
0.0
230
-1.0
  0
SOLID
  5
433
  8
0
  6
CONTINUOUS
 62
     7
 10
1310.8855645747069
 20
188.8083729831167
 30
0.0
 11
1310.8855645747069
 21
188.51851618065581
 31
0.0
 12
1332.8260660831829
 22
188.51851618065581
 32
0.0
 13
1332.8260660831829
 23
188.51851618065581
 33
0.0
210
0.0
220
0.0
230
1.0
  0
SOLID
  5
434
  8
0
  6
CONTINUOUS
 62
     7
 10
-1310.8855645747069
 20
188.8083729831167
 30
0.0
 11
-1333.2498306357561
 21
188.8083729831167
 31
0.0
 12
-1332.8260660831829
 22
188.51851618065581
 32
0.0
 13
-1332.8260660831829
 23
188.51851618065581
 33
0.0
210
0.0
220
0.0
230
-1.0
  0
SOLID
  5
435
  8
0
  6
CONTINUOUS
 62
     7
 10
1310.8855645747069
 20
188.51851618065581
 30
0.0
 11
1310.8855645747069
 21
188.1867315682139
 31
0.0
 12
1332.43425958388
 22
188.1867315682139
 32
0.0
 13
1332.43425958388
 23
188.1867315682139
 33
0.0
210
0.0
220
0.0
230
1.0
  0
SOLID
  5
436
  8
0
  6
CONTINUOUS
 62
     7
 10
-1310.8855645747069
 20
188.51851618065581
 30
0.0
 11
-1332.8260660831829
 21
188.51851618065581
 31
0.0
 12
-1332.43425958388
 22
188.1867315682139
 32
0.0
 13
-1332.43425958388
 23
188.1867315682139
 33
0.0
210
0.0
220
0.0
230
-1.0
  0
SOLID
  5
437
  8
0
  6
CONTINUOUS
 62
     7
 10
1310.8855645747069
 20
188.1867315682139
 30
0.0
 11
1310.8855645747069
 21
187.8165173946482
 31
0.0
 12
1332.0785422415411
 22
187.8165173946482
 32
0.0
 13
1332.0785422415411
 23
187.8165173946482
 33
0.0
  0
SOLID
  5
438
  8
0
  6
CONTINUOUS
 62
     7
 10
-1310.8855645747069
 20
188.1867315682139
 30
0.0
 11
-1332.43425958388
 21
188.1867315682139
 31
0.0
 12
-1332.0785422415411
 22
187.8165173946482
 32
0.0
 13
-1332.0785422415411
 23
187.8165173946482
 33
0.0
210
0.0
220
0.0
230
-1.0
  0
SOLID
  5
439
  8
0
  6
CONTINUOUS
 62
     7
 10
1310.8855645747069
 20
187.8165173946482
 30
0.0
 11
1310.8855645747069
 21
187.41177709990501
 31
0.0
 12
1331.762664645373
 22
187.41177709990501
 32
0.0
 13
1331.762664645373
 23
187.41177709990501
 33
0.0
210
0.0
220
0.0
230
1.0
  0
SOLID
  5
43A
  8
0
  6
CONTINUOUS
 62
     7
 10
-1310.8855645747069
 20
187.8165173946482
 30
0.0
 11
-1332.0785422415411
 21
187.8165173946482
 31
0.0
 12
-1331.762664645373
 22
187.41177709990501
 32
0.0
 13
-1331.762664645373
 23
187.41177709990501
 33
0.0
210
0.0
220
0.0
230
-1.0
  0
SOLID
  5
43B
  8
0
  6
CONTINUOUS
 62
     7
 10
1310.8855645747069
 20
187.41177709990501
 30
0.0
 11
1310.8855645747069
 21
186.97677815818449
 31
0.0
 12
1331.4899573248781
 22
186.97677815818449
 32
0.0
 13
1331.4899573248781
 23
186.97677815818449
 33
0.0
210
0.0
220
0.0
230
1.0
  0
SOLID
  5
43C
  8
0
  6
CONTINUOUS
 62
     7
 10
-1310.8855645747069
 20
187.41177709990501
 30
0.0
 11
-1331.762664645373
 21
187.41177709990501
 31
0.0
 12
-1331.4899573248781
 22
186.97677815818449
 32
0.0
 13
-1331.4899573248781
 23
186.97677815818449
 33
0.0
210
0.0
220
0.0
230
-1.0
  0
SOLID
  5
43D
  8
0
  6
CONTINUOUS
 62
     7
 10
1310.8855645747069
 20
186.97677815818449
 30
0.0
 11
1310.8855645747069
 21
186.51610708282641
 31
0.0
 12
1331.2632956336331
 22
186.51610708282641
 32
0.0
 13
1331.2632956336331
 23
186.51610708282641
 33
0.0
210
0.0
220
0.0
230
1.0
  0
SOLID
  5
43E
  8
0
  6
CONTINUOUS
 62
     7
 10
-1310.8855645747069
 20
186.97677815818449
 30
0.0
 11
-1331.4899573248781
 21
186.97677815818449
 31
0.0
 12
-1331.2632956336331
 22
186.51610708282641
 32
0.0
 13
-1331.2632956336331
 23
186.51610708282641
 33
0.0
210
0.0
220
0.0
230
-1.0
  0
SOLID
  5
43F
  8
0
  6
CONTINUOUS
 62
     7
 10
1310.8855645747069
 20
186.51610708282641
 30
0.0
 11
1310.8855645747069
 21
186.03462106733099
 31
0.0
 12
1331.0850694323281
 22
186.03462106733099
 32
0.0
 13
1331.0850694323281
 23
186.03462106733099
 33
0.0
210
0.0
220
0.0
230
1.0
  0
SOLID
  5
440
  8
0
  6
CONTINUOUS
 62
     7
 10
-1310.8855645747069
 20
186.51610708282641
 30
0.0
 11
-1331.2632956336331
 21
186.51610708282641
 31
0.0
 12
-1331.0850694323281
 22
186.03462106733099
 32
0.0
 13
-1331.0850694323281
 23
186.03462106733099
 33
0.0
210
0.0
220
0.0
230
-1.0
  0
SOLID
  5
441
  8
0
  6
CONTINUOUS
 62
     7
 10
1310.8855645747069
 20
186.03462106733099
 30
0.0
 11
1310.8855645747069
 21
185.53739677240051
 31
0.0
 12
1330.957157890705
 22
185.53739677240051
 32
0.0
 13
1330.957157890705
 23
185.53739677240051
 33
0.0
  0
SOLID
  5
442
  8
0
  6
CONTINUOUS
 62
     7
 10
-1310.8855645747069
 20
186.03462106733099
 30
0.0
 11
-1331.0850694323281
 21
186.03462106733099
 31
0.0
 12
-1330.957157890705
 22
185.53739677240051
 32
0.0
 13
-1330.957157890705
 23
185.53739677240051
 33
0.0
210
0.0
220
0.0
230
-1.0
  0
SOLID
  5
443
  8
0
  6
CONTINUOUS
 62
     7
 10
1310.8855645747069
 20
185.53739677240051
 30
0.0
 11
1310.8855645747069
 21
185.02967679897671
 31
0.0
 12
1330.8809096740949
 22
185.02967679897671
 32
0.0
 13
1330.8809096740949
 23
185.02967679897671
 33
0.0
210
0.0
220
0.0
230
1.0
  0
SOLID
  5
444
  8
0
  6
CONTINUOUS
 62
     7
 10
-1310.8855645747069
 20
185.53739677240051
 30
0.0
 11
-1330.957157890705
 21
185.53739677240051
 31
0.0
 12
-1330.8809096740949
 22
185.02967679897671
 32
0.0
 13
-1330.8809096740949
 23
185.02967679897671
 33
0.0
210
0.0
220
0.0
230
-1.0
  0
SOLID
  5
445
  8
0
  6
CONTINUOUS
 62
     7
 10
1310.8855645747069
 20
185.02967679897671
 30
0.0
 11
1310.8855645747069
 21
184.51681441164851
 31
0.0
 12
1330.8571287234511
 22
184.51681441164851
 32
0.0
 13
1330.8571287234511
 23
184.51681441164851
 33
0.0
210
0.0
220
0.0
230
1.0
  0
SOLID
  5
446
  8
0
  6
CONTINUOUS
 62
     7
 10
-1310.8855645747069
 20
185.02967679897671
 30
0.0
 11
-1330.8809096740949
 21
185.02967679897671
 31
0.0
 12
-1330.8571287234511
 22
184.51681441164851
 32
0.0
 13
-1330.8571287234511
 23
184.51681441164851
 33
0.0
210
0.0
220
0.0
230
-1.0
  0
SOLID
  5
447
  8
0
  6
CONTINUOUS
 62
     7
 10
1310.8855645747069
 20
184.51681441164851
 30
0.0
 11
1310.8855645747069
 21
178.86141730980239
 31
0.0
 12
1330.8855645747069
 22
178.86141730980239
 32
0.0
 13
1330.8855645747069
 23
178.86141730980239
 33
0.0
210
0.0
220
0.0
230
1.0
  0
SOLID
  5
448
  8
0
  6
CONTINUOUS
 62
     7
 10
-1310.8855645747069
 20
184.51681441164851
 30
0.0
 11
-1330.8571287234511
 21
184.51681441164851
 31
0.0
 12
-1330.8855645747069
 22
178.86141730980239
 32
0.0
 13
-1330.8855645747069
 23
178.86141730980239
 33
0.0
210
0.0
220
0.0
230
-1.0
  0
LINE
  5
449
  8
0
  6
CONTINUOUS
 62
     7
 10
1403.7766556129779
 20
640.7275422958794
 30
0.0
 11
1402.303240882143
 21
628.7275422958794
 31
0.0
  0
LINE
  5
44A
  8
0
  6
CONTINUOUS
 62
     7
 10
1433.7766556129779
 20
640.7275422958794
 30
0.0
 11
1433.7766556129779
 21
628.7275422958794
 31
0.0
  0
LINE
  5
44B
  8
0
  6
CONTINUOUS
 62
     7
 10
1402.303240882143
 20
628.7275422958794
 30
0.0
 11
1351.468446766235
 21
214.71136842115439
 31
0.0
  0
LINE
  5
44C
  8
0
  6
CONTINUOUS
 62
     7
 10
1413.7766556129779
 20
628.7275422958794
 30
0.0
 11
1362.9418614970691
 21
214.71136842115439
 31
0.0
  0
LINE
  5
44D
  8
0
  6
CONTINUOUS
 62
     7
 10
1351.468446766235
 20
214.71136842115439
 30
0.0
 11
1351.2083229409691
 21
213.2198282612558
 31
0.0
  0
LINE
  5
44E
  8
0
  6
CONTINUOUS
 62
     7
 10
1362.9418614970691
 20
214.71136842115439
 30
0.0
 11
1362.7587233934671
 21
213.2198282612558
 31
0.0
  0
LINE
  5
44F
  8
0
  6
CONTINUOUS
 62
     7
 10
1351.2083229409691
 20
213.2198282612558
 30
0.0
 11
1350.799164684121
 21
211.7621088184564
 31
0.0
  0
LINE
  5
450
  8
0
  6
CONTINUOUS
 62
     7
 10
1362.7587233934671
 20
213.2198282612558
 30
0.0
 11
1362.579737951763
 21
211.7621088184564
 31
0.0
  0
LINE
  5
451
  8
0
  6
CONTINUOUS
 62
     7
 10
1350.799164684121
 20
211.7621088184564
 30
0.0
 11
1350.245140602673
 21
210.35306170418491
 31
0.0
  0
LINE
  5
452
  8
0
  6
CONTINUOUS
 62
     7
 10
1362.579737951763
 20
211.7621088184564
 30
0.0
 11
1362.406728720546
 21
210.35306170418491
 31
0.0
  0
LINE
  5
453
  8
0
  6
CONTINUOUS
 62
     7
 10
1350.245140602673
 20
210.35306170418491
 30
0.0
 11
1349.5518952329719
 21
209.0070426439749
 31
0.0
  0
LINE
  5
454
  8
0
  6
CONTINUOUS
 62
     7
 10
1362.406728720546
 20
210.35306170418491
 30
0.0
 11
1362.241458361271
 21
209.0070426439749
 31
0.0
  0
LINE
  5
455
  8
0
  6
CONTINUOUS
 62
     7
 10
1349.5518952329719
 20
209.0070426439749
 30
0.0
 11
1348.7264915327801
 21
207.73776521773141
 31
0.0
  0
LINE
  5
456
  8
0
  6
CONTINUOUS
 62
     7
 10
1362.241458361271
 20
209.0070426439749
 30
0.0
 11
1362.0856106898259
 21
207.73776521773141
 31
0.0
  0
LINE
  5
457
  8
0
  6
CONTINUOUS
 62
     7
 10
1348.7264915327801
 20
207.73776521773141
 30
0.0
 11
1347.777338922092
 21
206.55816114233781
 31
0.0
  0
LINE
  5
458
  8
0
  6
CONTINUOUS
 62
     7
 10
1362.0856106898259
 20
207.73776521773141
 30
0.0
 11
1361.940773521389
 21
206.55816114233781
 31
0.0
  0
LINE
  5
459
  8
0
  6
CONTINUOUS
 62
     7
 10
1347.777338922092
 20
206.55816114233781
 30
0.0
 11
1346.714107605849
 21
205.4802485200799
 31
0.0
  0
LINE
  5
45A
  8
0
  6
CONTINUOUS
 62
     7
 10
1361.940773521389
 20
206.55816114233781
 30
0.0
 11
1361.8084224933741
 21
205.4802485200799
 31
0.0
  0
LINE
  5
45B
  8
0
  6
CONTINUOUS
 62
     7
 10
1346.714107605849
 20
205.4802485200799
 30
0.0
 11
1345.5476300514699
 21
204.51500939520409
 31
0.0
  0
LINE
  5
45C
  8
0
  6
CONTINUOUS
 62
     7
 10
1361.8084224933741
 20
205.4802485200799
 30
0.0
 11
1361.6899060312589
 21
204.51500939520409
 31
0.0
  0
LINE
  5
45D
  8
0
  6
CONTINUOUS
 62
     7
 10
1345.5476300514699
 20
204.51500939520409
 30
0.0
 11
1344.2897906249509
 21
203.67227786609561
 31
0.0
  0
LINE
  5
45E
  8
0
  6
CONTINUOUS
 62
     7
 10
1361.6899060312589
 20
204.51500939520409
 30
0.0
 11
1361.5864316104989
 21
203.67227786609561
 31
0.0
  0
LINE
  5
45F
  8
0
  6
CONTINUOUS
 62
     7
 10
1344.2897906249509
 20
203.67227786609561
 30
0.0
 11
1342.9534045099631
 21
202.96063989301649
 31
0.0
  0
LINE
  5
460
  8
0
  6
CONTINUOUS
 62
     7
 10
1361.5864316104989
 20
203.67227786609561
 30
0.0
 11
1361.499053454452
 21
202.96063989301649
 31
0.0
  0
LINE
  5
461
  8
0
  6
CONTINUOUS
 62
     7
 10
1342.9534045099631
 20
202.96063989301649
 30
0.0
 11
1341.5520871435481
 21
202.38734582218811
 31
0.0
  0
LINE
  5
462
  8
0
  6
CONTINUOUS
 62
     7
 10
1361.499053454452
 20
202.96063989301649
 30
0.0
 11
1361.428661793698
 21
202.38734582218811
 31
0.0
  0
LINE
  5
463
  8
0
  6
CONTINUOUS
 62
     7
 10
1341.5520871435481
 20
202.38734582218811
 30
0.0
 11
1340.1001154986311
 21
201.95823651744499
 31
0.0
  0
LINE
  5
464
  8
0
  6
CONTINUOUS
 62
     7
 10
1361.428661793698
 20
202.38734582218811
 30
0.0
 11
1361.3759737961359
 21
201.95823651744499
 31
0.0
  0
LINE
  5
465
  8
0
  6
CONTINUOUS
 62
     7
 10
1340.1001154986311
 20
201.95823651744499
 30
0.0
 11
1338.6122826266319
 21
201.6776838520486
 31
0.0
  0
LINE
  5
466
  8
0
  6
CONTINUOUS
 62
     7
 10
1361.3759737961359
 20
201.95823651744499
 30
0.0
 11
1361.341526260305
 21
201.6776838520486
 31
0.0
  0
LINE
  5
467
  8
0
  6
CONTINUOUS
 62
     7
 10
1338.6122826266319
 20
201.6776838520486
 30
0.0
 11
1337.1037469421519
 21
201.5485461669451
 31
0.0
  0
LINE
  5
468
  8
0
  6
CONTINUOUS
 62
     7
 10
1361.341526260305
 20
201.6776838520486
 30
0.0
 11
1361.3256701463431
 21
201.5485461669451
 31
0.0
  0
LINE
  5
469
  8
0
  6
CONTINUOUS
 62
     7
 10
1337.1037469421519
 20
201.5485461669451
 30
0.0
 11
1317.4269511028281
 21
200.86141731510389
 31
0.0
  0
LINE
  5
46A
  8
0
  6
CONTINUOUS
 62
     7
 10
1361.3256701463431
 20
201.5485461669451
 30
0.0
 11
1361.2413013319861
 21
200.86141731510389
 31
0.0
  0
LINE
  5
46B
  8
0
  6
CONTINUOUS
 62
     7
 10
1317.4269511028281
 20
200.86141731510389
 30
0.0
 11
1310.8855645747069
 21
195.37254229197029
 31
0.0
  0
LINE
  5
46C
  8
0
  6
CONTINUOUS
 62
     7
 10
1361.2413013319861
 20
200.86141731510389
 30
0.0
 11
1360.5673522224199
 21
195.37254229197029
 31
0.0
  0
LINE
  5
46D
  8
0
  6
CONTINUOUS
 62
     7
 10
1310.8855645747069
 20
195.37254229197029
 30
0.0
 11
1310.8855645747069
 21
194.62509828484741
 31
0.0
  0
LINE
  5
46E
  8
0
  6
CONTINUOUS
 62
     7
 10
1360.5673522224199
 20
195.37254229197029
 30
0.0
 11
1360.475577638206
 21
194.62509828484741
 31
0.0
  0
LINE
  5
46F
  8
0
  6
CONTINUOUS
 62
     7
 10
1310.8855645747069
 20
194.62509828484741
 30
0.0
 11
1310.8855645747069
 21
194.12791823154791
 31
0.0
  0
LINE
  5
470
  8
0
  6
CONTINUOUS
 62
     7
 10
1360.475577638206
 20
194.62509828484741
 30
0.0
 11
1360.38886969645
 21
194.12791823154791
 31
0.0
  0
LINE
  5
471
  8
0
  6
CONTINUOUS
 62
     7
 10
1310.8855645747069
 20
194.12791823154791
 30
0.0
 11
1310.8855645747069
 21
193.6420117506147
 31
0.0
  0
LINE
  5
472
  8
0
  6
CONTINUOUS
 62
     7
 10
1360.38886969645
 20
194.12791823154791
 30
0.0
 11
1360.252483610835
 21
193.6420117506147
 31
0.0
  0
LINE
  5
473
  8
0
  6
CONTINUOUS
 62
     7
 10
1310.8855645747069
 20
193.6420117506147
 30
0.0
 11
1310.8855645747069
 21
193.1723293791909
 31
0.0
  0
LINE
  5
474
  8
0
  6
CONTINUOUS
 62
     7
 10
1360.252483610835
 20
193.6420117506147
 30
0.0
 11
1360.067808917019
 21
193.1723293791909
 31
0.0
  0
LINE
  5
475
  8
0
  6
CONTINUOUS
 62
     7
 10
1310.8855645747069
 20
193.1723293791909
 30
0.0
 11
1310.8855645747069
 21
192.72365635912089
 31
0.0
  0
LINE
  5
476
  8
0
  6
CONTINUOUS
 62
     7
 10
1360.067808917019
 20
193.1723293791909
 30
0.0
 11
1359.8367271271179
 21
192.72365635912089
 31
0.0
  0
LINE
  5
477
  8
0
  6
CONTINUOUS
 62
     7
 10
1310.8855645747069
 20
192.72365635912089
 30
0.0
 11
1310.8855645747069
 21
192.30056388370639
 31
0.0
  0
LINE
  5
478
  8
0
  6
CONTINUOUS
 62
     7
 10
1359.8367271271179
 20
192.72365635912089
 30
0.0
 11
1359.561592560387
 21
192.30056388370639
 31
0.0
  0
LINE
  5
479
  8
0
  6
CONTINUOUS
 62
     7
 10
1310.8855645747069
 20
192.30056388370639
 30
0.0
 11
1310.8855645747069
 21
191.90736252524181
 31
0.0
  0
LINE
  5
47A
  8
0
  6
CONTINUOUS
 62
     7
 10
1359.561592560387
 20
192.30056388370639
 30
0.0
 11
1359.2452083568251
 21
191.90736252524181
 31
0.0
  0
LINE
  5
47B
  8
0
  6
CONTINUOUS
 62
     7
 10
1310.8855645747069
 20
191.90736252524181
 30
0.0
 11
1310.8855645747069
 21
191.54805831782249
 31
0.0
  0
LINE
  5
47C
  8
0
  6
CONTINUOUS
 62
     7
 10
1359.2452083568251
 20
191.90736252524181
 30
0.0
 11
1358.8907979180769
 21
191.54805831782249
 31
0.0
  0
LINE
  5
47D
  8
0
  6
CONTINUOUS
 62
     7
 10
1310.8855645747069
 20
191.54805831782249
 30
0.0
 11
1310.8855645747069
 21
191.2263119428639
 31
0.0
  0
LINE
  5
47E
  8
0
  6
CONTINUOUS
 62
     7
 10
1358.8907979180769
 20
191.54805831782249
 30
0.0
 11
1358.501972066618
 21
191.2263119428639
 31
0.0
  0
LINE
  5
47F
  8
0
  6
CONTINUOUS
 62
     7
 10
1310.8855645747069
 20
191.2263119428639
 30
0.0
 11
1310.8855645747069
 21
190.94540143316109
 31
0.0
  0
LINE
  5
480
  8
0
  6
CONTINUOUS
 62
     7
 10
1358.501972066618
 20
191.2263119428639
 30
0.0
 11
1358.082692257778
 21
190.94540143316109
 31
0.0
  0
LINE
  5
481
  8
0
  6
CONTINUOUS
 62
     7
 10
1310.8855645747069
 20
190.94540143316109
 30
0.0
 11
1310.8855645747069
 21
190.7081887754681
 31
0.0
  0
LINE
  5
482
  8
0
  6
CONTINUOUS
 62
     7
 10
1358.082692257778
 20
190.94540143316109
 30
0.0
 11
1357.6372302194479
 21
190.7081887754681
 31
0.0
  0
LINE
  5
483
  8
0
  6
CONTINUOUS
 62
     7
 10
1310.8855645747069
 20
190.7081887754681
 30
0.0
 11
1310.8855645747069
 21
190.5170907518586
 31
0.0
  0
LINE
  5
484
  8
0
  6
CONTINUOUS
 62
     7
 10
1357.6372302194479
 20
190.7081887754681
 30
0.0
 11
1357.170124430643
 21
190.5170907518586
 31
0.0
  0
LINE
  5
485
  8
0
  6
CONTINUOUS
 62
     7
 10
1310.8855645747069
 20
190.5170907518586
 30
0.0
 11
1310.8855645747069
 21
190.3740543169443
 31
0.0
  0
LINE
  5
486
  8
0
  6
CONTINUOUS
 62
     7
 10
1357.170124430643
 20
190.5170907518586
 30
0.0
 11
1356.686133882338
 21
190.3740543169443
 31
0.0
  0
LINE
  5
487
  8
0
  6
CONTINUOUS
 62
     7
 10
1310.8855645747069
 20
190.3740543169443
 30
0.0
 11
1310.8855645747069
 21
190.2805367618121
 31
0.0
  0
LINE
  5
488
  8
0
  6
CONTINUOUS
 62
     7
 10
1356.686133882338
 20
190.3740543169443
 30
0.0
 11
1356.190189591671
 21
190.2805367618121
 31
0.0
  0
LINE
  5
489
  8
0
  6
CONTINUOUS
 62
     7
 10
1310.8855645747069
 20
190.2805367618121
 30
0.0
 11
1310.8855645747069
 21
190.2374908667777
 31
0.0
  0
LINE
  5
48A
  8
0
  6
CONTINUOUS
 62
     7
 10
1356.190189591671
 20
190.2805367618121
 30
0.0
 11
1355.687344363512
 21
190.2374908667777
 31
0.0
  0
LINE
  5
48B
  8
0
  6
CONTINUOUS
 62
     7
 10
1310.8855645747069
 20
190.2374908667777
 30
0.0
 11
1310.8855645747069
 21
189.53890868394171
 31
0.0
  0
LINE
  5
48C
  8
0
  6
CONTINUOUS
 62
     7
 10
1355.687344363512
 20
190.2374908667777
 30
0.0
 11
1335.68256803689
 21
189.53890868394171
 31
0.0
  0
LINE
  5
48D
  8
0
  6
CONTINUOUS
 62
     7
 10
1310.8855645747069
 20
189.53890868394171
 30
0.0
 11
1310.8855645747069
 21
189.49467116517371
 31
0.0
  0
LINE
  5
48E
  8
0
  6
CONTINUOUS
 62
     7
 10
1335.68256803689
 20
189.53890868394171
 30
0.0
 11
1335.171063976414
 21
189.49467116517371
 31
0.0
  0
LINE
  5
48F
  8
0
  6
CONTINUOUS
 62
     7
 10
1310.8855645747069
 20
189.49467116517371
 30
0.0
 11
1310.8855645747069
 21
189.39821351745849
 31
0.0
  0
LINE
  5
490
  8
0
  6
CONTINUOUS
 62
     7
 10
1335.171063976414
 20
189.49467116517371
 30
0.0
 11
1334.6667929340699
 21
189.39821351745849
 31
0.0
  0
LINE
  5
491
  8
0
  6
CONTINUOUS
 62
     7
 10
1310.8855645747069
 20
189.39821351745849
 30
0.0
 11
1310.8855645747069
 21
189.25055276462189
 31
0.0
  0
LINE
  5
492
  8
0
  6
CONTINUOUS
 62
     7
 10
1334.6667929340699
 20
189.39821351745849
 30
0.0
 11
1334.1750718098331
 21
189.25055276462189
 31
0.0
  0
LINE
  5
493
  8
0
  6
CONTINUOUS
 62
     7
 10
1310.8855645747069
 20
189.25055276462189
 30
0.0
 11
1310.8855645747069
 21
189.05324580243459
 31
0.0
  0
LINE
  5
494
  8
0
  6
CONTINUOUS
 62
     7
 10
1334.1750718098331
 20
189.25055276462189
 30
0.0
 11
1333.7010851806731
 21
189.05324580243459
 31
0.0
  0
LINE
  5
495
  8
0
  6
CONTINUOUS
 62
     7
 10
1310.8855645747069
 20
189.05324580243459
 30
0.0
 11
1310.8855645747069
 21
188.8083729831167
 31
0.0
  0
LINE
  5
496
  8
0
  6
CONTINUOUS
 62
     7
 10
1333.7010851806731
 20
189.05324580243459
 30
0.0
 11
1333.2498306357561
 21
188.8083729831167
 31
0.0
  0
LINE
  5
497
  8
0
  6
CONTINUOUS
 62
     7
 10
1310.8855645747069
 20
188.8083729831167
 30
0.0
 11
1310.8855645747069
 21
188.51851618065581
 31
0.0
  0
LINE
  5
498
  8
0
  6
CONTINUOUS
 62
     7
 10
1333.2498306357561
 20
188.8083729831167
 30
0.0
 11
1332.8260660831829
 21
188.51851618065581
 31
0.0
  0
LINE
  5
499
  8
0
  6
CONTINUOUS
 62
     7
 10
1310.8855645747069
 20
188.51851618065581
 30
0.0
 11
1310.8855645747069
 21
188.1867315682139
 31
0.0
  0
LINE
  5
49A
  8
0
  6
CONTINUOUS
 62
     7
 10
1332.8260660831829
 20
188.51851618065581
 30
0.0
 11
1332.43425958388
 21
188.1867315682139
 31
0.0
  0
LINE
  5
49B
  8
0
  6
CONTINUOUS
 62
     7
 10
1310.8855645747069
 20
188.1867315682139
 30
0.0
 11
1310.8855645747069
 21
187.8165173946482
 31
0.0
  0
LINE
  5
49C
  8
0
  6
CONTINUOUS
 62
     7
 10
1332.43425958388
 20
188.1867315682139
 30
0.0
 11
1332.0785422415411
 21
187.8165173946482
 31
0.0
  0
LINE
  5
49D
  8
0
  6
CONTINUOUS
 62
     7
 10
1310.8855645747069
 20
187.8165173946482
 30
0.0
 11
1310.8855645747069
 21
187.41177709990501
 31
0.0
  0
LINE
  5
49E
  8
0
  6
CONTINUOUS
 62
     7
 10
1332.0785422415411
 20
187.8165173946482
 30
0.0
 11
1331.762664645373
 21
187.41177709990501
 31
0.0
  0
LINE
  5
49F
  8
0
  6
CONTINUOUS
 62
     7
 10
1310.8855645747069
 20
187.41177709990501
 30
0.0
 11
1310.8855645747069
 21
186.97677815818449
 31
0.0
  0
LINE
  5
4A0
  8
0
  6
CONTINUOUS
 62
     7
 10
1331.762664645373
 20
187.41177709990501
 30
0.0
 11
1331.4899573248781
 21
186.97677815818449
 31
0.0
  0
LINE
  5
4A1
  8
0
  6
CONTINUOUS
 62
     7
 10
1310.8855645747069
 20
186.97677815818449
 30
0.0
 11
1310.8855645747069
 21
186.51610708282641
 31
0.0
  0
LINE
  5
4A2
  8
0
  6
CONTINUOUS
 62
     7
 10
1331.4899573248781
 20
186.97677815818449
 30
0.0
 11
1331.2632956336331
 21
186.51610708282641
 31
0.0
  0
LINE
  5
4A3
  8
0
  6
CONTINUOUS
 62
     7
 10
1310.8855645747069
 20
186.51610708282641
 30
0.0
 11
1310.8855645747069
 21
186.03462106733099
 31
0.0
  0
LINE
  5
4A4
  8
0
  6
CONTINUOUS
 62
     7
 10
1331.2632956336331
 20
186.51610708282641
 30
0.0
 11
1331.0850694323281
 21
186.03462106733099
 31
0.0
  0
LINE
  5
4A5
  8
0
  6
CONTINUOUS
 62
     7
 10
1310.8855645747069
 20
186.03462106733099
 30
0.0
 11
1310.8855645747069
 21
185.53739677240051
 31
0.0
  0
LINE
  5
4A6
  8
0
  6
CONTINUOUS
 62
     7
 10
1331.0850694323281
 20
186.03462106733099
 30
0.0
 11
1330.957157890705
 21
185.53739677240051
 31
0.0
  0
LINE
  5
4A7
  8
0
  6
CONTINUOUS
 62
     7
 10
1310.8855645747069
 20
185.53739677240051
 30
0.0
 11
1310.8855645747069
 21
185.02967679897671
 31
0.0
  0
LINE
  5
4A8
  8
0
  6
CONTINUOUS
 62
     7
 10
1330.957157890705
 20
185.53739677240051
 30
0.0
 11
1330.8809096740949
 21
185.02967679897671
 31
0.0
  0
LINE
  5
4A9
  8
0
  6
CONTINUOUS
 62
     7
 10
1310.8855645747069
 20
185.02967679897671
 30
0.0
 11
1310.8855645747069
 21
184.51681441164851
 31
0.0
  0
LINE
  5
4AA
  8
0
  6
CONTINUOUS
 62
     7
 10
1330.8809096740949
 20
185.02967679897671
 30
0.0
 11
1330.8571287234511
 21
184.51681441164851
 31
0.0
  0
LINE
  5
4AB
  8
0
  6
CONTINUOUS
 62
     7
 10
1310.8855645747069
 20
184.51681441164851
 30
0.0
 11
1310.8855645747069
 21
178.86141730980239
 31
0.0
  0
LINE
  5
4AC
  8
0
  6
CONTINUOUS
 62
     7
 10
1330.8571287234511
 20
184.51681441164851
 30
0.0
 11
1330.8855645747069
 21
178.86141730980239
 31
0.0
  0
ENDBLK
  5
4AE
  8
0
 62
     7
  0
BLOCK
  8
0
 62
     7
  2
*U23
 70
     1
 10
0.0
 20
0.0
 30
0.0
  3
*U23
  1

  0
SOLID
  5
4F1
  8
0
  6
CONTINUOUS
 62
     7
 10
926.52469636673561
 20
703.04711960712518
 30
0.0
 11
906.52469636673572
 21
699.7137862737917
 31
0.0
 12
926.52469636673561
 22
699.7137862737917
 32
0.0
 13
926.52469636673561
 23
699.7137862737917
 33
0.0
210
0.0
220
0.0
230
1.0
  0
SOLID
  5
4F2
  8
0
  6
CONTINUOUS
 62
     7
 10
-906.52469636673572
 20
699.7137862737917
 30
0.0
 11
-926.52469636673561
 21
699.7137862737917
 31
0.0
 12
-926.52469636673561
 22
696.38045294045844
 32
0.0
 13
-926.52469636673561
 23
696.38045294045844
 33
0.0
210
0.0
220
0.0
230
-1.0
  0
LINE
  5
4F3
  8
0
  6
CONTINUOUS
 62
     7
 10
926.52469636673561
 20
703.04711960712518
 30
0.0
 11
906.52469636673572
 21
699.7137862737917
 31
0.0
  0
LINE
  5
4F4
  8
0
  6
CONTINUOUS
 62
     7
 10
926.52469636673561
 20
699.7137862737917
 30
0.0
 11
926.52469636673561
 21
703.04711960712518
 31
0.0
  0
LINE
  5
4F5
  8
0
  6
CONTINUOUS
 62
     7
 10
926.52469636673561
 20
699.7137862737917
 30
0.0
 11
926.52469636673561
 21
696.38045294045844
 31
0.0
  0
LINE
  5
4F6
  8
0
  6
CONTINUOUS
 62
     7
 10
926.52469636673561
 20
696.38045294045844
 30
0.0
 11
906.52469636673572
 21
699.7137862737917
 31
0.0
  0
ENDBLK
  5
4F8
  8
0
 62
     7
  0
BLOCK
  8
0
 62
     7
  2
*U24
 70
     1
 10
0.0
 20
0.0
 30
0.0
  3
*U24
  1

  0
SOLID
  5
4FE
  8
0
  6
CONTINUOUS
 62
     7
 10
1383.7766556129779
 20
703.04711960712518
 30
0.0
 11
1383.7766556129779
 21
699.71378627379192
 31
0.0
 12
1403.7766556129779
 22
699.71378627379192
 32
0.0
 13
1403.7766556129779
 23
699.71378627379192
 33
0.0
210
0.0
220
0.0
230
1.0
  0
SOLID
  5
4FF
  8
0
  6
CONTINUOUS
 62
     7
 10
-1383.7766556129779
 20
699.71378627379192
 30
0.0
 11
-1403.7766556129779
 21
699.71378627379192
 31
0.0
 12
-1383.7766556129779
 22
696.38045294045855
 32
0.0
 13
-1383.7766556129779
 23
696.38045294045855
 33
0.0
210
0.0
220
0.0
230
-1.0
  0
LINE
  5
500
  8
0
  6
CONTINUOUS
 62
     7
 10
1383.7766556129779
 20
703.04711960712518
 30
0.0
 11
1383.7766556129779
 21
699.71378627379192
 31
0.0
  0
LINE
  5
501
  8
0
  6
CONTINUOUS
 62
     7
 10
1403.7766556129779
 20
699.71378627379192
 30
0.0
 11
1383.7766556129779
 21
703.04711960712518
 31
0.0
  0
LINE
  5
502
  8
0
  6
CONTINUOUS
 62
     7
 10
1403.7766556129779
 20
699.71378627379192
 30
0.0
 11
1383.7766556129779
 21
696.38045294045855
 31
0.0
  0
LINE
  5
503
  8
0
  6
CONTINUOUS
 62
     7
 10
1383.7766556129779
 20
696.38045294045855
 30
0.0
 11
1383.7766556129779
 21
699.71378627379192
 31
0.0
  0
ENDBLK
  5
505
  8
0
 62
     7
  0
BLOCK
  8
0
 62
     7
  2
*U25
 70
     1
 10
0.0
 20
0.0
 30
0.0
  3
*U25
  1

  0
TEXT
  5
50B
  8
0
  6
CONTINUOUS
 62
     7
 10
1129.316501512568
 20
701.95603573305641
 30
0.0
 40
24.0
  1
498
  0
ENDBLK
  5
50D
  8
0
 62
     7
  0
BLOCK
  8
0
 62
     7
  2
*U26
 70
     1
 10
0.0
 20
0.0
 30
0.0
  3
*U26
  1

  0
SOLID
  5
51E
  8
0
  6
CONTINUOUS
 62
     7
 10
876.52469636673561
 20
640.72754229587918
 30
0.0
 11
876.52469636673561
 21
628.72754229587918
 31
0.0
 12
908.00420892187935
 22
628.72754229587918
 32
0.0
 13
908.00420892187935
 23
628.72754229587918
 33
0.0
210
0.0
220
0.0
230
1.0
  0
SOLID
  5
51F
  8
0
  6
CONTINUOUS
 62
     7
 10
-876.52469636673561
 20
640.72754229587918
 30
0.0
 11
-906.52469636673572
 21
640.72754229587918
 31
0.0
 12
-908.00420892187935
 22
628.72754229587918
 32
0.0
 13
-908.00420892187935
 23
628.72754229587918
 33
0.0
210
0.0
220
0.0
230
-1.0
  0
SOLID
  5
520
  8
0
  6
CONTINUOUS
 62
     7
 10
896.52469636673572
 20
628.72754229587918
 30
0.0
 11
946.28705306665722
 21
223.44567025927631
 31
0.0
 12
957.97251042607286
 22
223.44567025927631
 32
0.0
 13
957.97251042607286
 23
223.44567025927631
 33
0.0
210
0.0
220
0.0
230
1.0
  0
SOLID
  5
521
  8
0
  6
CONTINUOUS
 62
     7
 10
-896.52469636673572
 20
628.72754229587918
 30
0.0
 11
-908.00420892187935
 21
628.72754229587918
 31
0.0
 12
-957.97251042607286
 22
223.44567025927631
 32
0.0
 13
-957.97251042607286
 23
223.44567025927631
 33
0.0
210
0.0
220
0.0
230
-1.0
  0
SOLID
  5
522
  8
0
  6
CONTINUOUS
 62
     7
 10
946.28705306665722
 20
223.44567025927631
 30
0.0
 11
946.47011094631489
 21
221.95478347097409
 31
0.0
 12
958.23326190003797
 22
221.95478347097409
 32
0.0
 13
958.23326190003797
 23
221.95478347097409
 33
0.0
210
0.0
220
0.0
230
1.0
  0
SOLID
  5
523
  8
0
  6
CONTINUOUS
 62
     7
 10
-946.28705306665722
 20
223.44567025927631
 30
0.0
 11
-957.97251042607286
 21
223.44567025927631
 31
0.0
 12
-958.23326190003797
 22
221.95478347097409
 32
0.0
 13
-958.23326190003797
 23
221.95478347097409
 33
0.0
210
0.0
220
0.0
230
-1.0
  0
SOLID
  5
524
  8
0
  6
CONTINUOUS
 62
     7
 10
946.47011094631489
 20
221.95478347097409
 30
0.0
 11
946.64901060252419
 21
220.49776269495999
 31
0.0
 12
958.64292664708398
 22
220.49776269495999
 32
0.0
 13
958.64292664708398
 23
220.49776269495999
 33
0.0
210
0.0
220
0.0
230
1.0
  0
SOLID
  5
525
  8
0
  6
CONTINUOUS
 62
     7
 10
-946.47011094631489
 20
221.95478347097409
 30
0.0
 11
-958.23326190003797
 21
221.95478347097409
 31
0.0
 12
-958.64292664708398
 22
220.49776269495999
 32
0.0
 13
-958.64292664708398
 23
220.49776269495999
 33
0.0
210
0.0
220
0.0
230
-1.0
  0
SOLID
  5
526
  8
0
  6
CONTINUOUS
 62
     7
 10
946.64901060252419
 20
220.49776269495999
 30
0.0
 11
946.82193065013553
 21
219.0894419228708
 31
0.0
 12
959.19733385267466
 22
219.0894419228708
 32
0.0
 13
959.19733385267466
 23
219.0894419228708
 33
0.0
210
0.0
220
0.0
230
1.0
  0
SOLID
  5
527
  8
0
  6
CONTINUOUS
 62
     7
 10
-946.64901060252419
 20
220.49776269495999
 30
0.0
 11
-958.64292664708398
 21
220.49776269495999
 31
0.0
 12
-959.19733385267466
 22
219.0894419228708
 32
0.0
 13
-959.19733385267466
 23
219.0894419228708
 33
0.0
210
0.0
220
0.0
230
-1.0
  0
SOLID
  5
528
  8
0
  6
CONTINUOUS
 62
     7
 10
946.82193065013553
 20
219.0894419228708
 30
0.0
 11
946.98711058265383
 21
217.7441593294937
 31
0.0
 12
959.89083907303404
 22
217.7441593294937
 32
0.0
 13
959.89083907303404
 23
217.7441593294937
 33
0.0
  0
SOLID
  5
529
  8
0
  6
CONTINUOUS
 62
     7
 10
-946.82193065013553
 20
219.0894419228708
 30
0.0
 11
-959.19733385267466
 21
219.0894419228708
 31
0.0
 12
-959.89083907303404
 22
217.7441593294937
 32
0.0
 13
-959.89083907303404
 23
217.7441593294937
 33
0.0
210
0.0
220
0.0
230
-1.0
  0
SOLID
  5
52A
  8
0
  6
CONTINUOUS
 62
     7
 10
946.98711058265383
 20
217.7441593294937
 30
0.0
 11
947.14286869603006
 21
216.47561129518789
 31
0.0
 12
960.71638170147173
 22
216.47561129518789
 32
0.0
 13
960.71638170147173
 23
216.47561129518789
 33
0.0
210
0.0
220
0.0
230
1.0
  0
SOLID
  5
52B
  8
0
  6
CONTINUOUS
 62
     7
 10
-946.98711058265383
 20
217.7441593294937
 30
0.0
 11
-959.89083907303404
 21
217.7441593294937
 31
0.0
 12
-960.71638170147173
 22
216.47561129518789
 32
0.0
 13
-960.71638170147173
 23
216.47561129518789
 33
0.0
210
0.0
220
0.0
230
-1.0
  0
SOLID
  5
52C
  8
0
  6
CONTINUOUS
 62
     7
 10
947.14286869603006
 20
216.47561129518789
 30
0.0
 11
947.28761921016542
 21
215.29671296244251
 31
0.0
 12
961.66555685272624
 22
215.29671296244251
 32
0.0
 13
961.66555685272624
 23
215.29671296244251
 33
0.0
210
0.0
220
0.0
230
1.0
  0
SOLID
  5
52D
  8
0
  6
CONTINUOUS
 62
     7
 10
-947.14286869603006
 20
216.47561129518789
 30
0.0
 11
-960.71638170147173
 21
216.47561129518789
 31
0.0
 12
-961.66555685272624
 22
215.29671296244251
 32
0.0
 13
-961.66555685272624
 23
215.29671296244251
 33
0.0
210
0.0
220
0.0
230
-1.0
  0
SOLID
  5
52E
  8
0
  6
CONTINUOUS
 62
     7
 10
947.28761921016542
 20
215.29671296244251
 30
0.0
 11
947.41988841380487
 21
214.21946674625141
 31
0.0
 12
962.72870093346557
 22
214.21946674625141
 32
0.0
 13
962.72870093346557
 23
214.21946674625141
 33
0.0
210
0.0
220
0.0
230
1.0
  0
SOLID
  5
52F
  8
0
  6
CONTINUOUS
 62
     7
 10
-947.28761921016542
 20
215.29671296244251
 30
0.0
 11
-961.66555685272624
 21
215.29671296244251
 31
0.0
 12
-962.72870093346557
 22
214.21946674625141
 32
0.0
 13
-962.72870093346557
 23
214.21946674625141
 33
0.0
210
0.0
220
0.0
230
-1.0
  0
SOLID
  5
530
  8
0
  6
CONTINUOUS
 62
     7
 10
947.41988841380487
 20
214.21946674625141
 30
0.0
 11
947.53832966845619
 21
213.25484013700679
 31
0.0
 12
963.89499002774949
 22
213.25484013700679
 32
0.0
 13
963.89499002774949
 23
213.25484013700679
 33
0.0
210
0.0
220
0.0
230
1.0
  0
SOLID
  5
531
  8
0
  6
CONTINUOUS
 62
     7
 10
-947.41988841380487
 20
214.21946674625141
 30
0.0
 11
-962.72870093346557
 21
214.21946674625141
 31
0.0
 12
-963.89499002774949
 22
213.25484013700679
 32
0.0
 13
-963.89499002774949
 23
213.25484013700679
 33
0.0
210
0.0
220
0.0
230
-1.0
  0
SOLID
  5
532
  8
0
  6
CONTINUOUS
 62
     7
 10
947.53832966845619
 20
213.25484013700679
 30
0.0
 11
947.64173711857529
 21
212.41265404000359
 31
0.0
 12
965.15255009578755
 22
212.41265404000359
 32
0.0
 13
965.15255009578755
 23
212.41265404000359
 33
0.0
210
0.0
220
0.0
230
1.0
  0
SOLID
  5
533
  8
0
  6
CONTINUOUS
 62
     7
 10
-947.53832966845619
 20
213.25484013700679
 30
0.0
 11
-963.89499002774949
 21
213.25484013700679
 31
0.0
 12
-965.15255009578755
 22
212.41265404000359
 32
0.0
 13
-965.15255009578755
 23
212.41265404000359
 33
0.0
210
0.0
220
0.0
230
-1.0
  0
SOLID
  5
534
  8
0
  6
CONTINUOUS
 62
     7
 10
947.64173711857529
 20
212.41265404000359
 30
0.0
 11
947.72905796843281
 21
211.7014827883778
 31
0.0
 12
966.48857786405063
 22
211.7014827883778
 32
0.0
 13
966.48857786405063
 23
211.7014827883778
 33
0.0
210
0.0
220
0.0
230
1.0
  0
SOLID
  5
535
  8
0
  6
CONTINUOUS
 62
     7
 10
-947.64173711857529
 20
212.41265404000359
 30
0.0
 11
-965.15255009578755
 21
212.41265404000359
 31
0.0
 12
-966.48857786405063
 22
211.7014827883778
 32
0.0
 13
-966.48857786405063
 23
211.7014827883778
 33
0.0
210
0.0
220
0.0
230
-1.0
  0
SOLID
  5
536
  8
0
  6
CONTINUOUS
 62
     7
 10
947.72905796843281
 20
211.7014827883778
 30
0.0
 11
947.79940320067408
 21
211.12856684744929
 31
0.0
 12
967.88947117595524
 22
211.12856684744929
 32
0.0
 13
967.88947117595524
 23
211.12856684744929
 33
0.0
210
0.0
220
0.0
230
1.0
  0
SOLID
  5
537
  8
0
  6
CONTINUOUS
 62
     7
 10
-947.72905796843281
 20
211.7014827883778
 30
0.0
 11
-966.48857786405063
 21
211.7014827883778
 31
0.0
 12
-967.88947117595524
 22
211.12856684744929
 32
0.0
 13
-967.88947117595524
 23
211.12856684744929
 33
0.0
210
0.0
220
0.0
230
-1.0
  0
SOLID
  5
538
  8
0
  6
CONTINUOUS
 62
     7
 10
947.79940320067408
 20
211.12856684744929
 30
0.0
 11
947.85205662744215
 21
210.6997390992307
 31
0.0
 12
969.3409674760079
 22
210.6997390992307
 32
0.0
 13
969.3409674760079
 23
210.6997390992307
 33
0.0
210
0.0
220
0.0
230
1.0
  0
SOLID
  5
539
  8
0
  6
CONTINUOUS
 62
     7
 10
-947.79940320067408
 20
211.12856684744929
 30
0.0
 11
-967.88947117595524
 21
211.12856684744929
 31
0.0
 12
-969.3409674760079
 22
210.6997390992307
 32
0.0
 13
-969.3409674760079
 23
210.6997390992307
 33
0.0
210
0.0
220
0.0
230
-1.0
  0
SOLID
  5
53A
  8
0
  6
CONTINUOUS
 62
     7
 10
947.85205662744215
 20
210.6997390992307
 30
0.0
 11
947.88648218191815
 21
210.41936545760279
 31
0.0
 12
970.82828901750088
 22
210.41936545760279
 32
0.0
 13
970.82828901750088
 23
210.41936545760279
 33
0.0
  0
SOLID
  5
53B
  8
0
  6
CONTINUOUS
 62
     7
 10
-947.85205662744215
 20
210.6997390992307
 30
0.0
 11
-969.3409674760079
 21
210.6997390992307
 31
0.0
 12
-970.82828901750088
 22
210.41936545760279
 32
0.0
 13
-970.82828901750088
 23
210.41936545760279
 33
0.0
210
0.0
220
0.0
230
-1.0
  0
SOLID
  5
53C
  8
0
  6
CONTINUOUS
 62
     7
 10
947.88648218191815
 20
210.41936545760279
 30
0.0
 11
947.90232937604071
 21
210.29030041875649
 31
0.0
 12
972.33629331539157
 22
210.29030041875649
 32
0.0
 13
972.33629331539157
 23
210.29030041875649
 33
0.0
210
0.0
220
0.0
230
1.0
  0
SOLID
  5
53D
  8
0
  6
CONTINUOUS
 62
     7
 10
-947.88648218191815
 20
210.41936545760279
 30
0.0
 11
-970.82828901750088
 21
210.41936545760279
 31
0.0
 12
-972.33629331539157
 22
210.29030041875649
 32
0.0
 13
-972.33629331539157
 23
210.29030041875649
 33
0.0
210
0.0
220
0.0
230
-1.0
  0
SOLID
  5
53E
  8
0
  6
CONTINUOUS
 62
     7
 10
947.90232937604071
 20
210.29030041875649
 30
0.0
 11
948.02015972296579
 21
209.3306492536708
 31
0.0
 12
999.81710714202848
 22
209.3306492536708
 32
0.0
 13
999.81710714202848
 23
209.3306492536708
 33
0.0
  0
SOLID
  5
53F
  8
0
  6
CONTINUOUS
 62
     7
 10
-947.90232937604071
 20
210.29030041875649
 30
0.0
 11
-972.33629331539157
 21
210.29030041875649
 31
0.0
 12
-999.81710714202848
 22
209.3306492536708
 32
0.0
 13
-999.81710714202848
 23
209.3306492536708
 33
0.0
210
0.0
220
0.0
230
-1.0
  0
SOLID
  5
540
  8
0
  6
CONTINUOUS
 62
     7
 10
948.02015972296579
 20
209.3306492536708
 30
0.0
 11
948.28028354823175
 21
207.83910909377229
 31
0.0
 12
1042.5292289425249
 22
207.83910909377229
 32
0.0
 13
1042.5292289425249
 23
207.83910909377229
 33
0.0
210
0.0
220
0.0
230
1.0
  0
SOLID
  5
541
  8
0
  6
CONTINUOUS
 62
     7
 10
-948.02015972296579
 20
209.3306492536708
 30
0.0
 11
-999.81710714202848
 21
209.3306492536708
 31
0.0
 12
-1042.5292289425249
 22
207.83910909377229
 32
0.0
 13
-1042.5292289425249
 23
207.83910909377229
 33
0.0
210
0.0
220
0.0
230
-1.0
  0
SOLID
  5
542
  8
0
  6
CONTINUOUS
 62
     7
 10
948.28028354823175
 20
207.83910909377229
 30
0.0
 11
948.68944180507856
 21
206.38138965097281
 31
0.0
 12
1084.2728521219601
 22
206.38138965097281
 32
0.0
 13
1084.2728521219601
 23
206.38138965097281
 33
0.0
210
0.0
220
0.0
230
1.0
  0
SOLID
  5
543
  8
0
  6
CONTINUOUS
 62
     7
 10
-948.28028354823175
 20
207.83910909377229
 30
0.0
 11
-1042.5292289425249
 21
207.83910909377229
 31
0.0
 12
-1084.2728521219601
 22
206.38138965097281
 32
0.0
 13
-1084.2728521219601
 23
206.38138965097281
 33
0.0
210
0.0
220
0.0
230
-1.0
  0
SOLID
  5
544
  8
0
  6
CONTINUOUS
 62
     7
 10
948.68944180507856
 20
206.38138965097281
 30
0.0
 11
949.24346588652668
 21
204.97234253670129
 31
0.0
 12
1124.6226821738001
 22
204.97234253670129
 32
0.0
 13
1124.6226821738001
 23
204.97234253670129
 33
0.0
210
0.0
220
0.0
230
1.0
  0
SOLID
  5
545
  8
0
  6
CONTINUOUS
 62
     7
 10
-948.68944180507856
 20
206.38138965097281
 30
0.0
 11
-1084.2728521219601
 21
206.38138965097281
 31
0.0
 12
-1124.6226821738001
 22
204.97234253670129
 32
0.0
 13
-1124.6226821738001
 23
204.97234253670129
 33
0.0
210
0.0
220
0.0
230
-1.0
  0
SOLID
  5
546
  8
0
  6
CONTINUOUS
 62
     7
 10
949.24346588652668
 20
204.97234253670129
 30
0.0
 11
949.93671125622836
 21
203.62632347649131
 31
0.0
 12
1163.167624905605
 22
203.62632347649131
 32
0.0
 13
1163.167624905605
 23
203.62632347649131
 33
0.0
210
0.0
220
0.0
230
1.0
  0
SOLID
  5
547
  8
0
  6
CONTINUOUS
 62
     7
 10
-949.24346588652668
 20
204.97234253670129
 30
0.0
 11
-1124.6226821738001
 21
204.97234253670129
 31
0.0
 12
-1163.167624905605
 22
203.62632347649131
 32
0.0
 13
-1163.167624905605
 23
203.62632347649131
 33
0.0
210
0.0
220
0.0
230
-1.0
  0
SOLID
  5
548
  8
0
  6
CONTINUOUS
 62
     7
 10
949.93671125622836
 20
203.62632347649131
 30
0.0
 11
950.76211495642008
 21
202.35704605024779
 31
0.0
 12
1199.514974769801
 22
202.35704605024779
 32
0.0
 13
1199.514974769801
 23
202.35704605024779
 33
0.0
210
0.0
220
0.0
230
1.0
  0
SOLID
  5
549
  8
0
  6
CONTINUOUS
 62
     7
 10
-949.93671125622836
 20
203.62632347649131
 30
0.0
 11
-1163.167624905605
 21
203.62632347649131
 31
0.0
 12
-1199.514974769801
 22
202.35704605024779
 32
0.0
 13
-1199.514974769801
 23
202.35704605024779
 33
0.0
210
0.0
220
0.0
230
-1.0
  0
SOLID
  5
54A
  8
0
  6
CONTINUOUS
 62
     7
 10
950.76211495642008
 20
202.35704605024779
 30
0.0
 11
951.71126756710839
 21
201.17744197485419
 31
0.0
 12
1233.294415846331
 22
201.17744197485419
 32
0.0
 13
1233.294415846331
 23
201.17744197485419
 33
0.0
210
0.0
220
0.0
230
1.0
  0
SOLID
  5
54B
  8
0
  6
CONTINUOUS
 62
     7
 10
-950.76211495642008
 20
202.35704605024779
 30
0.0
 11
-1199.514974769801
 21
202.35704605024779
 31
0.0
 12
-1233.294415846331
 22
201.17744197485419
 32
0.0
 13
-1233.294415846331
 23
201.17744197485419
 33
0.0
210
0.0
220
0.0
230
-1.0
  0
SOLID
  5
54C
  8
0
  6
CONTINUOUS
 62
     7
 10
951.71126756710839
 20
201.17744197485419
 30
0.0
 11
952.02298793109071
 21
200.86141731510389
 31
0.0
 12
1242.3441780465871
 22
200.86141731510389
 32
0.0
 13
1242.3441780465871
 23
200.86141731510389
 33
0.0
210
0.0
220
0.0
230
1.0
  0
SOLID
  5
54D
  8
0
  6
CONTINUOUS
 62
     7
 10
-951.71126756710839
 20
201.17744197485419
 30
0.0
 11
-1233.294415846331
 21
201.17744197485419
 31
0.0
 12
-1242.3441780465871
 22
200.86141731510389
 32
0.0
 13
-1242.3441780465871
 23
200.86141731510389
 33
0.0
210
0.0
220
0.0
230
-1.0
  0
SOLID
  5
54E
  8
0
  6
CONTINUOUS
 62
     7
 10
952.02298793109071
 20
200.86141731510389
 30
0.0
 11
952.7744988833507
 21
200.09952935259631
 31
0.0
 12
1243.2521607630599
 22
200.09952935259631
 32
0.0
 13
1243.2521607630599
 23
200.09952935259631
 33
0.0
210
0.0
220
0.0
230
1.0
  0
SOLID
  5
54F
  8
0
  6
CONTINUOUS
 62
     7
 10
-952.02298793109071
 20
200.86141731510389
 30
0.0
 11
-1242.3441780465871
 21
200.86141731510389
 31
0.0
 12
-1243.2521607630599
 22
200.09952935259631
 32
0.0
 13
-1243.2521607630599
 23
200.09952935259631
 33
0.0
210
0.0
220
0.0
230
-1.0
  0
SOLID
  5
550
  8
0
  6
CONTINUOUS
 62
     7
 10
952.7744988833507
 20
200.09952935259631
 30
0.0
 11
953.94097643773
 21
199.13429022772041
 31
0.0
 12
1244.4024879578431
 22
199.13429022772041
 32
0.0
 13
1244.4024879578431
 23
199.13429022772041
 33
0.0
210
0.0
220
0.0
230
1.0
  0
SOLID
  5
551
  8
0
  6
CONTINUOUS
 62
     7
 10
-952.7744988833507
 20
200.09952935259631
 30
0.0
 11
-1243.2521607630599
 21
200.09952935259631
 31
0.0
 12
-1244.4024879578431
 22
199.13429022772041
 32
0.0
 13
-1244.4024879578431
 23
199.13429022772041
 33
0.0
210
0.0
220
0.0
230
-1.0
  0
SOLID
  5
552
  8
0
  6
CONTINUOUS
 62
     7
 10
953.94097643773
 20
199.13429022772041
 30
0.0
 11
955.19881586424992
 21
198.29155869861199
 31
0.0
 12
1245.4068162852509
 22
198.29155869861199
 32
0.0
 13
1245.4068162852509
 23
198.29155869861199
 33
0.0
210
0.0
220
0.0
230
1.0
  0
SOLID
  5
553
  8
0
  6
CONTINUOUS
 62
     7
 10
-953.94097643773
 20
199.13429022772041
 30
0.0
 11
-1244.4024879578431
 21
199.13429022772041
 31
0.0
 12
-1245.4068162852509
 22
198.29155869861199
 32
0.0
 13
-1245.4068162852509
 23
198.29155869861199
 33
0.0
210
0.0
220
0.0
230
-1.0
  0
SOLID
  5
554
  8
0
  6
CONTINUOUS
 62
     7
 10
955.19881586424992
 20
198.29155869861199
 30
0.0
 11
956.53520197923808
 21
197.5799207255329
 31
0.0
 12
1246.2549133962939
 22
197.5799207255329
 32
0.0
 13
1246.2549133962939
 23
197.5799207255329
 33
0.0
  0
SOLID
  5
555
  8
0
  6
CONTINUOUS
 62
     7
 10
-955.19881586424992
 20
198.29155869861199
 30
0.0
 11
-1245.4068162852509
 21
198.29155869861199
 31
0.0
 12
-1246.2549133962939
 22
197.5799207255329
 32
0.0
 13
-1246.2549133962939
 23
197.5799207255329
 33
0.0
210
0.0
220
0.0
230
-1.0
  0
SOLID
  5
556
  8
0
  6
CONTINUOUS
 62
     7
 10
956.53520197923808
 20
197.5799207255329
 30
0.0
 11
957.93651934565241
 21
197.00662665470449
 31
0.0
 12
1246.938138664817
 22
197.00662665470449
 32
0.0
 13
1246.938138664817
 23
197.00662665470449
 33
0.0
210
0.0
220
0.0
230
1.0
  0
SOLID
  5
557
  8
0
  6
CONTINUOUS
 62
     7
 10
-956.53520197923808
 20
197.5799207255329
 30
0.0
 11
-1246.2549133962939
 21
197.5799207255329
 31
0.0
 12
-1246.938138664817
 22
197.00662665470449
 32
0.0
 13
-1246.938138664817
 23
197.00662665470449
 33
0.0
210
0.0
220
0.0
230
-1.0
  0
SOLID
  5
558
  8
0
  6
CONTINUOUS
 62
     7
 10
957.93651934565241
 20
197.00662665470449
 30
0.0
 11
959.38849099056995
 21
196.57751734996151
 31
0.0
 12
1247.4495312203601
 22
196.57751734996151
 32
0.0
 13
1247.4495312203601
 23
196.57751734996151
 33
0.0
210
0.0
220
0.0
230
1.0
  0
SOLID
  5
559
  8
0
  6
CONTINUOUS
 62
     7
 10
-957.93651934565241
 20
197.00662665470449
 30
0.0
 11
-1246.938138664817
 21
197.00662665470449
 31
0.0
 12
-1247.4495312203601
 22
196.57751734996151
 32
0.0
 13
-1247.4495312203601
 23
196.57751734996151
 33
0.0
210
0.0
220
0.0
230
-1.0
  0
SOLID
  5
55A
  8
0
  6
CONTINUOUS
 62
     7
 10
959.38849099056995
 20
196.57751734996151
 30
0.0
 11
960.87632386256871
 21
196.2969646845651
 31
0.0
 12
1247.7838808672579
 22
196.2969646845651
 32
0.0
 13
1247.7838808672579
 23
196.2969646845651
 33
0.0
210
0.0
220
0.0
230
1.0
  0
SOLID
  5
55B
  8
0
  6
CONTINUOUS
 62
     7
 10
-959.38849099056995
 20
196.57751734996151
 30
0.0
 11
-1247.4495312203601
 21
196.57751734996151
 31
0.0
 12
-1247.7838808672579
 22
196.2969646845651
 32
0.0
 13
-1247.7838808672579
 23
196.2969646845651
 33
0.0
210
0.0
220
0.0
230
-1.0
  0
SOLID
  5
55C
  8
0
  6
CONTINUOUS
 62
     7
 10
960.87632386256871
 20
196.2969646845651
 30
0.0
 11
962.38485954704799
 21
196.16782699946171
 31
0.0
 12
1247.937781167419
 22
196.16782699946171
 32
0.0
 13
1247.937781167419
 23
196.16782699946171
 33
0.0
210
0.0
220
0.0
230
1.0
  0
SOLID
  5
55D
  8
0
  6
CONTINUOUS
 62
     7
 10
-960.87632386256871
 20
196.2969646845651
 30
0.0
 11
-1247.7838808672579
 21
196.2969646845651
 31
0.0
 12
-1247.937781167419
 22
196.16782699946171
 32
0.0
 13
-1247.937781167419
 23
196.16782699946171
 33
0.0
210
0.0
220
0.0
230
-1.0
  0
SOLID
  5
55E
  8
0
  6
CONTINUOUS
 62
     7
 10
962.38485954704799
 20
196.16782699946171
 30
0.0
 11
985.15883386279995
 21
195.37254229197029
 31
0.0
 12
1248.8855645747069
 22
195.37254229197029
 32
0.0
 13
1248.8855645747069
 23
195.37254229197029
 33
0.0
210
0.0
220
0.0
230
1.0
  0
SOLID
  5
55F
  8
0
  6
CONTINUOUS
 62
     7
 10
-962.38485954704799
 20
196.16782699946171
 30
0.0
 11
-1247.937781167419
 21
196.16782699946171
 31
0.0
 12
-1248.8855645747069
 22
195.37254229197029
 32
0.0
 13
-1248.8855645747069
 23
195.37254229197029
 33
0.0
210
0.0
220
0.0
230
-1.0
  0
SOLID
  5
560
  8
0
  6
CONTINUOUS
 62
     7
 10
985.15883386279995
 20
195.37254229197029
 30
0.0
 11
1224.06006205822
 21
187.0299275708625
 31
0.0
 12
1248.8855645747069
 22
187.0299275708625
 32
0.0
 13
1248.8855645747069
 23
187.0299275708625
 33
0.0
210
0.0
220
0.0
230
1.0
  0
SOLID
  5
561
  8
0
  6
CONTINUOUS
 62
     7
 10
-985.15883386279995
 20
195.37254229197029
 30
0.0
 11
-1248.8855645747069
 21
195.37254229197029
 31
0.0
 12
-1248.8855645747069
 22
187.0299275708625
 32
0.0
 13
-1248.8855645747069
 23
187.0299275708625
 33
0.0
210
0.0
220
0.0
230
-1.0
  0
SOLID
  5
562
  8
0
  6
CONTINUOUS
 62
     7
 10
1224.06006205822
 20
187.0299275708625
 30
0.0
 11
1224.5699059135211
 21
186.98591972378489
 31
0.0
 12
1248.8855645747069
 22
186.98591972378489
 32
0.0
 13
1248.8855645747069
 23
186.98591972378489
 33
0.0
210
0.0
220
0.0
230
1.0
  0
SOLID
  5
563
  8
0
  6
CONTINUOUS
 62
     7
 10
-1224.06006205822
 20
187.0299275708625
 30
0.0
 11
-1248.8855645747069
 21
187.0299275708625
 31
0.0
 12
-1248.8855645747069
 22
186.98591972378489
 32
0.0
 13
-1248.8855645747069
 23
186.98591972378489
 33
0.0
210
0.0
220
0.0
230
-1.0
  0
SOLID
  5
564
  8
0
  6
CONTINUOUS
 62
     7
 10
1224.5699059135211
 20
186.98591972378489
 30
0.0
 11
1225.0725812263049
 21
186.89002927946811
 31
0.0
 12
1248.8855645747069
 22
186.89002927946811
 32
0.0
 13
1248.8855645747069
 23
186.89002927946811
 33
0.0
210
0.0
220
0.0
230
1.0
  0
SOLID
  5
565
  8
0
  6
CONTINUOUS
 62
     7
 10
-1224.5699059135211
 20
186.98591972378489
 30
0.0
 11
-1248.8855645747069
 21
186.98591972378489
 31
0.0
 12
-1248.8855645747069
 22
186.89002927946811
 32
0.0
 13
-1248.8855645747069
 23
186.89002927946811
 33
0.0
210
0.0
220
0.0
230
-1.0
  0
SOLID
  5
566
  8
0
  6
CONTINUOUS
 62
     7
 10
1225.0725812263049
 20
186.89002927946811
 30
0.0
 11
1225.562822423459
 21
186.74326069970351
 31
0.0
 12
1248.8855645747069
 22
186.74326069970351
 32
0.0
 13
1248.8855645747069
 23
186.74326069970351
 33
0.0
210
0.0
220
0.0
230
1.0
  0
SOLID
  5
567
  8
0
  6
CONTINUOUS
 62
     7
 10
-1225.0725812263049
 20
186.89002927946811
 30
0.0
 11
-1248.8855645747069
 21
186.89002927946811
 31
0.0
 12
-1248.8855645747069
 22
186.74326069970351
 32
0.0
 13
-1248.8855645747069
 23
186.74326069970351
 33
0.0
210
0.0
220
0.0
230
-1.0
  0
SOLID
  5
568
  8
0
  6
CONTINUOUS
 62
     7
 10
1225.562822423459
 20
186.74326069970351
 30
0.0
 11
1226.035494180451
 21
186.5471513997322
 31
0.0
 12
1248.8855645747069
 22
186.5471513997322
 32
0.0
 13
1248.8855645747069
 23
186.5471513997322
 33
0.0
210
0.0
220
0.0
230
1.0
  0
SOLID
  5
569
  8
0
  6
CONTINUOUS
 62
     7
 10
-1225.562822423459
 20
186.74326069970351
 30
0.0
 11
-1248.8855645747069
 21
186.74326069970351
 31
0.0
 12
-1248.8855645747069
 22
186.5471513997322
 32
0.0
 13
-1248.8855645747069
 23
186.5471513997322
 33
0.0
210
0.0
220
0.0
230
-1.0
  0
SOLID
  5
56A
  8
0
  6
CONTINUOUS
 62
     7
 10
1226.035494180451
 20
186.5471513997322
 30
0.0
 11
1226.485645214354
 21
186.3037556436696
 31
0.0
 12
1248.8855645747069
 22
186.3037556436696
 32
0.0
 13
1248.8855645747069
 23
186.3037556436696
 33
0.0
210
0.0
220
0.0
230
1.0
  0
SOLID
  5
56B
  8
0
  6
CONTINUOUS
 62
     7
 10
-1226.035494180451
 20
186.5471513997322
 30
0.0
 11
-1248.8855645747069
 21
186.5471513997322
 31
0.0
 12
-1248.8855645747069
 22
186.3037556436696
 32
0.0
 13
-1248.8855645747069
 23
186.3037556436696
 33
0.0
210
0.0
220
0.0
230
-1.0
  0
SOLID
  5
56C
  8
0
  6
CONTINUOUS
 62
     7
 10
1226.485645214354
 20
186.3037556436696
 30
0.0
 11
1226.908560149019
 21
186.015623025888
 31
0.0
 12
1248.8855645747069
 22
186.015623025888
 32
0.0
 13
1248.8855645747069
 23
186.015623025888
 33
0.0
210
0.0
220
0.0
230
1.0
  0
SOLID
  5
56D
  8
0
  6
CONTINUOUS
 62
     7
 10
-1226.485645214354
 20
186.3037556436696
 30
0.0
 11
-1248.8855645747069
 21
186.3037556436696
 31
0.0
 12
-1248.8855645747069
 22
186.015623025888
 32
0.0
 13
-1248.8855645747069
 23
186.015623025888
 33
0.0
210
0.0
220
0.0
230
-1.0
  0
SOLID
  5
56E
  8
0
  6
CONTINUOUS
 62
     7
 10
1226.908560149019
 20
186.015623025888
 30
0.0
 11
1227.2998089091061
 21
185.6857717637655
 31
0.0
 12
1248.8855645747069
 22
185.6857717637655
 32
0.0
 13
1248.8855645747069
 23
185.6857717637655
 33
0.0
210
0.0
220
0.0
230
1.0
  0
SOLID
  5
56F
  8
0
  6
CONTINUOUS
 62
     7
 10
-1226.908560149019
 20
186.015623025888
 30
0.0
 11
-1248.8855645747069
 21
186.015623025888
 31
0.0
 12
-1248.8855645747069
 22
185.6857717637655
 32
0.0
 13
-1248.8855645747069
 23
185.6857717637655
 33
0.0
210
0.0
220
0.0
230
-1.0
  0
SOLID
  5
570
  8
0
  6
CONTINUOUS
 62
     7
 10
1227.2998089091061
 20
185.6857717637655
 30
0.0
 11
1227.6552931255501
 21
185.31765708156379
 31
0.0
 12
1248.8855645747069
 22
185.31765708156379
 32
0.0
 13
1248.8855645747069
 23
185.31765708156379
 33
0.0
210
0.0
220
0.0
230
1.0
  0
SOLID
  5
571
  8
0
  6
CONTINUOUS
 62
     7
 10
-1227.2998089091061
 20
185.6857717637655
 30
0.0
 11
-1248.8855645747069
 21
185.6857717637655
 31
0.0
 12
-1248.8855645747069
 22
185.31765708156379
 32
0.0
 13
-1248.8855645747069
 23
185.31765708156379
 33
0.0
210
0.0
220
0.0
230
-1.0
  0
SOLID
  5
572
  8
0
  6
CONTINUOUS
 62
     7
 10
1227.6552931255501
 20
185.31765708156379
 30
0.0
 11
1227.971289066383
 21
184.91513501661601
 31
0.0
 12
1248.8855645747069
 22
184.91513501661601
 32
0.0
 13
1248.8855645747069
 23
184.91513501661601
 33
0.0
210
0.0
220
0.0
230
1.0
  0
SOLID
  5
573
  8
0
  6
CONTINUOUS
 62
     7
 10
-1227.6552931255501
 20
185.31765708156379
 30
0.0
 11
-1248.8855645747069
 21
185.31765708156379
 31
0.0
 12
-1248.8855645747069
 22
184.91513501661601
 32
0.0
 13
-1248.8855645747069
 23
184.91513501661601
 33
0.0
210
0.0
220
0.0
230
-1.0
  0
SOLID
  5
574
  8
0
  6
CONTINUOUS
 62
     7
 10
1227.971289066383
 20
184.91513501661601
 30
0.0
 11
1228.2444866431911
 21
184.48242202695741
 31
0.0
 12
1248.8855645747069
 22
184.48242202695741
 32
0.0
 13
1248.8855645747069
 23
184.48242202695741
 33
0.0
210
0.0
220
0.0
230
1.0
  0
SOLID
  5
575
  8
0
  6
CONTINUOUS
 62
     7
 10
-1227.971289066383
 20
184.91513501661601
 30
0.0
 11
-1248.8855645747069
 21
184.91513501661601
 31
0.0
 12
-1248.8855645747069
 22
184.48242202695741
 32
0.0
 13
-1248.8855645747069
 23
184.48242202695741
 33
0.0
210
0.0
220
0.0
230
-1.0
  0
SOLID
  5
576
  8
0
  6
CONTINUOUS
 62
     7
 10
1228.2444866431911
 20
184.48242202695741
 30
0.0
 11
1228.472024084612
 21
184.02405082351561
 31
0.0
 12
1248.8855645747069
 22
184.02405082351561
 32
0.0
 13
1248.8855645747069
 23
184.02405082351561
 33
0.0
  0
SOLID
  5
577
  8
0
  6
CONTINUOUS
 62
     7
 10
-1228.2444866431911
 20
184.48242202695741
 30
0.0
 11
-1248.8855645747069
 21
184.48242202695741
 31
0.0
 12
-1248.8855645747069
 22
184.02405082351561
 32
0.0
 13
-1248.8855645747069
 23
184.02405082351561
 33
0.0
210
0.0
220
0.0
230
-1.0
  0
SOLID
  5
578
  8
0
  6
CONTINUOUS
 62
     7
 10
1228.472024084612
 20
184.02405082351561
 30
0.0
 11
1228.651517913672
 21
183.5448228895192
 31
0.0
 12
1248.8855645747069
 22
183.5448228895192
 32
0.0
 13
1248.8855645747069
 23
183.5448228895192
 33
0.0
  0
SOLID
  5
579
  8
0
  6
CONTINUOUS
 62
     7
 10
-1228.472024084612
 20
184.02405082351561
 30
0.0
 11
-1248.8855645747069
 21
184.02405082351561
 31
0.0
 12
-1248.8855645747069
 22
183.5448228895192
 32
0.0
 13
-1248.8855645747069
 23
183.5448228895192
 33
0.0
210
0.0
220
0.0
230
-1.0
  0
SOLID
  5
57A
  8
0
  6
CONTINUOUS
 62
     7
 10
1228.651517913672
 20
183.5448228895192
 30
0.0
 11
1228.7810879149399
 21
183.04975818449111
 31
0.0
 12
1248.8855645747069
 22
183.04975818449111
 32
0.0
 13
1248.8855645747069
 23
183.04975818449111
 33
0.0
210
0.0
220
0.0
230
1.0
  0
SOLID
  5
57B
  8
0
  6
CONTINUOUS
 62
     7
 10
-1228.651517913672
 20
183.5448228895192
 30
0.0
 11
-1248.8855645747069
 21
183.5448228895192
 31
0.0
 12
-1248.8855645747069
 22
183.04975818449111
 32
0.0
 13
-1248.8855645747069
 23
183.04975818449111
 33
0.0
210
0.0
220
0.0
230
-1.0
  0
SOLID
  5
57C
  8
0
  6
CONTINUOUS
 62
     7
 10
1228.7810879149399
 20
183.04975818449111
 30
0.0
 11
1228.8593768299679
 21
182.54404255968129
 31
0.0
 12
1248.8855645747069
 22
182.54404255968129
 32
0.0
 13
1248.8855645747069
 23
182.54404255968129
 33
0.0
210
0.0
220
0.0
230
1.0
  0
SOLID
  5
57D
  8
0
  6
CONTINUOUS
 62
     7
 10
-1228.7810879149399
 20
183.04975818449111
 30
0.0
 11
-1248.8855645747069
 21
183.04975818449111
 31
0.0
 12
-1248.8855645747069
 22
182.54404255968129
 32
0.0
 13
-1248.8855645747069
 23
182.54404255968129
 33
0.0
210
0.0
220
0.0
230
-1.0
  0
SOLID
  5
57E
  8
0
  6
CONTINUOUS
 62
     7
 10
1228.8593768299679
 20
182.54404255968129
 30
0.0
 11
1228.885564574708
 21
182.03297343576699
 31
0.0
 12
1248.8855645747069
 22
182.03297343576699
 32
0.0
 13
1248.8855645747069
 23
182.03297343576699
 33
0.0
210
0.0
220
0.0
230
1.0
  0
SOLID
  5
57F
  8
0
  6
CONTINUOUS
 62
     7
 10
-1228.8593768299679
 20
182.54404255968129
 30
0.0
 11
-1248.8855645747069
 21
182.54404255968129
 31
0.0
 12
-1248.8855645747069
 22
182.03297343576699
 32
0.0
 13
-1248.8855645747069
 23
182.03297343576699
 33
0.0
210
0.0
220
0.0
230
-1.0
  0
SOLID
  5
580
  8
0
  6
CONTINUOUS
 62
     7
 10
1228.885564574708
 20
182.03297343576699
 30
0.0
 11
1228.885564574708
 21
178.86141730980239
 31
0.0
 12
1248.8855645747069
 22
178.86141730980239
 32
0.0
 13
1248.8855645747069
 23
178.86141730980239
 33
0.0
  0
SOLID
  5
581
  8
0
  6
CONTINUOUS
 62
     7
 10
-1228.885564574708
 20
182.03297343576699
 30
0.0
 11
-1248.8855645747069
 21
182.03297343576699
 31
0.0
 12
-1248.8855645747069
 22
178.86141730980239
 32
0.0
 13
-1248.8855645747069
 23
178.86141730980239
 33
0.0
210
0.0
220
0.0
230
-1.0
  0
LINE
  5
582
  8
0
  6
CONTINUOUS
 62
     7
 10
876.52469636673561
 20
640.72754229587918
 30
0.0
 11
876.52469636673561
 21
628.72754229587918
 31
0.0
  0
LINE
  5
583
  8
0
  6
CONTINUOUS
 62
     7
 10
906.52469636673572
 20
640.72754229587918
 30
0.0
 11
908.00420892187935
 21
628.72754229587918
 31
0.0
  0
LINE
  5
584
  8
0
  6
CONTINUOUS
 62
     7
 10
896.52469636673572
 20
628.72754229587918
 30
0.0
 11
946.28705306665722
 21
223.44567025927631
 31
0.0
  0
LINE
  5
585
  8
0
  6
CONTINUOUS
 62
     7
 10
908.00420892187935
 20
628.72754229587918
 30
0.0
 11
957.97251042607286
 21
223.44567025927631
 31
0.0
  0
LINE
  5
586
  8
0
  6
CONTINUOUS
 62
     7
 10
946.28705306665722
 20
223.44567025927631
 30
0.0
 11
946.47011094631489
 21
221.95478347097409
 31
0.0
  0
LINE
  5
587
  8
0
  6
CONTINUOUS
 62
     7
 10
957.97251042607286
 20
223.44567025927631
 30
0.0
 11
958.23326190003797
 21
221.95478347097409
 31
0.0
  0
LINE
  5
588
  8
0
  6
CONTINUOUS
 62
     7
 10
946.47011094631489
 20
221.95478347097409
 30
0.0
 11
946.64901060252419
 21
220.49776269495999
 31
0.0
  0
LINE
  5
589
  8
0
  6
CONTINUOUS
 62
     7
 10
958.23326190003797
 20
221.95478347097409
 30
0.0
 11
958.64292664708398
 21
220.49776269495999
 31
0.0
  0
LINE
  5
58A
  8
0
  6
CONTINUOUS
 62
     7
 10
946.64901060252419
 20
220.49776269495999
 30
0.0
 11
946.82193065013553
 21
219.0894419228708
 31
0.0
  0
LINE
  5
58B
  8
0
  6
CONTINUOUS
 62
     7
 10
958.64292664708398
 20
220.49776269495999
 30
0.0
 11
959.19733385267466
 21
219.0894419228708
 31
0.0
  0
LINE
  5
58C
  8
0
  6
CONTINUOUS
 62
     7
 10
946.82193065013553
 20
219.0894419228708
 30
0.0
 11
946.98711058265383
 21
217.7441593294937
 31
0.0
  0
LINE
  5
58D
  8
0
  6
CONTINUOUS
 62
     7
 10
959.19733385267466
 20
219.0894419228708
 30
0.0
 11
959.89083907303404
 21
217.7441593294937
 31
0.0
  0
LINE
  5
58E
  8
0
  6
CONTINUOUS
 62
     7
 10
946.98711058265383
 20
217.7441593294937
 30
0.0
 11
947.14286869603006
 21
216.47561129518789
 31
0.0
  0
LINE
  5
58F
  8
0
  6
CONTINUOUS
 62
     7
 10
959.89083907303404
 20
217.7441593294937
 30
0.0
 11
960.71638170147173
 21
216.47561129518789
 31
0.0
  0
LINE
  5
590
  8
0
  6
CONTINUOUS
 62
     7
 10
947.14286869603006
 20
216.47561129518789
 30
0.0
 11
947.28761921016542
 21
215.29671296244251
 31
0.0
  0
LINE
  5
591
  8
0
  6
CONTINUOUS
 62
     7
 10
960.71638170147173
 20
216.47561129518789
 30
0.0
 11
961.66555685272624
 21
215.29671296244251
 31
0.0
  0
LINE
  5
592
  8
0
  6
CONTINUOUS
 62
     7
 10
947.28761921016542
 20
215.29671296244251
 30
0.0
 11
947.41988841380487
 21
214.21946674625141
 31
0.0
  0
LINE
  5
593
  8
0
  6
CONTINUOUS
 62
     7
 10
961.66555685272624
 20
215.29671296244251
 30
0.0
 11
962.72870093346557
 21
214.21946674625141
 31
0.0
  0
LINE
  5
594
  8
0
  6
CONTINUOUS
 62
     7
 10
947.41988841380487
 20
214.21946674625141
 30
0.0
 11
947.53832966845619
 21
213.25484013700679
 31
0.0
  0
LINE
  5
595
  8
0
  6
CONTINUOUS
 62
     7
 10
962.72870093346557
 20
214.21946674625141
 30
0.0
 11
963.89499002774949
 21
213.25484013700679
 31
0.0
  0
LINE
  5
596
  8
0
  6
CONTINUOUS
 62
     7
 10
947.53832966845619
 20
213.25484013700679
 30
0.0
 11
947.64173711857529
 21
212.41265404000359
 31
0.0
  0
LINE
  5
597
  8
0
  6
CONTINUOUS
 62
     7
 10
963.89499002774949
 20
213.25484013700679
 30
0.0
 11
965.15255009578755
 21
212.41265404000359
 31
0.0
  0
LINE
  5
598
  8
0
  6
CONTINUOUS
 62
     7
 10
947.64173711857529
 20
212.41265404000359
 30
0.0
 11
947.72905796843281
 21
211.7014827883778
 31
0.0
  0
LINE
  5
599
  8
0
  6
CONTINUOUS
 62
     7
 10
965.15255009578755
 20
212.41265404000359
 30
0.0
 11
966.48857786405063
 21
211.7014827883778
 31
0.0
  0
LINE
  5
59A
  8
0
  6
CONTINUOUS
 62
     7
 10
947.72905796843281
 20
211.7014827883778
 30
0.0
 11
947.79940320067408
 21
211.12856684744929
 31
0.0
  0
LINE
  5
59B
  8
0
  6
CONTINUOUS
 62
     7
 10
966.48857786405063
 20
211.7014827883778
 30
0.0
 11
967.88947117595524
 21
211.12856684744929
 31
0.0
  0
LINE
  5
59C
  8
0
  6
CONTINUOUS
 62
     7
 10
947.79940320067408
 20
211.12856684744929
 30
0.0
 11
947.85205662744215
 21
210.6997390992307
 31
0.0
  0
LINE
  5
59D
  8
0
  6
CONTINUOUS
 62
     7
 10
967.88947117595524
 20
211.12856684744929
 30
0.0
 11
969.3409674760079
 21
210.6997390992307
 31
0.0
  0
LINE
  5
59E
  8
0
  6
CONTINUOUS
 62
     7
 10
947.85205662744215
 20
210.6997390992307
 30
0.0
 11
947.88648218191815
 21
210.41936545760279
 31
0.0
  0
LINE
  5
59F
  8
0
  6
CONTINUOUS
 62
     7
 10
969.3409674760079
 20
210.6997390992307
 30
0.0
 11
970.82828901750088
 21
210.41936545760279
 31
0.0
  0
LINE
  5
5A0
  8
0
  6
CONTINUOUS
 62
     7
 10
947.88648218191815
 20
210.41936545760279
 30
0.0
 11
947.90232937604071
 21
210.29030041875649
 31
0.0
  0
LINE
  5
5A1
  8
0
  6
CONTINUOUS
 62
     7
 10
970.82828901750088
 20
210.41936545760279
 30
0.0
 11
972.33629331539157
 21
210.29030041875649
 31
0.0
  0
LINE
  5
5A2
  8
0
  6
CONTINUOUS
 62
     7
 10
947.90232937604071
 20
210.29030041875649
 30
0.0
 11
948.02015972296579
 21
209.3306492536708
 31
0.0
  0
LINE
  5
5A3
  8
0
  6
CONTINUOUS
 62
     7
 10
972.33629331539157
 20
210.29030041875649
 30
0.0
 11
999.81710714202848
 21
209.3306492536708
 31
0.0
  0
LINE
  5
5A4
  8
0
  6
CONTINUOUS
 62
     7
 10
948.02015972296579
 20
209.3306492536708
 30
0.0
 11
948.28028354823175
 21
207.83910909377229
 31
0.0
  0
LINE
  5
5A5
  8
0
  6
CONTINUOUS
 62
     7
 10
999.81710714202848
 20
209.3306492536708
 30
0.0
 11
1042.5292289425249
 21
207.83910909377229
 31
0.0
  0
LINE
  5
5A6
  8
0
  6
CONTINUOUS
 62
     7
 10
948.28028354823175
 20
207.83910909377229
 30
0.0
 11
948.68944180507856
 21
206.38138965097281
 31
0.0
  0
LINE
  5
5A7
  8
0
  6
CONTINUOUS
 62
     7
 10
1042.5292289425249
 20
207.83910909377229
 30
0.0
 11
1084.2728521219601
 21
206.38138965097281
 31
0.0
  0
LINE
  5
5A8
  8
0
  6
CONTINUOUS
 62
     7
 10
948.68944180507856
 20
206.38138965097281
 30
0.0
 11
949.24346588652668
 21
204.97234253670129
 31
0.0
  0
LINE
  5
5A9
  8
0
  6
CONTINUOUS
 62
     7
 10
1084.2728521219601
 20
206.38138965097281
 30
0.0
 11
1124.6226821738001
 21
204.97234253670129
 31
0.0
  0
LINE
  5
5AA
  8
0
  6
CONTINUOUS
 62
     7
 10
949.24346588652668
 20
204.97234253670129
 30
0.0
 11
949.93671125622836
 21
203.62632347649131
 31
0.0
  0
LINE
  5
5AB
  8
0
  6
CONTINUOUS
 62
     7
 10
1124.6226821738001
 20
204.97234253670129
 30
0.0
 11
1163.167624905605
 21
203.62632347649131
 31
0.0
  0
LINE
  5
5AC
  8
0
  6
CONTINUOUS
 62
     7
 10
949.93671125622836
 20
203.62632347649131
 30
0.0
 11
950.76211495642008
 21
202.35704605024779
 31
0.0
  0
LINE
  5
5AD
  8
0
  6
CONTINUOUS
 62
     7
 10
1163.167624905605
 20
203.62632347649131
 30
0.0
 11
1199.514974769801
 21
202.35704605024779
 31
0.0
  0
LINE
  5
5AE
  8
0
  6
CONTINUOUS
 62
     7
 10
950.76211495642008
 20
202.35704605024779
 30
0.0
 11
951.71126756710839
 21
201.17744197485419
 31
0.0
  0
LINE
  5
5AF
  8
0
  6
CONTINUOUS
 62
     7
 10
1199.514974769801
 20
202.35704605024779
 30
0.0
 11
1233.294415846331
 21
201.17744197485419
 31
0.0
  0
LINE
  5
5B0
  8
0
  6
CONTINUOUS
 62
     7
 10
951.71126756710839
 20
201.17744197485419
 30
0.0
 11
952.02298793109071
 21
200.86141731510389
 31
0.0
  0
LINE
  5
5B1
  8
0
  6
CONTINUOUS
 62
     7
 10
1233.294415846331
 20
201.17744197485419
 30
0.0
 11
1242.3441780465871
 21
200.86141731510389
 31
0.0
  0
LINE
  5
5B2
  8
0
  6
CONTINUOUS
 62
     7
 10
952.02298793109071
 20
200.86141731510389
 30
0.0
 11
952.7744988833507
 21
200.09952935259631
 31
0.0
  0
LINE
  5
5B3
  8
0
  6
CONTINUOUS
 62
     7
 10
1242.3441780465871
 20
200.86141731510389
 30
0.0
 11
1243.2521607630599
 21
200.09952935259631
 31
0.0
  0
LINE
  5
5B4
  8
0
  6
CONTINUOUS
 62
     7
 10
952.7744988833507
 20
200.09952935259631
 30
0.0
 11
953.94097643773
 21
199.13429022772041
 31
0.0
  0
LINE
  5
5B5
  8
0
  6
CONTINUOUS
 62
     7
 10
1243.2521607630599
 20
200.09952935259631
 30
0.0
 11
1244.4024879578431
 21
199.13429022772041
 31
0.0
  0
LINE
  5
5B6
  8
0
  6
CONTINUOUS
 62
     7
 10
953.94097643773
 20
199.13429022772041
 30
0.0
 11
955.19881586424992
 21
198.29155869861199
 31
0.0
  0
LINE
  5
5B7
  8
0
  6
CONTINUOUS
 62
     7
 10
1244.4024879578431
 20
199.13429022772041
 30
0.0
 11
1245.4068162852509
 21
198.29155869861199
 31
0.0
  0
LINE
  5
5B8
  8
0
  6
CONTINUOUS
 62
     7
 10
955.19881586424992
 20
198.29155869861199
 30
0.0
 11
956.53520197923808
 21
197.5799207255329
 31
0.0
  0
LINE
  5
5B9
  8
0
  6
CONTINUOUS
 62
     7
 10
1245.4068162852509
 20
198.29155869861199
 30
0.0
 11
1246.2549133962939
 21
197.5799207255329
 31
0.0
  0
LINE
  5
5BA
  8
0
  6
CONTINUOUS
 62
     7
 10
956.53520197923808
 20
197.5799207255329
 30
0.0
 11
957.93651934565241
 21
197.00662665470449
 31
0.0
  0
LINE
  5
5BB
  8
0
  6
CONTINUOUS
 62
     7
 10
1246.2549133962939
 20
197.5799207255329
 30
0.0
 11
1246.938138664817
 21
197.00662665470449
 31
0.0
  0
LINE
  5
5BC
  8
0
  6
CONTINUOUS
 62
     7
 10
957.93651934565241
 20
197.00662665470449
 30
0.0
 11
959.38849099056995
 21
196.57751734996151
 31
0.0
  0
LINE
  5
5BD
  8
0
  6
CONTINUOUS
 62
     7
 10
1246.938138664817
 20
197.00662665470449
 30
0.0
 11
1247.4495312203601
 21
196.57751734996151
 31
0.0
  0
LINE
  5
5BE
  8
0
  6
CONTINUOUS
 62
     7
 10
959.38849099056995
 20
196.57751734996151
 30
0.0
 11
960.87632386256871
 21
196.2969646845651
 31
0.0
  0
LINE
  5
5BF
  8
0
  6
CONTINUOUS
 62
     7
 10
1247.4495312203601
 20
196.57751734996151
 30
0.0
 11
1247.7838808672579
 21
196.2969646845651
 31
0.0
  0
LINE
  5
5C0
  8
0
  6
CONTINUOUS
 62
     7
 10
960.87632386256871
 20
196.2969646845651
 30
0.0
 11
962.38485954704799
 21
196.16782699946171
 31
0.0
  0
LINE
  5
5C1
  8
0
  6
CONTINUOUS
 62
     7
 10
1247.7838808672579
 20
196.2969646845651
 30
0.0
 11
1247.937781167419
 21
196.16782699946171
 31
0.0
  0
LINE
  5
5C2
  8
0
  6
CONTINUOUS
 62
     7
 10
962.38485954704799
 20
196.16782699946171
 30
0.0
 11
985.15883386279995
 21
195.37254229197029
 31
0.0
  0
LINE
  5
5C3
  8
0
  6
CONTINUOUS
 62
     7
 10
1247.937781167419
 20
196.16782699946171
 30
0.0
 11
1248.8855645747069
 21
195.37254229197029
 31
0.0
  0
LINE
  5
5C4
  8
0
  6
CONTINUOUS
 62
     7
 10
985.15883386279995
 20
195.37254229197029
 30
0.0
 11
1224.06006205822
 21
187.0299275708625
 31
0.0
  0
LINE
  5
5C5
  8
0
  6
CONTINUOUS
 62
     7
 10
1248.8855645747069
 20
195.37254229197029
 30
0.0
 11
1248.8855645747069
 21
187.0299275708625
 31
0.0
  0
LINE
  5
5C6
  8
0
  6
CONTINUOUS
 62
     7
 10
1224.06006205822
 20
187.0299275708625
 30
0.0
 11
1224.5699059135211
 21
186.98591972378489
 31
0.0
  0
LINE
  5
5C7
  8
0
  6
CONTINUOUS
 62
     7
 10
1248.8855645747069
 20
187.0299275708625
 30
0.0
 11
1248.8855645747069
 21
186.98591972378489
 31
0.0
  0
LINE
  5
5C8
  8
0
  6
CONTINUOUS
 62
     7
 10
1224.5699059135211
 20
186.98591972378489
 30
0.0
 11
1225.0725812263049
 21
186.89002927946811
 31
0.0
  0
LINE
  5
5C9
  8
0
  6
CONTINUOUS
 62
     7
 10
1248.8855645747069
 20
186.98591972378489
 30
0.0
 11
1248.8855645747069
 21
186.89002927946811
 31
0.0
  0
LINE
  5
5CA
  8
0
  6
CONTINUOUS
 62
     7
 10
1225.0725812263049
 20
186.89002927946811
 30
0.0
 11
1225.562822423459
 21
186.74326069970351
 31
0.0
  0
LINE
  5
5CB
  8
0
  6
CONTINUOUS
 62
     7
 10
1248.8855645747069
 20
186.89002927946811
 30
0.0
 11
1248.8855645747069
 21
186.74326069970351
 31
0.0
  0
LINE
  5
5CC
  8
0
  6
CONTINUOUS
 62
     7
 10
1225.562822423459
 20
186.74326069970351
 30
0.0
 11
1226.035494180451
 21
186.5471513997322
 31
0.0
  0
LINE
  5
5CD
  8
0
  6
CONTINUOUS
 62
     7
 10
1248.8855645747069
 20
186.74326069970351
 30
0.0
 11
1248.8855645747069
 21
186.5471513997322
 31
0.0
  0
LINE
  5
5CE
  8
0
  6
CONTINUOUS
 62
     7
 10
1226.035494180451
 20
186.5471513997322
 30
0.0
 11
1226.485645214354
 21
186.3037556436696
 31
0.0
  0
LINE
  5
5CF
  8
0
  6
CONTINUOUS
 62
     7
 10
1248.8855645747069
 20
186.5471513997322
 30
0.0
 11
1248.8855645747069
 21
186.3037556436696
 31
0.0
  0
LINE
  5
5D0
  8
0
  6
CONTINUOUS
 62
     7
 10
1226.485645214354
 20
186.3037556436696
 30
0.0
 11
1226.908560149019
 21
186.015623025888
 31
0.0
  0
LINE
  5
5D1
  8
0
  6
CONTINUOUS
 62
     7
 10
1248.8855645747069
 20
186.3037556436696
 30
0.0
 11
1248.8855645747069
 21
186.015623025888
 31
0.0
  0
LINE
  5
5D2
  8
0
  6
CONTINUOUS
 62
     7
 10
1226.908560149019
 20
186.015623025888
 30
0.0
 11
1227.2998089091061
 21
185.6857717637655
 31
0.0
  0
LINE
  5
5D3
  8
0
  6
CONTINUOUS
 62
     7
 10
1248.8855645747069
 20
186.015623025888
 30
0.0
 11
1248.8855645747069
 21
185.6857717637655
 31
0.0
  0
LINE
  5
5D4
  8
0
  6
CONTINUOUS
 62
     7
 10
1227.2998089091061
 20
185.6857717637655
 30
0.0
 11
1227.6552931255501
 21
185.31765708156379
 31
0.0
  0
LINE
  5
5D5
  8
0
  6
CONTINUOUS
 62
     7
 10
1248.8855645747069
 20
185.6857717637655
 30
0.0
 11
1248.8855645747069
 21
185.31765708156379
 31
0.0
  0
LINE
  5
5D6
  8
0
  6
CONTINUOUS
 62
     7
 10
1227.6552931255501
 20
185.31765708156379
 30
0.0
 11
1227.971289066383
 21
184.91513501661601
 31
0.0
  0
LINE
  5
5D7
  8
0
  6
CONTINUOUS
 62
     7
 10
1248.8855645747069
 20
185.31765708156379
 30
0.0
 11
1248.8855645747069
 21
184.91513501661601
 31
0.0
  0
LINE
  5
5D8
  8
0
  6
CONTINUOUS
 62
     7
 10
1227.971289066383
 20
184.91513501661601
 30
0.0
 11
1228.2444866431911
 21
184.48242202695741
 31
0.0
  0
LINE
  5
5D9
  8
0
  6
CONTINUOUS
 62
     7
 10
1248.8855645747069
 20
184.91513501661601
 30
0.0
 11
1248.8855645747069
 21
184.48242202695741
 31
0.0
  0
LINE
  5
5DA
  8
0
  6
CONTINUOUS
 62
     7
 10
1228.2444866431911
 20
184.48242202695741
 30
0.0
 11
1228.472024084612
 21
184.02405082351561
 31
0.0
  0
LINE
  5
5DB
  8
0
  6
CONTINUOUS
 62
     7
 10
1248.8855645747069
 20
184.48242202695741
 30
0.0
 11
1248.8855645747069
 21
184.02405082351561
 31
0.0
  0
LINE
  5
5DC
  8
0
  6
CONTINUOUS
 62
     7
 10
1228.472024084612
 20
184.02405082351561
 30
0.0
 11
1228.651517913672
 21
183.5448228895192
 31
0.0
  0
LINE
  5
5DD
  8
0
  6
CONTINUOUS
 62
     7
 10
1248.8855645747069
 20
184.02405082351561
 30
0.0
 11
1248.8855645747069
 21
183.5448228895192
 31
0.0
  0
LINE
  5
5DE
  8
0
  6
CONTINUOUS
 62
     7
 10
1228.651517913672
 20
183.5448228895192
 30
0.0
 11
1228.7810879149399
 21
183.04975818449111
 31
0.0
  0
LINE
  5
5DF
  8
0
  6
CONTINUOUS
 62
     7
 10
1248.8855645747069
 20
183.5448228895192
 30
0.0
 11
1248.8855645747069
 21
183.04975818449111
 31
0.0
  0
LINE
  5
5E0
  8
0
  6
CONTINUOUS
 62
     7
 10
1228.7810879149399
 20
183.04975818449111
 30
0.0
 11
1228.8593768299679
 21
182.54404255968129
 31
0.0
  0
LINE
  5
5E1
  8
0
  6
CONTINUOUS
 62
     7
 10
1248.8855645747069
 20
183.04975818449111
 30
0.0
 11
1248.8855645747069
 21
182.54404255968129
 31
0.0
  0
LINE
  5
5E2
  8
0
  6
CONTINUOUS
 62
     7
 10
1228.8593768299679
 20
182.54404255968129
 30
0.0
 11
1228.885564574708
 21
182.03297343576699
 31
0.0
  0
LINE
  5
5E3
  8
0
  6
CONTINUOUS
 62
     7
 10
1248.8855645747069
 20
182.54404255968129
 30
0.0
 11
1248.8855645747069
 21
182.03297343576699
 31
0.0
  0
LINE
  5
5E4
  8
0
  6
CONTINUOUS
 62
     7
 10
1228.885564574708
 20
182.03297343576699
 30
0.0
 11
1228.885564574708
 21
178.86141730980239
 31
0.0
  0
LINE
  5
5E5
  8
0
  6
CONTINUOUS
 62
     7
 10
1248.8855645747069
 20
182.03297343576699
 30
0.0
 11
1248.8855645747069
 21
178.86141730980239
 31
0.0
  0
ENDBLK
  5
5E7
  8
0
 62
     7
  0
BLOCK
  8
0
 62
     7
  2
*U27
 70
     1
 10
0.0
 20
0.0
 30
0.0
  3
*U27
  1

  0
SOLID
  5
62A
  8
0
  6
CONTINUOUS
 62
     7
 10
896.52469636673572
 20
749.60215085841014
 30
0.0
 11
876.52469636673561
 21
746.26881752507666
 31
0.0
 12
896.52469636673572
 22
746.26881752507666
 32
0.0
 13
896.52469636673572
 23
746.26881752507666
 33
0.0
210
0.0
220
0.0
230
1.0
  0
SOLID
  5
62B
  8
0
  6
CONTINUOUS
 62
     7
 10
-876.52469636673561
 20
746.26881752507666
 30
0.0
 11
-896.52469636673572
 21
746.26881752507666
 31
0.0
 12
-896.52469636673572
 22
742.9354841917434
 32
0.0
 13
-896.52469636673572
 23
742.9354841917434
 33
0.0
210
0.0
220
0.0
230
-1.0
  0
LINE
  5
62C
  8
0
  6
CONTINUOUS
 62
     7
 10
896.52469636673572
 20
749.60215085841014
 30
0.0
 11
876.52469636673561
 21
746.26881752507666
 31
0.0
  0
LINE
  5
62D
  8
0
  6
CONTINUOUS
 62
     7
 10
896.52469636673572
 20
746.26881752507666
 30
0.0
 11
896.52469636673572
 21
749.60215085841014
 31
0.0
  0
LINE
  5
62E
  8
0
  6
CONTINUOUS
 62
     7
 10
896.52469636673572
 20
746.26881752507666
 30
0.0
 11
896.52469636673572
 21
742.9354841917434
 31
0.0
  0
LINE
  5
62F
  8
0
  6
CONTINUOUS
 62
     7
 10
896.52469636673572
 20
742.9354841917434
 30
0.0
 11
876.52469636673561
 21
746.26881752507666
 31
0.0
  0
ENDBLK
  5
631
  8
0
 62
     7
  0
BLOCK
  8
0
 62
     7
  2
*U28
 70
     1
 10
0.0
 20
0.0
 30
0.0
  3
*U28
  1

  0
SOLID
  5
637
  8
0
  6
CONTINUOUS
 62
     7
 10
1413.7766556129779
 20
749.60215085841025
 30
0.0
 11
1413.7766556129779
 21
746.26881752507677
 31
0.0
 12
1433.7766556129779
 22
746.26881752507677
 32
0.0
 13
1433.7766556129779
 23
746.26881752507677
 33
0.0
210
0.0
220
0.0
230
1.0
  0
SOLID
  5
638
  8
0
  6
CONTINUOUS
 62
     7
 10
-1413.7766556129779
 20
746.26881752507677
 30
0.0
 11
-1433.7766556129779
 21
746.26881752507677
 31
0.0
 12
-1413.7766556129779
 22
742.93548419174351
 32
0.0
 13
-1413.7766556129779
 23
742.93548419174351
 33
0.0
210
0.0
220
0.0
230
-1.0
  0
LINE
  5
639
  8
0
  6
CONTINUOUS
 62
     7
 10
1413.7766556129779
 20
749.60215085841025
 30
0.0
 11
1413.7766556129779
 21
746.26881752507677
 31
0.0
  0
LINE
  5
63A
  8
0
  6
CONTINUOUS
 62
     7
 10
1433.7766556129779
 20
746.26881752507677
 30
0.0
 11
1413.7766556129779
 21
749.60215085841025
 31
0.0
  0
LINE
  5
63B
  8
0
  6
CONTINUOUS
 62
     7
 10
1433.7766556129779
 20
746.26881752507677
 30
0.0
 11
1413.7766556129779
 21
742.93548419174351
 31
0.0
  0
LINE
  5
63C
  8
0
  6
CONTINUOUS
 62
     7
 10
1413.7766556129779
 20
742.93548419174351
 30
0.0
 11
1413.7766556129779
 21
746.26881752507677
 31
0.0
  0
ENDBLK
  5
63E
  8
0
 62
     7
  0
BLOCK
  8
0
 62
     7
  2
*U29
 70
     1
 10
0.0
 20
0.0
 30
0.0
  3
*U29
  1

  0
TEXT
  5
644
  8
0
  6
CONTINUOUS
 62
     7
 10
1128.5118872371529
 20
748.51106698434148
 30
0.0
 40
24.0
  1
557
  0
ENDBLK
  5
646
  8
0
 62
     7
  0
BLOCK
  8
0
 62
     7
  2
*U30
 70
     1
 10
0.0
 20
0.0
 30
0.0
  3
*U30
  1

  0
SOLID
  5
652
  8
0
  6
CONTINUOUS
 62
     7
 10
1486.1004536046039
 20
220.76005672289381
 30
0.0
 11
1486.1011277450059
 21
220.75599663403119
 31
0.0
 12
1492.767119034947
 22
220.75599663403119
 32
0.0
 13
1492.767119034947
 23
220.75599663403119
 33
0.0
210
0.0
220
0.0
230
1.0
  0
SOLID
  5
653
  8
0
  6
CONTINUOUS
 62
     7
 10
-1486.1011277450059
 20
220.75599663403119
 30
0.0
 11
-1492.767119034947
 21
220.75599663403119
 31
0.0
 12
-1489.421606053188
 22
200.7580303874351
 32
0.0
 13
-1489.421606053188
 23
200.7580303874351
 33
0.0
210
0.0
220
0.0
230
-1.0
  0
LINE
  5
654
  8
0
  6
CONTINUOUS
 62
     7
 10
1486.1004536046039
 20
220.76005672289381
 30
0.0
 11
1486.1011277450059
 21
220.75599663403119
 31
0.0
  0
LINE
  5
655
  8
0
  6
CONTINUOUS
 62
     7
 10
1492.767119034947
 20
220.75599663403119
 30
0.0
 11
1486.1004536046039
 21
220.76005672289381
 31
0.0
  0
LINE
  5
656
  8
0
  6
CONTINUOUS
 62
     7
 10
1492.767119034947
 20
220.75599663403119
 30
0.0
 11
1489.421606053188
 21
200.7580303874351
 31
0.0
  0
LINE
  5
657
  8
0
  6
CONTINUOUS
 62
     7
 10
1489.421606053188
 20
200.7580303874351
 30
0.0
 11
1486.1011277450059
 21
220.75599663403119
 31
0.0
  0
ENDBLK
  5
659
  8
0
 62
     7
  0
BLOCK
  8
0
 62
     7
  2
*U31
 70
     1
 10
0.0
 20
0.0
 30
0.0
  3
*U31
  1

  0
SOLID
  5
65F
  8
0
  6
CONTINUOUS
 62
     7
 10
1489.6893560725459
 20
640.40353038414185
 30
0.0
 11
1486.343843090787
 21
620.40556413754575
 31
0.0
 12
1493.0098343807281
 22
620.40556413754575
 32
0.0
 13
1493.0098343807281
 23
620.40556413754575
 33
0.0
210
0.0
220
0.0
230
1.0
  0
SOLID
  5
660
  8
0
  6
CONTINUOUS
 62
     7
 10
-1486.343843090787
 20
620.40556413754575
 30
0.0
 11
-1493.0098343807281
 21
620.40556413754575
 31
0.0
 12
-1493.0105085211301
 22
620.40150404868325
 32
0.0
 13
-1493.0105085211301
 23
620.40150404868325
 33
0.0
210
0.0
220
0.0
230
-1.0
  0
LINE
  5
661
  8
0
  6
CONTINUOUS
 62
     7
 10
1489.6893560725459
 20
640.40353038414185
 30
0.0
 11
1486.343843090787
 21
620.40556413754575
 31
0.0
  0
LINE
  5
662
  8
0
  6
CONTINUOUS
 62
     7
 10
1493.0098343807281
 20
620.40556413754575
 30
0.0
 11
1489.6893560725459
 21
640.40353038414185
 31
0.0
  0
LINE
  5
663
  8
0
  6
CONTINUOUS
 62
     7
 10
1493.0098343807281
 20
620.40556413754575
 30
0.0
 11
1493.0105085211301
 21
620.40150404868325
 31
0.0
  0
LINE
  5
664
  8
0
  6
CONTINUOUS
 62
     7
 10
1493.0105085211301
 20
620.40150404868325
 30
0.0
 11
1486.343843090787
 21
620.40556413754575
 31
0.0
  0
ENDBLK
  5
666
  8
0
 62
     7
  0
BLOCK
  8
0
 62
     7
  2
*U32
 70
     1
 10
0.0
 20
0.0
 30
0.0
  3
*U32
  1

  0
TEXT
  5
66C
  8
0
  6
CONTINUOUS
 62
     7
 10
1463.331977097474
 20
408.78842277944381
 30
0.0
 40
24.0
  1
440
  0
ENDBLK
  5
66E
  8
0
 62
     7
  0
BLOCK
  8
0
 62
     7
  2
*U33
 70
     1
 10
0.0
 20
0.0
 30
0.0
  3
*U33
  1

  0
SOLID
  5
67A
  8
0
  6
CONTINUOUS
 62
     7
 10
1630.113098539684
 20
199.86383307853811
 30
0.0
 11
1623.446465818203
 21
199.84255864952479
 31
0.0
 12
1630.1096225408171
 22
199.84255864952479
 32
0.0
 13
1630.1096225408171
 23
199.84255864952479
 33
0.0
210
0.0
220
0.0
230
1.0
  0
SOLID
  5
67B
  8
0
  6
CONTINUOUS
 62
     7
 10
-1623.446465818203
 20
199.84255864952479
 30
0.0
 11
-1630.1096225408171
 21
199.84255864952479
 31
0.0
 12
-1626.843605465984
 22
179.85329769958989
 32
0.0
 13
-1626.843605465984
 23
179.85329769958989
 33
0.0
210
0.0
220
0.0
230
-1.0
  0
LINE
  5
67C
  8
0
  6
CONTINUOUS
 62
     7
 10
1630.113098539684
 20
199.86383307853811
 30
0.0
 11
1623.446465818203
 21
199.84255864952479
 31
0.0
  0
LINE
  5
67D
  8
0
  6
CONTINUOUS
 62
     7
 10
1630.1096225408171
 20
199.84255864952479
 30
0.0
 11
1630.113098539684
 21
199.86383307853811
 31
0.0
  0
LINE
  5
67E
  8
0
  6
CONTINUOUS
 62
     7
 10
1630.1096225408171
 20
199.84255864952479
 30
0.0
 11
1626.843605465984
 21
179.85329769958989
 31
0.0
  0
LINE
  5
67F
  8
0
  6
CONTINUOUS
 62
     7
 10
1626.843605465984
 20
179.85329769958989
 30
0.0
 11
1623.446465818203
 21
199.84255864952479
 31
0.0
  0
ENDBLK
  5
681
  8
0
 62
     7
  0
BLOCK
  8
0
 62
     7
  2
*U34
 70
     1
 10
0.0
 20
0.0
 30
0.0
  3
*U34
  1

  0
SOLID
  5
687
  8
0
  6
CONTINUOUS
 62
     7
 10
1625.370980528905
 20
641.32042266173016
 30
0.0
 11
1622.104963454072
 21
621.33116171179529
 31
0.0
 12
1628.7681201766859
 22
621.33116171179529
 32
0.0
 13
1628.7681201766859
 23
621.33116171179529
 33
0.0
210
0.0
220
0.0
230
1.0
  0
SOLID
  5
688
  8
0
  6
CONTINUOUS
 62
     7
 10
-1622.104963454072
 20
621.33116171179529
 30
0.0
 11
-1628.7681201766859
 21
621.33116171179529
 31
0.0
 12
-1622.101487455205
 22
621.30988728278192
 32
0.0
 13
-1622.101487455205
 23
621.30988728278192
 33
0.0
210
0.0
220
0.0
230
-1.0
  0
LINE
  5
689
  8
0
  6
CONTINUOUS
 62
     7
 10
1625.370980528905
 20
641.32042266173016
 30
0.0
 11
1622.104963454072
 21
621.33116171179529
 31
0.0
  0
LINE
  5
68A
  8
0
  6
CONTINUOUS
 62
     7
 10
1628.7681201766859
 20
621.33116171179529
 30
0.0
 11
1625.370980528905
 21
641.32042266173016
 31
0.0
  0
LINE
  5
68B
  8
0
  6
CONTINUOUS
 62
     7
 10
1628.7681201766859
 20
621.33116171179529
 30
0.0
 11
1622.101487455205
 21
621.30988728278192
 31
0.0
  0
LINE
  5
68C
  8
0
  6
CONTINUOUS
 62
     7
 10
1622.101487455205
 20
621.30988728278192
 30
0.0
 11
1622.104963454072
 21
621.33116171179529
 31
0.0
  0
ENDBLK
  5
68E
  8
0
 62
     7
  0
BLOCK
  8
0
 62
     7
  2
*U35
 70
     1
 10
0.0
 20
0.0
 30
0.0
  3
*U35
  1

  0
TEXT
  5
694
  8
0
  6
CONTINUOUS
 62
     7
 10
1599.987610228879
 20
398.79450257431552
 30
0.0
 40
24.0
  1
462
  0
ENDBLK
  5
696
  8
0
 62
     7
  0
BLOCK
  8
0
 62
     7
  2
*U36
 70
     1
 10
0.0
 20
0.0
 30
0.0
  3
*U36
  1

  0
SOLID
  5
6A2
  8
0
  6
CONTINUOUS
 62
     7
 10
1268.893931732556
 20
136.62199462560341
 30
0.0
 11
1248.893931732548
 21
133.28866129231321
 31
0.0
 12
1268.8939317325489
 22
133.28866129231321
 32
0.0
 13
1268.8939317325489
 23
133.28866129231321
 33
0.0
210
0.0
220
0.0
230
1.0
  0
SOLID
  5
6A3
  8
0
  6
CONTINUOUS
 62
     7
 10
-1248.893931732548
 20
133.28866129231321
 30
0.0
 11
-1268.8939317325489
 21
133.28866129231321
 31
0.0
 12
-1268.893931732541
 22
129.95532795893669
 32
0.0
 13
-1268.893931732541
 23
129.95532795893669
 33
0.0
210
0.0
220
0.0
230
-1.0
  0
LINE
  5
6A4
  8
0
  6
CONTINUOUS
 62
     7
 10
1268.893931732556
 20
136.62199462560341
 30
0.0
 11
1248.893931732548
 21
133.28866129231321
 31
0.0
  0
LINE
  5
6A5
  8
0
  6
CONTINUOUS
 62
     7
 10
1268.8939317325489
 20
133.28866129231321
 30
0.0
 11
1268.893931732556
 21
136.62199462560341
 31
0.0
  0
LINE
  5
6A6
  8
0
  6
CONTINUOUS
 62
     7
 10
1268.8939317325489
 20
133.28866129231321
 30
0.0
 11
1268.893931732541
 21
129.95532795893669
 31
0.0
  0
LINE
  5
6A7
  8
0
  6
CONTINUOUS
 62
     7
 10
1268.893931732541
 20
129.95532795893669
 30
0.0
 11
1248.893931732548
 21
133.28866129231321
 31
0.0
  0
ENDBLK
  5
6A9
  8
0
 62
     7
  0
BLOCK
  8
0
 62
     7
  2
*U37
 70
     1
 10
0.0
 20
0.0
 30
0.0
  3
*U37
  1

  0
SOLID
  5
6AF
  8
0
  6
CONTINUOUS
 62
     7
 10
1290.928259857428
 20
136.6219946255558
 30
0.0
 11
1290.9282598574209
 21
133.28866129217931
 31
0.0
 12
1310.9282598574209
 22
133.28866129217931
 32
0.0
 13
1310.9282598574209
 23
133.28866129217931
 33
0.0
210
0.0
220
0.0
230
1.0
  0
SOLID
  5
6B0
  8
0
  6
CONTINUOUS
 62
     7
 10
-1290.9282598574209
 20
133.28866129217931
 30
0.0
 11
-1310.9282598574209
 21
133.28866129217931
 31
0.0
 12
-1290.9282598574141
 22
129.95532795888909
 32
0.0
 13
-1290.9282598574141
 23
129.95532795888909
 33
0.0
210
0.0
220
0.0
230
-1.0
  0
LINE
  5
6B1
  8
0
  6
CONTINUOUS
 62
     7
 10
1290.928259857428
 20
136.6219946255558
 30
0.0
 11
1290.9282598574209
 21
133.28866129217931
 31
0.0
  0
LINE
  5
6B2
  8
0
  6
CONTINUOUS
 62
     7
 10
1310.9282598574209
 20
133.28866129217931
 30
0.0
 11
1290.928259857428
 21
136.6219946255558
 31
0.0
  0
LINE
  5
6B3
  8
0
  6
CONTINUOUS
 62
     7
 10
1310.9282598574209
 20
133.28866129217931
 30
0.0
 11
1290.9282598574141
 21
129.95532795888909
 31
0.0
  0
LINE
  5
6B4
  8
0
  6
CONTINUOUS
 62
     7
 10
1290.9282598574141
 20
129.95532795888909
 30
0.0
 11
1290.9282598574209
 21
133.28866129217931
 31
0.0
  0
ENDBLK
  5
6B6
  8
0
 62
     7
  0
BLOCK
  8
0
 62
     7
  2
*U38
 70
     1
 10
0.0
 20
0.0
 30
0.0
  3
*U38
  1

  0
TEXT
  5
6BC
  8
0
  6
CONTINUOUS
 62
     7
 10
1325.2498932162889
 20
135.49630368576541
 30
0.0
 40
24.0
  1
62
  0
ENDBLK
  5
6BE
  8
0
 62
     7
  0
BLOCK
  8
0
 62
     7
  2
*U39
 70
     1
 10
0.0
 20
0.0
 30
0.0
  3
*U39
  1

  0
SOLID
  5
6CC
  8
0
  6
CONTINUOUS
 62
     7
 10
1424.6407598614601
 20
103.6117446401114
 30
0.0
 11
1404.6407598614601
 21
100.278411306778
 31
0.0
 12
1424.6407598614601
 22
100.278411306778
 32
0.0
 13
1424.6407598614601
 23
100.278411306778
 33
0.0
210
0.0
220
0.0
230
1.0
  0
SOLID
  5
6CD
  8
0
  6
CONTINUOUS
 62
     7
 10
-1404.6407598614601
 20
100.278411306778
 30
0.0
 11
-1424.6407598614601
 21
100.278411306778
 31
0.0
 12
-1424.6407598614601
 22
96.945077973444711
 32
0.0
 13
-1424.6407598614601
 23
96.945077973444711
 33
0.0
210
0.0
220
0.0
230
-1.0
  0
LINE
  5
6CE
  8
0
  6
CONTINUOUS
 62
     7
 10
1424.6407598614601
 20
103.6117446401114
 30
0.0
 11
1404.6407598614601
 21
100.278411306778
 31
0.0
  0
LINE
  5
6CF
  8
0
  6
CONTINUOUS
 62
     7
 10
1424.6407598614601
 20
100.278411306778
 30
0.0
 11
1424.6407598614601
 21
103.6117446401114
 31
0.0
  0
LINE
  5
6D0
  8
0
  6
CONTINUOUS
 62
     7
 10
1424.6407598614601
 20
100.278411306778
 30
0.0
 11
1424.6407598614601
 21
96.945077973444711
 31
0.0
  0
LINE
  5
6D1
  8
0
  6
CONTINUOUS
 62
     7
 10
1424.6407598614601
 20
96.945077973444711
 30
0.0
 11
1404.6407598614601
 21
100.278411306778
 31
0.0
  0
ENDBLK
  5
6D3
  8
0
 62
     7
  0
BLOCK
  8
0
 62
     7
  2
*U40
 70
     1
 10
0.0
 20
0.0
 30
0.0
  3
*U40
  1

  0
SOLID
  5
6D9
  8
0
  6
CONTINUOUS
 62
     7
 10
1261.4757598491431
 20
103.6117446401114
 30
0.0
 11
1261.4757598491431
 21
100.278411306778
 31
0.0
 12
1281.4757598491431
 22
100.278411306778
 32
0.0
 13
1281.4757598491431
 23
100.278411306778
 33
0.0
210
0.0
220
0.0
230
1.0
  0
SOLID
  5
6DA
  8
0
  6
CONTINUOUS
 62
     7
 10
-1261.4757598491431
 20
100.278411306778
 30
0.0
 11
-1281.4757598491431
 21
100.278411306778
 31
0.0
 12
-1261.4757598491431
 22
96.945077973444711
 32
0.0
 13
-1261.4757598491431
 23
96.945077973444711
 33
0.0
210
0.0
220
0.0
230
-1.0
  0
LINE
  5
6DB
  8
0
  6
CONTINUOUS
 62
     7
 10
1261.4757598491431
 20
103.6117446401114
 30
0.0
 11
1261.4757598491431
 21
100.278411306778
 31
0.0
  0
LINE
  5
6DC
  8
0
  6
CONTINUOUS
 62
     7
 10
1281.4757598491431
 20
100.278411306778
 30
0.0
 11
1261.4757598491431
 21
103.6117446401114
 31
0.0
  0
LINE
  5
6DD
  8
0
  6
CONTINUOUS
 62
     7
 10
1281.4757598491431
 20
100.278411306778
 30
0.0
 11
1261.4757598491431
 21
96.945077973444711
 31
0.0
  0
LINE
  5
6DE
  8
0
  6
CONTINUOUS
 62
     7
 10
1261.4757598491431
 20
96.945077973444711
 30
0.0
 11
1261.4757598491431
 21
100.278411306778
 31
0.0
  0
ENDBLK
  5
6E0
  8
0
 62
     7
  0
BLOCK
  8
0
 62
     7
  2
*U41
 70
     1
 10
0.0
 20
0.0
 30
0.0
  3
*U41
  1

  0
TEXT
  5
6E6
  8
0
  6
CONTINUOUS
 62
     7
 10
1315.0178849454239
 20
102.278411306778
 30
0.0
 40
24.0
  1
124
  0
ENDBLK
  5
6E8
  8
0
 62
     7
  0
BLOCK
  8
0
 62
     7
  2
*U42
 70
     1
 10
0.0
 20
0.0
 30
0.0
  3
*U42
  1

  0
SOLID
  5
6F4
  8
0
  6
CONTINUOUS
 62
     7
 10
1453.5577599420519
 20
87.623744601448294
 30
0.0
 11
1433.5577599420519
 21
84.290411268114966
 31
0.0
 12
1453.5577599420519
 22
84.290411268114966
 32
0.0
 13
1453.5577599420519
 23
84.290411268114966
 33
0.0
210
0.0
220
0.0
230
1.0
  0
SOLID
  5
6F5
  8
0
  6
CONTINUOUS
 62
     7
 10
-1433.5577599420519
 20
84.290411268114966
 30
0.0
 11
-1453.5577599420519
 21
84.290411268114966
 31
0.0
 12
-1453.5577599420519
 22
80.957077934781637
 32
0.0
 13
-1453.5577599420519
 23
80.957077934781637
 33
0.0
210
0.0
220
0.0
230
-1.0
  0
LINE
  5
6F6
  8
0
  6
CONTINUOUS
 62
     7
 10
1453.5577599420519
 20
87.623744601448294
 30
0.0
 11
1433.5577599420519
 21
84.290411268114966
 31
0.0
  0
LINE
  5
6F7
  8
0
  6
CONTINUOUS
 62
     7
 10
1453.5577599420519
 20
84.290411268114966
 30
0.0
 11
1453.5577599420519
 21
87.623744601448294
 31
0.0
  0
LINE
  5
6F8
  8
0
  6
CONTINUOUS
 62
     7
 10
1453.5577599420519
 20
84.290411268114966
 30
0.0
 11
1453.5577599420519
 21
80.957077934781637
 31
0.0
  0
LINE
  5
6F9
  8
0
  6
CONTINUOUS
 62
     7
 10
1453.5577599420519
 20
80.957077934781637
 30
0.0
 11
1433.5577599420519
 21
84.290411268114966
 31
0.0
  0
ENDBLK
  5
6FB
  8
0
 62
     7
  0
BLOCK
  8
0
 62
     7
  2
*U43
 70
     1
 10
0.0
 20
0.0
 30
0.0
  3
*U43
  1

  0
SOLID
  5
701
  8
0
  6
CONTINUOUS
 62
     7
 10
1383.569759939053
 20
87.623744601448294
 30
0.0
 11
1383.569759939053
 21
84.290411268114966
 31
0.0
 12
1403.5697599390539
 22
84.290411268114966
 32
0.0
 13
1403.5697599390539
 23
84.290411268114966
 33
0.0
210
0.0
220
0.0
230
1.0
  0
SOLID
  5
702
  8
0
  6
CONTINUOUS
 62
     7
 10
-1383.569759939053
 20
84.290411268114966
 30
0.0
 11
-1403.5697599390539
 21
84.290411268114966
 31
0.0
 12
-1383.569759939053
 22
80.957077934781637
 32
0.0
 13
-1383.569759939053
 23
80.957077934781637
 33
0.0
210
0.0
220
0.0
230
-1.0
  0
LINE
  5
703
  8
0
  6
CONTINUOUS
 62
     7
 10
1383.569759939053
 20
87.623744601448294
 30
0.0
 11
1383.569759939053
 21
84.290411268114966
 31
0.0
  0
LINE
  5
704
  8
0
  6
CONTINUOUS
 62
     7
 10
1403.5697599390539
 20
84.290411268114966
 30
0.0
 11
1383.569759939053
 21
87.623744601448294
 31
0.0
  0
LINE
  5
705
  8
0
  6
CONTINUOUS
 62
     7
 10
1403.5697599390539
 20
84.290411268114966
 30
0.0
 11
1383.569759939053
 21
80.957077934781637
 31
0.0
  0
LINE
  5
706
  8
0
  6
CONTINUOUS
 62
     7
 10
1383.569759939053
 20
80.957077934781637
 30
0.0
 11
1383.569759939053
 21
84.290411268114966
 31
0.0
  0
ENDBLK
  5
708
  8
0
 62
     7
  0
BLOCK
  8
0
 62
     7
  2
*U44
 70
     1
 10
0.0
 20
0.0
 30
0.0
  3
*U44
  1

  0
TEXT
  5
70E
  8
0
  6
CONTINUOUS
 62
     7
 10
1467.818830936104
 20
86.498053661770342
 30
0.0
 40
24.0
  1
30
  0
ENDBLK
  5
710
  8
0
 62
     7
  0
ENDSEC
  0
SECTION
  2
ENTITIES
  0
POLYLINE
  5
2E
  8
0
  6
DURCHGEHEND
 62
     7
 66
     1
 10
0.0
 20
0.0
 30
0.0
 70
   129
1001
TCAD
1000
TCW_CUSTOM_DATA
1002
{
1000
#$AUX@_ToolInfo Properties
1070
     8
1000
CMD_FILLETARC@
1002
}
  0
VERTEX
  5
373
  8
0
  6
DURCHGEHEND
 62
     7
 10
-4.1269666746544402
 20
85.989749976170216
 30
0.0
  0
VERTEX
  5
374
  8
0
  6
DURCHGEHEND
 62
     7
 10
532.87303332534555
 20
85.989749976170216
 30
0.0
 42
0.4142135623730951
  0
VERTEX
  5
375
  8
0
  6
DURCHGEHEND
 62
     7
 10
592.87303332534555
 20
145.9897499761702
 30
0.0
  0
VERTEX
  5
376
  8
0
  6
DURCHGEHEND
 62
     7
 10
592.87303332534555
 20
582.98974997617029
 30
0.0
 42
0.4142135623730951
  0
VERTEX
  5
377
  8
0
  6
DURCHGEHEND
 62
     7
 10
532.87303332534555
 20
642.98974997617017
 30
0.0
  0
VERTEX
  5
378
  8
0
  6
DURCHGEHEND
 62
     7
 10
-4.1269666746544402
 20
642.9897499761704
 30
0.0
 42
0.4142135623730951
  0
VERTEX
  5
379
  8
0
  6
DURCHGEHEND
 62
     7
 10
-64.12696667465444
 20
582.98974997617029
 30
0.0
  0
VERTEX
  5
37A
  8
0
  6
DURCHGEHEND
 62
     7
 10
-64.12696667465444
 20
145.9897499761702
 30
0.0
 42
0.4142135623730951
  0
SEQEND
  5
37B
  8
0
  6
DURCHGEHEND
 62
     7
  0
POLYLINE
  5
2F
  8
0
  6
DURCHGEHEND
 62
     7
 66
     1
 10
0.0
 20
0.0
 30
0.0
 70
   129
1001
TCAD
1000
TCW_CUSTOM_DATA
1002
{
1000
#$AUX@_ToolInfo Properties
1070
     8
1000
CMD_FILLETARC@
1002
}
  0
VERTEX
  5
37C
  8
0
  6
DURCHGEHEND
 62
     7
 10
-3.8969042073185491
 20
116.5591048151848
 30
0.0
  0
VERTEX
  5
37D
  8
0
  6
DURCHGEHEND
 62
     7
 10
533.10309579268119
 20
116.5591048151848
 30
0.0
 42
0.4142135623730951
  0
VERTEX
  5
37E
  8
0
  6
DURCHGEHEND
 62
     7
 10
563.1030957926813
 20
146.55910481518481
 30
0.0
  0
VERTEX
  5
37F
  8
0
  6
DURCHGEHEND
 62
     7
 10
563.1030957926813
 20
583.55910481518458
 30
0.0
 42
0.4142135623730951
  0
VERTEX
  5
380
  8
0
  6
DURCHGEHEND
 62
     7
 10
533.10309579268119
 20
613.55910481518458
 30
0.0
  0
VERTEX
  5
381
  8
0
  6
DURCHGEHEND
 62
     7
 10
-3.8969042073185491
 20
613.55910481518481
 30
0.0
 42
0.4142135623730951
  0
VERTEX
  5
382
  8
0
  6
DURCHGEHEND
 62
     7
 10
-33.896904207318549
 20
583.5591048151847
 30
0.0
  0
VERTEX
  5
383
  8
0
  6
DURCHGEHEND
 62
     7
 10
-33.896904207318549
 20
146.55910481518481
 30
0.0
 42
0.4142135623730951
  0
SEQEND
  5
384
  8
0
  6
DURCHGEHEND
 62
     7
  0
CIRCLE
  5
30
  8
0
  6
DURCHGEHEND
 62
     7
 10
264.01950204278921
 20
239.57316731510431
 30
0.0
 40
31.000000000000011
1001
TCAD
1000
TCW_CUSTOM_DATA
1002
{
1000
#$AUX@_ToolInfo Properties
1070
     8
1000
CMD_CENTERPTCIRCLE@
1002
}
  0
CIRCLE
  5
31
  8
0
  6
DURCHGEHEND
 62
     7
 10
264.01950204278921
 20
239.57316731510431
 30
0.0
 40
37.500000000000021
1001
TCAD
1000
TCW_CUSTOM_DATA
1002
{
1000
#$AUX@_ToolInfo Properties
1070
     8
1000
CMD_CENTERPTCIRCLE@
1002
}
  0
DIMENSION
  5
3E
  8
0
  6
DURCHGEHEND
 62
     7
  2
*D1
 10
593.04679014943724
 20
711.30439043121555
 30
0.0
 11
264.5844776362772
 21
711.9737654402187
 31
0.0
 70
     1
  1
657
 13
-64.1604354474904
 23
573.97104231169021
 33
0.0
 14
592.7641895788297
 24
572.63229229368403
 34
0.0
1001
TCAD
1000
TCW_CUSTOM_DATA
1002
{
1000
#$AUX@_ToolInfo Properties
1070
     8
1000
CMD_PARALLELDIM@
1002
}
1001
ACAD
1000
DSTYLE
1002
{
1002
}
  0
DIMENSION
  5
4B
  8
0
  6
DURCHGEHEND
 62
     7
  2
*D2
 10
688.83649418760831
 20
84.918027106238483
 30
0.0
 11
689.04365345299232
 21
363.91352714618688
 31
0.0
 70
     1
  1
557
 13
498.66275821857272
 23
643.05054230503674
 33
0.0
 14
498.24843968780488
 24
85.059542225139921
 34
0.0
1001
TCAD
1000
TCW_CUSTOM_DATA
1002
{
1000
#$AUX@_ToolInfo Properties
1070
     8
1000
CMD_PARALLELDIM@
1002
}
1001
ACAD
1000
DSTYLE
1002
{
1002
}
  0
LINE
  5
4C
  8
0
  6
DURCHGEHEND
 62
     7
 10
1248.8855645747069
 20
195.37254229197029
 30
0.0
 11
1310.8855645747069
 21
195.37254229197029
 31
0.0
1001
TCAD
1000
TCW_CUSTOM_DATA
1002
{
1000
#$AUX@_ToolInfo Properties
1070
     8
1000
CMD_LINE@
1002
}
  0
LINE
  5
4D
  8
0
  6
DURCHGEHEND
 62
     7
 10
1242.3441780465871
 20
200.86141731510389
 30
0.0
 11
1317.4269511028281
 21
200.86141731510389
 31
0.0
1001
TCAD
1000
TCW_CUSTOM_DATA
1002
{
1000
#$AUX@_ToolInfo Properties
1070
     8
1000
CMD_LINE@
1002
}
  0
LINE
  5
4E
  8
0
  6
DURCHGEHEND
 62
     7
 10
1276.4721817427021
 20
178.86141730980239
 30
0.0
 11
1310.8855645747069
 21
178.86141730980239
 31
0.0
1001
TCAD
1000
TCW_CUSTOM_DATA
1002
{
1000
#$AUX@_ToolInfo Properties
1070
     8
1000
CMD_LINE@
1002
}
  0
LINE
  5
4F
  8
0
  6
DURCHGEHEND
 62
     7
 10
1276.4721817427021
 20
178.86141730980239
 30
0.0
 11
1248.8855645747069
 21
178.86141730980239
 31
0.0
1001
TCAD
1000
TCW_CUSTOM_DATA
1002
{
1000
#$AUX@_ToolInfo Properties
1070
     8
1000
CMD_LINE@
1002
}
  0
POLYLINE
  5
50
  8
0
  6
DURCHGEHEND
 62
     7
 66
     1
 10
0.0
 20
0.0
 30
0.0
 70
   129
  0
VERTEX
  5
3D5
  8
0
  6
DURCHGEHEND
 62
     7
 10
1310.8855645747069
 20
195.37254229197029
 30
0.0
  0
VERTEX
  5
3D6
  8
0
  6
DURCHGEHEND
 62
     7
 10
1317.4269511028281
 20
200.86141731510389
 30
0.0
  0
VERTEX
  5
3D7
  8
0
  6
DURCHGEHEND
 62
     7
 10
1337.1037469421519
 20
201.5485461669451
 30
0.0
 42
0.3689194771098194
  0
VERTEX
  5
3D8
  8
0
  6
DURCHGEHEND
 62
     7
 10
1351.468446766235
 20
214.7113684211543
 30
0.0
  0
VERTEX
  5
3D9
  8
0
  6
DURCHGEHEND
 62
     7
 10
1403.7766556129779
 20
640.7275422958794
 30
0.0
  0
VERTEX
  5
3DA
  8
0
  6
DURCHGEHEND
 62
     7
 10
1433.7766556129779
 20
640.7275422958794
 30
0.0
  0
VERTEX
  5
3DB
  8
0
  6
DURCHGEHEND
 62
     7
 10
1433.7766556129779
 20
628.7275422958794
 30
0.0
  0
VERTEX
  5
3DC
  8
0
  6
DURCHGEHEND
 62
     7
 10
1413.7766556129779
 20
628.7275422958794
 30
0.0
  0
VERTEX
  5
3DD
  8
0
  6
DURCHGEHEND
 62
     7
 10
1360.475577638206
 20
194.62509828484741
 30
0.0
 42
-0.3689194771098216
  0
VERTEX
  5
3DE
  8
0
  6
DURCHGEHEND
 62
     7
 10
1355.687344363512
 20
190.23749086677759
 30
0.0
  0
VERTEX
  5
3DF
  8
0
  6
DURCHGEHEND
 62
     7
 10
1335.68256803689
 20
189.53890868394171
 30
0.0
 42
0.4054891728765766
  0
VERTEX
  5
3E0
  8
0
  6
DURCHGEHEND
 62
     7
 10
1330.8571287234511
 20
184.51681441164851
 30
0.0
  0
VERTEX
  5
3E1
  8
0
  6
DURCHGEHEND
 62
     7
 10
1330.8855645747069
 20
178.86141730980239
 30
0.0
  0
VERTEX
  5
3E2
  8
0
  6
DURCHGEHEND
 62
     7
 10
1310.8855645747069
 20
178.86141730980239
 30
0.0
  0
SEQEND
  5
3E3
  8
0
  6
DURCHGEHEND
 62
     7
  0
POLYLINE
  5
52
  8
0
  6
DURCHGEHEND
 62
     7
 66
     1
 10
0.0
 20
0.0
 30
0.0
 70
   129
  0
VERTEX
  5
4AF
  8
0
  6
DURCHGEHEND
 62
     7
 10
1310.8855645747069
 20
195.37254229197029
 30
0.0
  0
VERTEX
  5
4B0
  8
0
  6
DURCHGEHEND
 62
     7
 10
1317.4269511028281
 20
200.86141731510389
 30
0.0
  0
VERTEX
  5
4B1
  8
0
  6
DURCHGEHEND
 62
     7
 10
1337.1037469421519
 20
201.5485461669451
 30
0.0
  0
VERTEX
  5
4B2
  8
0
  6
DURCHGEHEND
 62
     7
 10
1338.6122826266319
 20
201.6776838520486
 30
0.0
  0
VERTEX
  5
4B3
  8
0
  6
DURCHGEHEND
 62
     7
 10
1340.1001154986311
 20
201.95823651744499
 30
0.0
  0
VERTEX
  5
4B4
  8
0
  6
DURCHGEHEND
 62
     7
 10
1341.5520871435481
 20
202.38734582218811
 30
0.0
  0
VERTEX
  5
4B5
  8
0
  6
DURCHGEHEND
 62
     7
 10
1342.9534045099631
 20
202.96063989301649
 30
0.0
  0
VERTEX
  5
4B6
  8
0
  6
DURCHGEHEND
 62
     7
 10
1344.2897906249509
 20
203.67227786609561
 30
0.0
  0
VERTEX
  5
4B7
  8
0
  6
DURCHGEHEND
 62
     7
 10
1345.5476300514699
 20
204.51500939520409
 30
0.0
  0
VERTEX
  5
4B8
  8
0
  6
DURCHGEHEND
 62
     7
 10
1346.714107605849
 20
205.4802485200799
 30
0.0
  0
VERTEX
  5
4B9
  8
0
  6
DURCHGEHEND
 62
     7
 10
1347.777338922092
 20
206.55816114233781
 30
0.0
  0
VERTEX
  5
4BA
  8
0
  6
DURCHGEHEND
 62
     7
 10
1348.7264915327801
 20
207.73776521773141
 30
0.0
  0
VERTEX
  5
4BB
  8
0
  6
DURCHGEHEND
 62
     7
 10
1349.5518952329719
 20
209.0070426439749
 30
0.0
  0
VERTEX
  5
4BC
  8
0
  6
DURCHGEHEND
 62
     7
 10
1350.245140602673
 20
210.35306170418491
 30
0.0
  0
VERTEX
  5
4BD
  8
0
  6
DURCHGEHEND
 62
     7
 10
1350.799164684121
 20
211.7621088184564
 30
0.0
  0
VERTEX
  5
4BE
  8
0
  6
DURCHGEHEND
 62
     7
 10
1351.2083229409691
 20
213.2198282612558
 30
0.0
  0
VERTEX
  5
4BF
  8
0
  6
DURCHGEHEND
 62
     7
 10
1351.468446766235
 20
214.71136842115439
 30
0.0
  0
VERTEX
  5
4C0
  8
0
  6
DURCHGEHEND
 62
     7
 10
1403.7766556129779
 20
640.7275422958794
 30
0.0
  0
VERTEX
  5
4C1
  8
0
  6
DURCHGEHEND
 62
     7
 10
1433.7766556129779
 20
640.7275422958794
 30
0.0
  0
VERTEX
  5
4C2
  8
0
  6
DURCHGEHEND
 62
     7
 10
1433.7766556129779
 20
628.7275422958794
 30
0.0
  0
VERTEX
  5
4C3
  8
0
  6
DURCHGEHEND
 62
     7
 10
1413.7766556129779
 20
628.7275422958794
 30
0.0
  0
VERTEX
  5
4C4
  8
0
  6
DURCHGEHEND
 62
     7
 10
1360.475577638206
 20
194.62509828484741
 30
0.0
  0
VERTEX
  5
4C5
  8
0
  6
DURCHGEHEND
 62
     7
 10
1360.38886969645
 20
194.12791823154791
 30
0.0
  0
VERTEX
  5
4C6
  8
0
  6
DURCHGEHEND
 62
     7
 10
1360.252483610835
 20
193.6420117506147
 30
0.0
  0
VERTEX
  5
4C7
  8
0
  6
DURCHGEHEND
 62
     7
 10
1360.067808917019
 20
193.1723293791909
 30
0.0
  0
VERTEX
  5
4C8
  8
0
  6
DURCHGEHEND
 62
     7
 10
1359.8367271271179
 20
192.72365635912089
 30
0.0
  0
VERTEX
  5
4C9
  8
0
  6
DURCHGEHEND
 62
     7
 10
1359.561592560387
 20
192.30056388370639
 30
0.0
  0
VERTEX
  5
4CA
  8
0
  6
DURCHGEHEND
 62
     7
 10
1359.2452083568251
 20
191.90736252524181
 30
0.0
  0
VERTEX
  5
4CB
  8
0
  6
DURCHGEHEND
 62
     7
 10
1358.8907979180769
 20
191.54805831782249
 30
0.0
  0
VERTEX
  5
4CC
  8
0
  6
DURCHGEHEND
 62
     7
 10
1358.501972066618
 20
191.2263119428639
 30
0.0
  0
VERTEX
  5
4CD
  8
0
  6
DURCHGEHEND
 62
     7
 10
1358.082692257778
 20
190.94540143316109
 30
0.0
  0
VERTEX
  5
4CE
  8
0
  6
DURCHGEHEND
 62
     7
 10
1357.6372302194479
 20
190.7081887754681
 30
0.0
  0
VERTEX
  5
4CF
  8
0
  6
DURCHGEHEND
 62
     7
 10
1357.170124430643
 20
190.5170907518586
 30
0.0
  0
VERTEX
  5
4D0
  8
0
  6
DURCHGEHEND
 62
     7
 10
1356.686133882338
 20
190.3740543169443
 30
0.0
  0
VERTEX
  5
4D1
  8
0
  6
DURCHGEHEND
 62
     7
 10
1356.190189591671
 20
190.2805367618121
 30
0.0
  0
VERTEX
  5
4D2
  8
0
  6
DURCHGEHEND
 62
     7
 10
1355.687344363512
 20
190.2374908667777
 30
0.0
  0
VERTEX
  5
4D3
  8
0
  6
DURCHGEHEND
 62
     7
 10
1335.68256803689
 20
189.53890868394171
 30
0.0
  0
VERTEX
  5
4D4
  8
0
  6
DURCHGEHEND
 62
     7
 10
1335.171063976414
 20
189.49467116517371
 30
0.0
  0
VERTEX
  5
4D5
  8
0
  6
DURCHGEHEND
 62
     7
 10
1334.6667929340699
 20
189.39821351745849
 30
0.0
  0
VERTEX
  5
4D6
  8
0
  6
DURCHGEHEND
 62
     7
 10
1334.1750718098331
 20
189.25055276462189
 30
0.0
  0
VERTEX
  5
4D7
  8
0
  6
DURCHGEHEND
 62
     7
 10
1333.7010851806731
 20
189.05324580243459
 30
0.0
  0
VERTEX
  5
4D8
  8
0
  6
DURCHGEHEND
 62
     7
 10
1333.2498306357561
 20
188.8083729831167
 30
0.0
  0
VERTEX
  5
4D9
  8
0
  6
DURCHGEHEND
 62
     7
 10
1332.8260660831829
 20
188.51851618065581
 30
0.0
  0
VERTEX
  5
4DA
  8
0
  6
DURCHGEHEND
 62
     7
 10
1332.43425958388
 20
188.1867315682139
 30
0.0
  0
VERTEX
  5
4DB
  8
0
  6
DURCHGEHEND
 62
     7
 10
1332.0785422415411
 20
187.8165173946482
 30
0.0
  0
VERTEX
  5
4DC
  8
0
  6
DURCHGEHEND
 62
     7
 10
1331.762664645373
 20
187.41177709990501
 30
0.0
  0
VERTEX
  5
4DD
  8
0
  6
DURCHGEHEND
 62
     7
 10
1331.4899573248781
 20
186.97677815818449
 30
0.0
  0
VERTEX
  5
4DE
  8
0
  6
DURCHGEHEND
 62
     7
 10
1331.2632956336331
 20
186.51610708282641
 30
0.0
  0
VERTEX
  5
4DF
  8
0
  6
DURCHGEHEND
 62
     7
 10
1331.0850694323281
 20
186.03462106733099
 30
0.0
  0
VERTEX
  5
4E0
  8
0
  6
DURCHGEHEND
 62
     7
 10
1330.957157890705
 20
185.53739677240051
 30
0.0
  0
VERTEX
  5
4E1
  8
0
  6
DURCHGEHEND
 62
     7
 10
1330.8809096740949
 20
185.02967679897671
 30
0.0
  0
VERTEX
  5
4E2
  8
0
  6
DURCHGEHEND
 62
     7
 10
1330.8571287234511
 20
184.51681441164851
 30
0.0
  0
VERTEX
  5
4E3
  8
0
  6
DURCHGEHEND
 62
     7
 10
1330.8855645747069
 20
178.86141730980239
 30
0.0
  0
VERTEX
  5
4E4
  8
0
  6
DURCHGEHEND
 62
     7
 10
1310.8855645747069
 20
178.86141730980239
 30
0.0
  0
SEQEND
  5
4E5
  8
0
  6
DURCHGEHEND
 62
     7
  0
INSERT
  5
51
  8
0
  6
CONTINUOUS
 62
     7
  2
*U22
 10
0.0
 20
0.0
 30
0.0
1001
ACAD
1002
{
1000
R14_HATCH_DATA
1000
51
1011
1.0
1021
0.0
1031
0.0
1021
0.0
1031
0.0
1011
0.0
1021
0.0
1031
0.0
1021
1.0
1031
0.0
1011
0.0
1021
0.0
1031
0.0
1021
0.0
1031
1.0
1040
0.0
1010
0.0
1020
0.0
1030
1.0
1000
SOLID
1070
     1
1070
     1
1071
        1
1071
        3
1070
     0
1070
     1
1071
       54
1040
1310.8855645747069
1040
195.37254229197029
1040
1317.4269511028281
1040
200.86141731510389
1040
1337.1037469421519
1040
201.5485461669451
1040
1338.6122826266319
1040
201.6776838520486
1040
1340.1001154986311
1040
201.95823651744499
1040
1341.5520871435481
1040
202.38734582218811
1040
1342.9534045099631
1040
202.96063989301649
1040
1344.2897906249509
1040
203.67227786609561
1040
1345.5476300514699
1040
204.51500939520409
1040
1346.714107605849
1040
205.4802485200799
1040
1347.777338922092
1040
206.55816114233781
1040
1348.7264915327801
1040
207.73776521773141
1040
1349.5518952329719
1040
209.0070426439749
1040
1350.245140602673
1040
210.35306170418491
1040
1350.799164684121
1040
211.7621088184564
1040
1351.2083229409691
1040
213.2198282612558
1040
1351.468446766235
1040
214.71136842115439
1040
1403.7766556129779
1040
640.7275422958794
1040
1433.7766556129779
1040
640.7275422958794
1040
1433.7766556129779
1040
628.7275422958794
1040
1413.7766556129779
1040
628.7275422958794
1040
1360.475577638206
1040
194.62509828484741
1040
1360.38886969645
1040
194.12791823154791
1040
1360.252483610835
1040
193.6420117506147
1040
1360.067808917019
1040
193.1723293791909
1040
1359.8367271271179
1040
192.72365635912089
1040
1359.561592560387
1040
192.30056388370639
1040
1359.2452083568251
1040
191.90736252524181
1040
1358.8907979180769
1040
191.54805831782249
1040
1358.501972066618
1040
191.2263119428639
1040
1358.082692257778
1040
190.94540143316109
1040
1357.6372302194479
1040
190.7081887754681
1040
1357.170124430643
1040
190.5170907518586
1040
1356.686133882338
1040
190.3740543169443
1040
1356.190189591671
1040
190.2805367618121
1040
1355.687344363512
1040
190.2374908667777
1040
1335.68256803689
1040
189.53890868394171
1040
1335.171063976414
1040
189.49467116517371
1040
1334.6667929340699
1040
189.39821351745849
1040
1334.1750718098331
1040
189.25055276462189
1040
1333.7010851806731
1040
189.05324580243459
1040
1333.2498306357561
1040
188.8083729831167
1040
1332.8260660831829
1040
188.51851618065581
1040
1332.43425958388
1040
188.1867315682139
1040
1332.0785422415411
1040
187.8165173946482
1040
1331.762664645373
1040
187.41177709990501
1040
1331.4899573248781
1040
186.97677815818449
1040
1331.2632956336331
1040
186.51610708282641
1040
1331.0850694323281
1040
186.03462106733099
1040
1330.957157890705
1040
185.53739677240051
1040
1330.8809096740949
1040
185.02967679897671
1040
1330.8571287234511
1040
184.51681441164851
1040
1330.8855645747069
1040
178.86141730980239
1040
1310.8855645747069
1040
178.86141730980239
1071
        1
1005
52
1070
     0
1070
     0
1071
        0
1002
}
  0
DIMENSION
  5
5F
  8
0
  6
DURCHGEHEND
 62
     7
  2
*D3
 10
1403.7766556129779
 20
699.71378627379192
 30
0.0000000000000005
 11
1155.1506759898571
 21
713.71378627379181
 31
0.0000000000000003
 70
     1
  1
498
 13
906.52469636673572
 23
640.72754229587918
 33
0.0
 14
1403.7766556129779
 24
640.7275422958794
 34
0.0000000000000004
1001
TCAD
1000
TCW_CUSTOM_DATA
1002
{
1000
#$AUX@_ToolInfo Properties
1070
     8
1000
CMD_PARALLELDIM@
1002
}
1001
ACAD
1000
DSTYLE
1002
{
1002
}
  0
LINE
  5
60
  8
0
  6
DURCHGEHEND
 62
     7
 10
906.52469636673572
 20
640.72754229587918
 30
0.0
 11
1403.7766556129779
 21
640.7275422958794
 31
0.0
1001
TCAD
1000
TCW_CUSTOM_DATA
1002
{
1000
#$AUX@_ToolInfo Properties
1070
     8
1000
CMD_LINE@
1002
}
  0
POLYLINE
  5
61
  8
0
  6
DURCHGEHEND
 62
     7
 66
     1
 10
0.0
 20
0.0
 30
0.0
 70
   129
  0
VERTEX
  5
50E
  8
0
  6
DURCHGEHEND
 62
     7
 10
1242.3441780465871
 20
200.86141731510389
 30
0.0
  0
VERTEX
  5
50F
  8
0
  6
DURCHGEHEND
 62
     7
 10
972.33629331539157
 20
210.29030041875649
 30
0.0
 42
-0.3687773079241536
  0
VERTEX
  5
510
  8
0
  6
DURCHGEHEND
 62
     7
 10
957.97251042607286
 20
223.44567025927631
 30
0.0
  0
VERTEX
  5
511
  8
0
  6
DURCHGEHEND
 62
     7
 10
906.52469636673572
 20
640.72754229587918
 30
0.0
  0
VERTEX
  5
512
  8
0
  6
DURCHGEHEND
 62
     7
 10
876.52469636673561
 20
640.72754229587918
 30
0.0
  0
VERTEX
  5
513
  8
0
  6
DURCHGEHEND
 62
     7
 10
876.52469636673561
 20
628.72754229587918
 30
0.0
  0
VERTEX
  5
514
  8
0
  6
DURCHGEHEND
 62
     7
 10
896.52469636673572
 20
628.72754229587918
 30
0.0
  0
VERTEX
  5
515
  8
0
  6
DURCHGEHEND
 62
     7
 10
948.02015972296579
 20
209.3306492536708
 30
0.0
 42
0.3689194771098234
  0
VERTEX
  5
516
  8
0
  6
DURCHGEHEND
 62
     7
 10
962.38485954704799
 20
196.1678269994616
 30
0.0
  0
VERTEX
  5
517
  8
0
  6
DURCHGEHEND
 62
     7
 10
1224.06006205822
 20
187.0299275708625
 30
0.0
 42
-0.4040262258351517
  0
VERTEX
  5
518
  8
0
  6
DURCHGEHEND
 62
     7
 10
1228.885564574708
 20
182.03297343576699
 30
0.0
  0
VERTEX
  5
519
  8
0
  6
DURCHGEHEND
 62
     7
 10
1228.885564574708
 20
178.86141730980239
 30
0.0
  0
VERTEX
  5
51A
  8
0
  6
DURCHGEHEND
 62
     7
 10
1248.8855645747069
 20
178.86141730980239
 30
0.0
  0
VERTEX
  5
51B
  8
0
  6
DURCHGEHEND
 62
     7
 10
1248.8855645747069
 20
195.37254229197029
 30
0.0
  0
SEQEND
  5
51C
  8
0
  6
DURCHGEHEND
 62
     7
  0
POLYLINE
  5
63
  8
0
  6
DURCHGEHEND
 62
     7
 66
     1
 10
0.0
 20
0.0
 30
0.0
 70
   129
  0
VERTEX
  5
5E8
  8
0
  6
DURCHGEHEND
 62
     7
 10
1242.3441780465871
 20
200.86141731510389
 30
0.0
  0
VERTEX
  5
5E9
  8
0
  6
DURCHGEHEND
 62
     7
 10
972.33629331539157
 20
210.29030041875649
 30
0.0
  0
VERTEX
  5
5EA
  8
0
  6
DURCHGEHEND
 62
     7
 10
970.82828901750088
 20
210.41936545760279
 30
0.0
  0
VERTEX
  5
5EB
  8
0
  6
DURCHGEHEND
 62
     7
 10
969.3409674760079
 20
210.6997390992307
 30
0.0
  0
VERTEX
  5
5EC
  8
0
  6
DURCHGEHEND
 62
     7
 10
967.88947117595524
 20
211.12856684744929
 30
0.0
  0
VERTEX
  5
5ED
  8
0
  6
DURCHGEHEND
 62
     7
 10
966.48857786405063
 20
211.7014827883778
 30
0.0
  0
VERTEX
  5
5EE
  8
0
  6
DURCHGEHEND
 62
     7
 10
965.15255009578755
 20
212.41265404000359
 30
0.0
  0
VERTEX
  5
5EF
  8
0
  6
DURCHGEHEND
 62
     7
 10
963.89499002774949
 20
213.25484013700679
 30
0.0
  0
VERTEX
  5
5F0
  8
0
  6
DURCHGEHEND
 62
     7
 10
962.72870093346557
 20
214.21946674625141
 30
0.0
  0
VERTEX
  5
5F1
  8
0
  6
DURCHGEHEND
 62
     7
 10
961.66555685272624
 20
215.29671296244251
 30
0.0
  0
VERTEX
  5
5F2
  8
0
  6
DURCHGEHEND
 62
     7
 10
960.71638170147173
 20
216.47561129518789
 30
0.0
  0
VERTEX
  5
5F3
  8
0
  6
DURCHGEHEND
 62
     7
 10
959.89083907303404
 20
217.7441593294937
 30
0.0
  0
VERTEX
  5
5F4
  8
0
  6
DURCHGEHEND
 62
     7
 10
959.19733385267466
 20
219.0894419228708
 30
0.0
  0
VERTEX
  5
5F5
  8
0
  6
DURCHGEHEND
 62
     7
 10
958.64292664708398
 20
220.49776269495999
 30
0.0
  0
VERTEX
  5
5F6
  8
0
  6
DURCHGEHEND
 62
     7
 10
958.23326190003797
 20
221.95478347097409
 30
0.0
  0
VERTEX
  5
5F7
  8
0
  6
DURCHGEHEND
 62
     7
 10
957.97251042607286
 20
223.44567025927631
 30
0.0
  0
VERTEX
  5
5F8
  8
0
  6
DURCHGEHEND
 62
     7
 10
906.52469636673572
 20
640.72754229587918
 30
0.0
  0
VERTEX
  5
5F9
  8
0
  6
DURCHGEHEND
 62
     7
 10
876.52469636673561
 20
640.72754229587918
 30
0.0
  0
VERTEX
  5
5FA
  8
0
  6
DURCHGEHEND
 62
     7
 10
876.52469636673561
 20
628.72754229587918
 30
0.0
  0
VERTEX
  5
5FB
  8
0
  6
DURCHGEHEND
 62
     7
 10
896.52469636673572
 20
628.72754229587918
 30
0.0
  0
VERTEX
  5
5FC
  8
0
  6
DURCHGEHEND
 62
     7
 10
948.02015972296579
 20
209.3306492536708
 30
0.0
  0
VERTEX
  5
5FD
  8
0
  6
DURCHGEHEND
 62
     7
 10
948.28028354823175
 20
207.83910909377229
 30
0.0
  0
VERTEX
  5
5FE
  8
0
  6
DURCHGEHEND
 62
     7
 10
948.68944180507856
 20
206.38138965097281
 30
0.0
  0
VERTEX
  5
5FF
  8
0
  6
DURCHGEHEND
 62
     7
 10
949.24346588652668
 20
204.97234253670129
 30
0.0
  0
VERTEX
  5
600
  8
0
  6
DURCHGEHEND
 62
     7
 10
949.93671125622836
 20
203.62632347649131
 30
0.0
  0
VERTEX
  5
601
  8
0
  6
DURCHGEHEND
 62
     7
 10
950.76211495642008
 20
202.35704605024779
 30
0.0
  0
VERTEX
  5
602
  8
0
  6
DURCHGEHEND
 62
     7
 10
951.71126756710839
 20
201.17744197485419
 30
0.0
  0
VERTEX
  5
603
  8
0
  6
DURCHGEHEND
 62
     7
 10
952.7744988833507
 20
200.09952935259631
 30
0.0
  0
VERTEX
  5
604
  8
0
  6
DURCHGEHEND
 62
     7
 10
953.94097643773
 20
199.13429022772041
 30
0.0
  0
VERTEX
  5
605
  8
0
  6
DURCHGEHEND
 62
     7
 10
955.19881586424992
 20
198.29155869861199
 30
0.0
  0
VERTEX
  5
606
  8
0
  6
DURCHGEHEND
 62
     7
 10
956.53520197923808
 20
197.5799207255329
 30
0.0
  0
VERTEX
  5
607
  8
0
  6
DURCHGEHEND
 62
     7
 10
957.93651934565241
 20
197.00662665470449
 30
0.0
  0
VERTEX
  5
608
  8
0
  6
DURCHGEHEND
 62
     7
 10
959.38849099056995
 20
196.57751734996151
 30
0.0
  0
VERTEX
  5
609
  8
0
  6
DURCHGEHEND
 62
     7
 10
960.87632386256871
 20
196.2969646845651
 30
0.0
  0
VERTEX
  5
60A
  8
0
  6
DURCHGEHEND
 62
     7
 10
962.38485954704799
 20
196.16782699946171
 30
0.0
  0
VERTEX
  5
60B
  8
0
  6
DURCHGEHEND
 62
     7
 10
1224.06006205822
 20
187.0299275708625
 30
0.0
  0
VERTEX
  5
60C
  8
0
  6
DURCHGEHEND
 62
     7
 10
1224.5699059135211
 20
186.98591972378489
 30
0.0
  0
VERTEX
  5
60D
  8
0
  6
DURCHGEHEND
 62
     7
 10
1225.0725812263049
 20
186.89002927946811
 30
0.0
  0
VERTEX
  5
60E
  8
0
  6
DURCHGEHEND
 62
     7
 10
1225.562822423459
 20
186.74326069970351
 30
0.0
  0
VERTEX
  5
60F
  8
0
  6
DURCHGEHEND
 62
     7
 10
1226.035494180451
 20
186.5471513997322
 30
0.0
  0
VERTEX
  5
610
  8
0
  6
DURCHGEHEND
 62
     7
 10
1226.485645214354
 20
186.3037556436696
 30
0.0
  0
VERTEX
  5
611
  8
0
  6
DURCHGEHEND
 62
     7
 10
1226.908560149019
 20
186.015623025888
 30
0.0
  0
VERTEX
  5
612
  8
0
  6
DURCHGEHEND
 62
     7
 10
1227.2998089091061
 20
185.6857717637655
 30
0.0
  0
VERTEX
  5
613
  8
0
  6
DURCHGEHEND
 62
     7
 10
1227.6552931255501
 20
185.31765708156379
 30
0.0
  0
VERTEX
  5
614
  8
0
  6
DURCHGEHEND
 62
     7
 10
1227.971289066383
 20
184.91513501661601
 30
0.0
  0
VERTEX
  5
615
  8
0
  6
DURCHGEHEND
 62
     7
 10
1228.2444866431911
 20
184.48242202695741
 30
0.0
  0
VERTEX
  5
616
  8
0
  6
DURCHGEHEND
 62
     7
 10
1228.472024084612
 20
184.02405082351561
 30
0.0
  0
VERTEX
  5
617
  8
0
  6
DURCHGEHEND
 62
     7
 10
1228.651517913672
 20
183.5448228895192
 30
0.0
  0
VERTEX
  5
618
  8
0
  6
DURCHGEHEND
 62
     7
 10
1228.7810879149399
 20
183.04975818449111
 30
0.0
  0
VERTEX
  5
619
  8
0
  6
DURCHGEHEND
 62
     7
 10
1228.8593768299679
 20
182.54404255968129
 30
0.0
  0
VERTEX
  5
61A
  8
0
  6
DURCHGEHEND
 62
     7
 10
1228.885564574708
 20
182.03297343576699
 30
0.0
  0
VERTEX
  5
61B
  8
0
  6
DURCHGEHEND
 62
     7
 10
1228.885564574708
 20
178.86141730980239
 30
0.0
  0
VERTEX
  5
61C
  8
0
  6
DURCHGEHEND
 62
     7
 10
1248.8855645747069
 20
178.86141730980239
 30
0.0
  0
VERTEX
  5
61D
  8
0
  6
DURCHGEHEND
 62
     7
 10
1248.8855645747069
 20
195.37254229197029
 30
0.0
  0
SEQEND
  5
61E
  8
0
  6
DURCHGEHEND
 62
     7
  0
INSERT
  5
62
  8
0
  6
CONTINUOUS
 62
     7
  2
*U26
 10
0.0
 20
0.0
 30
0.0
1001
ACAD
1002
{
1000
R14_HATCH_DATA
1000
62
1011
1.0
1021
0.0
1031
0.0
1021
0.0
1031
0.0
1011
0.0
1021
0.0
1031
0.0
1021
1.0
1031
0.0
1011
0.0
1021
0.0
1031
0.0
1021
0.0
1031
1.0
1040
0.0
1010
0.0
1020
0.0
1030
1.0
1000
SOLID
1070
     1
1070
     1
1071
        1
1071
        3
1070
     0
1070
     1
1071
       54
1040
1242.3441780465871
1040
200.86141731510389
1040
972.33629331539157
1040
210.29030041875649
1040
970.82828901750088
1040
210.41936545760279
1040
969.3409674760079
1040
210.6997390992307
1040
967.88947117595524
1040
211.12856684744929
1040
966.48857786405063
1040
211.7014827883778
1040
965.15255009578755
1040
212.41265404000359
1040
963.89499002774949
1040
213.25484013700679
1040
962.72870093346557
1040
214.21946674625141
1040
961.66555685272624
1040
215.29671296244251
1040
960.71638170147173
1040
216.47561129518789
1040
959.89083907303404
1040
217.7441593294937
1040
959.19733385267466
1040
219.0894419228708
1040
958.64292664708398
1040
220.49776269495999
1040
958.23326190003797
1040
221.95478347097409
1040
957.97251042607286
1040
223.44567025927631
1040
906.52469636673572
1040
640.72754229587918
1040
876.52469636673561
1040
640.72754229587918
1040
876.52469636673561
1040
628.72754229587918
1040
896.52469636673572
1040
628.72754229587918
1040
948.02015972296579
1040
209.3306492536708
1040
948.28028354823175
1040
207.83910909377229
1040
948.68944180507856
1040
206.38138965097281
1040
949.24346588652668
1040
204.97234253670129
1040
949.93671125622836
1040
203.62632347649131
1040
950.76211495642008
1040
202.35704605024779
1040
951.71126756710839
1040
201.17744197485419
1040
952.7744988833507
1040
200.09952935259631
1040
953.94097643773
1040
199.13429022772041
1040
955.19881586424992
1040
198.29155869861199
1040
956.53520197923808
1040
197.5799207255329
1040
957.93651934565241
1040
197.00662665470449
1040
959.38849099056995
1040
196.57751734996151
1040
960.87632386256871
1040
196.2969646845651
1040
962.38485954704799
1040
196.16782699946171
1040
1224.06006205822
1040
187.0299275708625
1040
1224.5699059135211
1040
186.98591972378489
1040
1225.0725812263049
1040
186.89002927946811
1040
1225.562822423459
1040
186.74326069970351
1040
1226.035494180451
1040
186.5471513997322
1040
1226.485645214354
1040
186.3037556436696
1040
1226.908560149019
1040
186.015623025888
1040
1227.2998089091061
1040
185.6857717637655
1040
1227.6552931255501
1040
185.31765708156379
1040
1227.971289066383
1040
184.91513501661601
1040
1228.2444866431911
1040
184.48242202695741
1040
1228.472024084612
1040
184.02405082351561
1040
1228.651517913672
1040
183.5448228895192
1040
1228.7810879149399
1040
183.04975818449111
1040
1228.8593768299679
1040
182.54404255968129
1040
1228.885564574708
1040
182.03297343576699
1040
1228.885564574708
1040
178.86141730980239
1040
1248.8855645747069
1040
178.86141730980239
1040
1248.8855645747069
1040
195.37254229197029
1071
        1
1005
63
1070
     0
1070
     0
1071
        0
1002
}
  0
DIMENSION
  5
70
  8
0
  6
DURCHGEHEND
 62
     7
  2
*D4
 10
1433.7766556129779
 20
746.26881752507677
 30
0.0
 11
1155.1506759898571
 21
760.26881752507688
 31
0.0
 70
     1
  1
557
 13
876.52469636673561
 23
640.72754229587918
 33
0.0
 14
1433.7766556129779
 24
640.7275422958794
 34
0.0
1001
TCAD
1000
TCW_CUSTOM_DATA
1002
{
1000
#$AUX@_ToolInfo Properties
1070
     8
1000
CMD_PARALLELDIM@
1002
}
1001
ACAD
1000
DSTYLE
1002
{
1002
}
  0
DIMENSION
  5
7D
  8
0
  6
DURCHGEHEND
 62
     7
  2
*D5
 10
1489.6893560725459
 20
640.40353038414185
 30
0.0
 11
1489.5554810628671
 21
420.5807803857885
 31
0.0
 70
     1
  1
440
 13
1318.5926036223559
 23
200.8620675462557
 33
0.0
 14
1318.8603536417149
 24
640.50756754296242
 34
0.0
1001
TCAD
1000
TCW_CUSTOM_DATA
1002
{
1000
#$AUX@_ToolInfo Properties
1070
     8
1000
CMD_PARALLELDIM@
1002
}
1001
ACAD
1000
DSTYLE
1002
{
1002
}
  0
DIMENSION
  5
8A
  8
0
  6
DURCHGEHEND
 62
     7
  2
*D6
 10
1625.370980528905
 20
641.32042266173016
 30
0.0
 11
1626.1072929974439
 21
410.5868601806601
 31
0.0
 70
     1
  1
462
 13
1330.172791114351
 23
178.90656755201229
 33
0.0
 14
1328.700166177272
 24
640.37369251415237
 34
0.0
1001
TCAD
1000
TCW_CUSTOM_DATA
1002
{
1000
#$AUX@_ToolInfo Properties
1070
     8
1000
CMD_PARALLELDIM@
1002
}
1001
ACAD
1000
DSTYLE
1002
{
1002
}
  0
DIMENSION
  5
97
  8
0
  6
DURCHGEHEND
 62
     7
  2
*D7
 10
1310.9282598574209
 20
133.28866129217931
 30
0.0
 11
1342.9946661074209
 21
147.28866129211011
 31
0.0
 70
     1
  1
62
 13
1248.8939317326469
 23
178.87309880555651
 33
0.0
 14
1310.9282598575201
 24
178.87309880542259
 34
0.0
1001
TCAD
1000
TCW_CUSTOM_DATA
1002
{
1000
#$AUX@_ToolInfo Properties
1070
     8
1000
CMD_PARALLELDIM@
1002
}
1001
ACAD
1000
DSTYLE
1002
{
1002
}
  0
LINE
  5
98
  8
0
  6
DURCHGEHEND
 62
     7
 10
1403.435884868635
 20
137.84041121253
 30
-0.0000000000000615
 11
1403.435884868635
 21
-6.0172245489239984
 31
0.0000000000000001
1001
TCAD
1000
TCW_CUSTOM_DATA
1002
{
1000
#$AUX@_ToolInfo Properties
1070
     8
1000
CMD_LINE@
1002
}
  0
LINE
  5
99
  8
0
  6
DURCHGEHEND
 62
     7
 10
1433.7766556129779
 20
137.84041121253
 30
-0.0000000000000601
 11
1433.7766556129779
 21
-7.8155888020354487
 31
0.0000000000000038
1001
TCAD
1000
TCW_CUSTOM_DATA
1002
{
1000
#$AUX@_ToolInfo Properties
1070
     8
1000
CMD_LINE@
1002
}
  0
LINE
  5
9A
  8
0
  6
DURCHGEHEND
 62
     7
 10
1280.137009872223
 20
178.80616129617519
 30
0.0000000000000001
 11
1280.40475997761
 21
69.296411205675653
 31
0.0000000000000197
1001
TCAD
1000
TCW_CUSTOM_DATA
1002
{
1000
#$AUX@_ToolInfo Properties
1070
     8
1000
CMD_LINE@
1002
}
  0
DIMENSION
  5
A9
  8
0
  6
DURCHGEHEND
 62
     7
  2
*D8
 10
1404.6407598614601
 20
100.278411306778
 30
0.0
 11
1343.058259855301
 21
114.278411306778
 31
0.0
 70
     1
  1
124
 13
1281.4757598491431
 23
100.278411306778
 33
0.0
 14
1404.6407598614601
 24
100.278411306778
 34
0.0
1001
TCAD
1000
TCW_CUSTOM_DATA
1002
{
1000
#$AUX@_ToolInfo Properties
1070
     8
1000
CMD_PARALLELDIM@
1002
}
1001
ACAD
1000
DSTYLE
1002
{
1002
}
  0
DIMENSION
  5
B7
  8
0
  6
DURCHGEHEND
 62
     7
  2
*D9
 10
1433.5577599420519
 20
84.290411268114966
 30
0.0
 11
1485.6241661920519
 21
98.290411268114966
 31
0.0
 70
     1
  1
30
 13
1403.5697599390539
 23
84.290411268114966
 33
0.0
 14
1433.5577599420519
 24
84.290411268114966
 34
0.0
1001
TCAD
1000
TCW_CUSTOM_DATA
1002
{
1000
#$AUX@_ToolInfo Properties
1070
     8
1000
CMD_PARALLELDIM@
1002
}
1001
ACAD
1000
DSTYLE
1002
{
1002
}
  0
POLYLINE
  5
33E
  8
LAYER01
  6
CONTINUOUS
 62
     7
 66
     1
 10
0.0
 20
0.0
 30
0.0
 70
     1
  0
VERTEX
  5
726
  8
LAYER01
  6
CONTINUOUS
 62
     7
 10
-1472.483052041558
 20
-1146.3737419374031
 30
0.0
  0
VERTEX
  5
727
  8
LAYER01
  6
CONTINUOUS
 62
     7
 10
-1472.483052041558
 20
1949.4971500625959
 30
0.0
  0
VERTEX
  5
728
  8
LAYER01
  6
CONTINUOUS
 62
     7
 10
3492.6690089584422
 20
1949.4971500625959
 30
0.0
  0
VERTEX
  5
729
  8
LAYER01
  6
CONTINUOUS
 62
     7
 10
3492.6690089584422
 20
-1146.3737419374031
 30
0.0
  0
SEQEND
  5
72A
  8
LAYER01
  6
CONTINUOUS
 62
     7
  0
INSERT
  5
33F
  8
LAYER01
  2
DEFAULT2-G6
 10
-1356.3920210415581
 20
-1209.400801937403
 30
0.0
  0
TEXT
  5
340
  8
LAYER01
  6
VERDECKT
 62
     1
 10
3246.466765958442
 20
-713.77702493740355
 30
0.0
 40
14.0
  1
xxx.skd
  7
SIMPLEX
  0
TEXT
  5
341
  8
LAYER01
  6
VERDECKT
 62
     1
 10
2793.3255159584419
 20
-804.04666093740354
 30
0.0
 40
35.0
  1
A. Sprenger GmbH
  7
SIMPLEX
  0
TEXT
  5
342
  8
LAYER01
  6
CONTINUOUS
 62
     7
 10
2781.9712969584421
 20
-587.2963249374036
 30
0.0
 40
10.5
  1
Diese Zeichnung ist geistiges Eigentum der A. Sprenger GmbH
  7
SIMPLEX
  0
TEXT
  5
343
  8
LAYER01
  6
CONTINUOUS
 62
     7
 10
2781.9712969584421
 20
-605.2963249374036
 30
0.0
 40
10.5
  1
und urheberrechtlich geschützt. Ohne unsere Zustimmung darf 
  7
SIMPLEX
  0
TEXT
  5
344
  8
LAYER01
  6
CONTINUOUS
 62
     7
 10
2781.9712969584421
 20
-623.29632493740348
 30
0.0
 40
10.5
  1
sie in keiner Form verwendet oder Dritten zugänglich gemacht
  7
SIMPLEX
  0
TEXT
  5
345
  8
LAYER01
  6
CONTINUOUS
 62
     7
 10
2781.9712969584421
 20
-641.2963249374036
 30
0.0
 40
10.5
  1
werden. (§106 Urheberrecht)
  7
SIMPLEX
  0
TEXT
  5
346
  8
LAYER01
  6
VERDECKT
 62
     1
 10
2468.9930279584419
 20
-885.08537893740311
 30
0.0
 40
14.0
  1
2014
  7
SIMPLEX
  0
TEXT
  5
347
  8
LAYER01
  6
VERDECKT
 62
     1
 10
2793.3255159584419
 20
-941.50269893740324
 30
0.0
 40
49.0
  1
UBL654
  7
SIMPLEX
  0
INSERT
  5
348
  8
LAYER01
  6
CONTINUOUS
 62
     7
  2
WMF0
 10
1541.6578568895691
 20
-2041.4771804654899
 30
0.0
 41
0.25
 42
0.25
 43
0.25
  0
ENDSEC
  0
EOF
