  0
SECTION
  2
HEADER
  9
$ACADVER
  1
AC1009
  9
$INSBASE
 10
0.0
 20
0.0
 30
0.0
  9
$EXTMIN
 10
-2685.1802044094238
 20
-1012.421123369778
 30
-84.366799999999998
  9
$EXTMAX
 10
-1524.9565094235711
 20
1382.9325113195621
 30
88.290899999999979
  9
$LIMMIN
 10
-2829.7395766067748
 20
-1085.6808996448281
  9
$LIMMAX
 10
-1289.251121891733
 20
1452.591979813765
  9
$ORTHOMODE
 70
     1
  9
$REGENMODE
 70
     1
  9
$FILLMODE
 70
     1
  9
$QTEXTMODE
 70
     0
  9
$MIRRTEXT
 70
     1
  9
$DRAGMODE
 70
     2
  9
$LTSCALE
 40
1.5
  9
$OSMODE
 70
    37
  9
$ATTMODE
 70
     1
  9
$TEXTSIZE
 40
50.0
  9
$TRACEWID
 40
1.0
  9
$TEXTSTYLE
  7
STANDARD
  9
$CLAYER
  8
KERA4
  9
$CELTYPE
  6
BYLAYER
  9
$CECOLOR
 62
   256
  9
$DIMSCALE
 40
1.0
  9
$DIMASZ
 40
45.0
  9
$DIMEXO
 40
15.0
  9
$DIMDLI
 40
15.0
  9
$DIMRND
 40
0.0
  9
$DIMDLE
 40
0.0
  9
$DIMEXE
 40
15.0
  9
$DIMTP
 40
0.0
  9
$DIMTM
 40
0.0
  9
$DIMTXT
 40
50.0
  9
$DIMCEN
 40
20.0
  9
$DIMTSZ
 40
0.0
  9
$DIMTOL
 70
     0
  9
$DIMLIM
 70
     0
  9
$DIMTIH
 70
     1
  9
$DIMTOH
 70
     1
  9
$DIMSE1
 70
     0
  9
$DIMSE2
 70
     0
  9
$DIMTAD
 70
     0
  9
$DIMZIN
 70
     8
  9
$DIMBLK
  1

  9
$DIMASO
 70
     1
  9
$DIMSHO
 70
     1
  9
$DIMPOST
  1

  9
$DIMAPOST
  1

  9
$DIMALT
 70
     0
  9
$DIMALTD
 70
     4
  9
$DIMALTF
 40
0.0394
  9
$DIMLFAC
 40
1.0
  9
$DIMTOFL
 70
     0
  9
$DIMTVP
 40
0.0
  9
$DIMTIX
 70
     1
  9
$DIMSOXD
 70
     0
  9
$DIMSAH
 70
     0
  9
$DIMBLK1
  1

  9
$DIMBLK2
  1

  9
$DIMSTYLE
  2
STANDARD
  9
$DIMCLRD
 70
   256
  9
$DIMCLRE
 70
   256
  9
$DIMCLRT
 70
   256
  9
$DIMTFAC
 40
1.0
  9
$DIMGAP
 40
15.0
  9
$LUNITS
 70
     2
  9
$LUPREC
 70
     4
  9
$SKETCHINC
 40
1.0
  9
$FILLETRAD
 40
8.0
  9
$AUNITS
 70
     0
  9
$AUPREC
 70
     1
  9
$MENU
  1
.
  9
$ELEVATION
 40
0.0
  9
$PELEVATION
 40
0.0
  9
$THICKNESS
 40
0.0
  9
$LIMCHECK
 70
     0
  9
$BLIPMODE
 70
     0
  9
$CHAMFERA
 40
0.0
  9
$CHAMFERB
 40
0.0
  9
$SKPOLY
 70
     0
  9
$TDCREATE
 40
2452451.392482813
  9
$TDUPDATE
 40
2456280.4893523501
  9
$TDINDWG
 40
0.9865473380000001
  9
$TDUSRTIMER
 40
0.9865473380000001
  9
$USRTIMER
 70
     1
  9
$ANGBASE
 50
0.0
  9
$ANGDIR
 70
     0
  9
$PDMODE
 70
     0
  9
$PDSIZE
 40
0.0
  9
$PLINEWID
 40
0.0
  9
$COORDS
 70
     1
  9
$SPLFRAME
 70
     0
  9
$SPLINETYPE
 70
     6
  9
$SPLINESEGS
 70
     8
  9
$ATTDIA
 70
     0
  9
$ATTREQ
 70
     1
  9
$HANDLING
 70
     1
  9
$HANDSEED
  5
109FA
  9
$SURFTAB1
 70
     6
  9
$SURFTAB2
 70
     6
  9
$SURFTYPE
 70
     6
  9
$SURFU
 70
     6
  9
$SURFV
 70
     6
  9
$UCSNAME
  2

  9
$UCSORG
 10
0.0
 20
0.0
 30
0.0
  9
$UCSXDIR
 10
1.0
 20
0.0
 30
0.0
  9
$UCSYDIR
 10
0.0
 20
1.0
 30
0.0
  9
$PUCSNAME
  2

  9
$PUCSORG
 10
0.0
 20
0.0
 30
0.0
  9
$PUCSXDIR
 10
1.0
 20
0.0
 30
0.0
  9
$PUCSYDIR
 10
0.0
 20
1.0
 30
0.0
  9
$USERI1
 70
     0
  9
$USERI2
 70
     0
  9
$USERI3
 70
     0
  9
$USERI4
 70
     0
  9
$USERI5
 70
     0
  9
$USERR1
 40
0.0
  9
$USERR2
 40
0.0
  9
$USERR3
 40
0.0
  9
$USERR4
 40
0.0
  9
$USERR5
 40
0.0
  9
$WORLDVIEW
 70
     1
  9
$SHADEDGE
 70
     3
  9
$SHADEDIF
 70
    70
  9
$TILEMODE
 70
     1
  9
$MAXACTVP
 70
    48
  9
$PLIMCHECK
 70
     0
  9
$PEXTMIN
 10
1.0000000000000000E+020
 20
1.0000000000000000E+020
 30
1.0000000000000000E+020
  9
$PEXTMAX
 10
-1.0000000000000000E+020
 20
-1.0000000000000000E+020
 30
-1.0000000000000000E+020
  9
$PLIMMIN
 10
0.0
 20
0.0
  9
$PLIMMAX
 10
420.0
 20
297.0
  9
$UNITMODE
 70
     0
  9
$VISRETAIN
 70
     1
  9
$PLINEGEN
 70
     0
  9
$PSLTSCALE
 70
     1
  0
ENDSEC
  0
SECTION
  2
TABLES
  0
TABLE
  2
VPORT
 70
     1
  0
VPORT
  2
*ACTIVE
 70
     0
 10
0.0
 20
0.0
 11
1.0
 21
1.0
 12
432.02550404354719
 22
118.64569221960841
 13
0.0
 23
0.0
 14
100.0
 24
100.0
 15
100.0
 25
100.0
 16
0.0
 26
0.0
 36
1.0
 17
0.0
 27
0.0
 37
0.0
 40
3070.5035473907192
 41
2.0374100719424462
 42
50.0
 43
0.0
 44
0.0
 50
0.0
 51
0.0
 71
     0
 72
   100
 73
     1
 74
     0
 75
     0
 76
     1
 77
     0
 78
     0
  0
ENDTAB
  0
TABLE
  2
LTYPE
 70
     3
  0
LTYPE
  2
CONTINUOUS
 70
     0
  3
Solid line
 72
    65
 73
     0
 40
0.0
  0
LTYPE
  2
STRICHLINIE
 70
     0
  3
Strichlinie __ __ __ __ __ __ __ __ __ __ __ __
 72
    65
 73
     2
 40
19.050000000000001
 49
12.699999999999999
 49
-6.3499999999999988
  0
LTYPE
  2
STRICHPUNKT2
 70
     0
  3
Strichpunkt (.5x) _._._._._._._._._._._._._._._
 72
    65
 73
     4
 40
12.699999999999999
 49
6.3499999999999988
 49
-3.1749999999999989
 49
0.0
 49
-3.1749999999999989
  0
ENDTAB
  0
TABLE
  2
LAYER
 70
    10
  0
LAYER
  2
0
 70
     0
 62
     7
  6
CONTINUOUS
  0
LAYER
  2
KERA0
 70
     0
 62
     5
  6
CONTINUOUS
  0
LAYER
  2
KERA1
 70
     0
 62
    10
  6
STRICHLINIE
  0
LAYER
  2
KERA2
 70
     0
 62
    18
  6
STRICHPUNKT2
  0
LAYER
  2
KERA3
 70
     0
 62
   160
  6
CONTINUOUS
  0
LAYER
  2
KERA4
 70
     0
 62
     1
  6
CONTINUOUS
  0
LAYER
  2
KERA6
 70
     0
 62
    20
  6
CONTINUOUS
  0
LAYER
  2
KERA7
 70
     0
 62
    22
  6
CONTINUOUS
  0
LAYER
  2
DEFPOINTS
 70
     0
 62
     7
  6
CONTINUOUS
  0
LAYER
  2
ASHADE
 70
     4
 62
     7
  6
CONTINUOUS
  0
ENDTAB
  0
TABLE
  2
STYLE
 70
     2
  0
STYLE
  2
STANDARD
 70
     0
 40
45.0
 41
1.0
 50
0.0
 71
     0
 42
50.0
  3
txt
  4

  0
STYLE
  2
ROMANS
 70
     0
 40
0.0
 41
1.0
 50
0.0
 71
     0
 42
0.2
  3
romans
  4

  0
ENDTAB
  0
TABLE
  2
VIEW
 70
     0
  0
ENDTAB
  0
TABLE
  2
UCS
 70
     0
  0
ENDTAB
  0
TABLE
  2
APPID
 70
     8
  0
APPID
  2
ACAD
 70
     0
  0
APPID
  2
AVE_RENDER
 70
     0
  0
APPID
  2
AVE_ENTITY_MATERIAL
 70
     0
  0
APPID
  2
AVE_FINISH
 70
     0
  0
APPID
  2
AVE_MATERIAL
 70
     0
  0
APPID
  2
AVE_GLOBAL
 70
     0
  0
APPID
  2
DCO15
 70
     0
  0
APPID
  2
ACAD_MLEADERVER
 70
     0
  0
ENDTAB
  0
TABLE
  2
DIMSTYLE
 70
     1
  0
DIMSTYLE
  2
STANDARD
 70
     0
  3

  4

  5

  6

  7

 40
1.0
 41
0.18
 42
0.0625
 43
0.38
 44
0.18
 45
0.0
 46
0.0
 47
0.0
 48
0.0
140
0.18
141
0.09
142
0.0
143
25.399999999999999
144
1.0
145
0.0
146
1.0
147
0.09
 71
     0
 72
     0
 73
     1
 74
     1
 75
     0
 76
     0
 77
     0
 78
     0
170
     0
171
     2
172
     0
173
     0
174
     0
175
     0
176
     0
177
     0
178
     0
  0
ENDTAB
  0
ENDSEC
  0
SECTION
  2
BLOCKS
  0
BLOCK
  8
0
  2
$MODEL_SPACE
 70
     0
 10
0.0
 20
0.0
 30
0.0
  3
$MODEL_SPACE
  1

  0
ENDBLK
  5
1A
  8
0
  0
BLOCK
 67
     1
  8
0
  2
$PAPER_SPACE
 70
     0
 10
0.0
 20
0.0
 30
0.0
  3
$PAPER_SPACE
  1

  0
ENDBLK
  5
17
 67
     1
  8
0
  0
BLOCK
  8
ASHADE
  2
AVE_RENDER
 70
     0
 10
0.0
 20
0.0
 30
0.0
  3
AVE_RENDER
  1
AVE_RENDER
  0
ENDBLK
  5
563A
  8
0
  0
BLOCK
  8
ASHADE
  2
AVE_GLOBAL
 70
     0
 10
0.0
 20
0.0
 30
0.0
  3
AVE_GLOBAL
  1
AVE_GLOBAL
  0
ENDBLK
  5
5648
  8
0
  0
BLOCK
  8
0
  2
OKFFB
 70
     0
 10
0.0
 20
0.0
 30
0.0
  3
OKFFB
  1

  0
LINE
  5
D93A
  8
KERA7
 10
-157.29996273999919
 20
0.0
 30
0.0
 11
521.51597723110444
 21
0.0
 31
0.0
  0
LINE
  5
D93B
  8
KERA6
 10
0.0
 20
0.2761300000001938
 30
-84.366799999999998
 11
0.0
 21
0.2761300000001938
 31
88.290899999999979
  0
LINE
  5
D93C
  8
KERA6
 10
67.869999999999891
 20
67.869419999999991
 30
0.0
 11
344.52499999999992
 21
67.869419999999991
 31
0.0
  0
LINE
  5
D93D
  8
KERA6
 10
126.0522000000001
 20
93.629619999999704
 30
0.0
 11
117.0594000000001
 21
93.629619999999704
 31
0.0
  0
LINE
  5
D93E
  8
KERA6
 10
126.0522000000001
 20
83.593420000000151
 30
0.0
 11
117.0594000000001
 21
83.593420000000151
 31
0.0
  0
LINE
  5
D93F
  8
KERA6
 10
0.0
 20
29.126119999999901
 30
0.0
 11
11.00700000000006
 21
40.132219999999961
 31
0.0
  0
LINE
  5
D940
  8
KERA6
 10
0.0
 20
28.84321999999975
 30
0.0
 11
11.28899999999998
 21
40.132219999999961
 31
0.0
  0
LINE
  5
D941
  8
KERA6
 10
0.0
 20
28.560419999999791
 30
0.0
 11
11.571999999999891
 21
40.132219999999961
 31
0.0
  0
LINE
  5
D942
  8
KERA6
 10
0.0
 20
28.277520000000099
 30
0.0
 11
11.855000000000009
 21
40.132219999999961
 31
0.0
  0
LINE
  5
D943
  8
KERA6
 10
0.0
 20
27.994719999999688
 30
0.0
 11
12.13799999999992
 21
40.132219999999961
 31
0.0
  0
LINE
  5
D944
  8
KERA6
 10
0.0
 20
29.691719999999808
 30
0.0
 11
10.4409999999998
 21
40.132219999999961
 31
0.0
  0
LINE
  5
D945
  8
KERA6
 10
0.0
 20
27.711819999999989
 30
0.0
 11
12.42099999999982
 21
40.132219999999961
 31
0.0
  0
LINE
  5
D946
  8
KERA6
 10
0.0
 20
27.42902000000004
 30
0.0
 11
12.703999999999951
 21
40.132219999999961
 31
0.0
  0
LINE
  5
D947
  8
KERA6
 10
0.0
 20
27.146220000000088
 30
0.0
 11
12.985999999999869
 21
40.132219999999961
 31
0.0
  0
LINE
  5
D948
  8
KERA6
 10
0.0
 20
26.863319999999931
 30
0.0
 11
13.26899999999978
 21
40.132219999999961
 31
0.0
  0
LINE
  5
D949
  8
KERA6
 10
0.0
 20
26.580519999999979
 30
0.0
 11
13.551999999999911
 21
40.132219999999961
 31
0.0
  0
LINE
  5
D94A
  8
KERA6
 10
0.0
 20
29.408919999999849
 30
0.0
 11
10.723999999999929
 21
40.132219999999961
 31
0.0
  0
LINE
  5
D94B
  8
KERA6
 10
0.0
 20
26.297620000000279
 30
0.0
 11
13.835000000000029
 21
40.132219999999961
 31
0.0
  0
LINE
  5
D94C
  8
KERA6
 10
0.0
 20
26.014820000000331
 30
0.0
 11
14.11799999999994
 21
40.132219999999961
 31
0.0
  0
LINE
  5
D94D
  8
KERA6
 10
0.0
 20
25.73201999999992
 30
0.0
 11
14.40099999999984
 21
40.132219999999961
 31
0.0
  0
LINE
  5
D94E
  8
KERA6
 10
0.0
 20
25.449120000000221
 30
0.0
 11
14.682999999999989
 21
40.132219999999961
 31
0.0
  0
LINE
  5
D94F
  8
KERA6
 10
0.0
 20
25.166320000000269
 30
0.0
 11
14.965999999999889
 21
40.132219999999961
 31
0.0
  0
LINE
  5
D950
  8
KERA6
 10
0.0
 20
24.883420000000122
 30
0.0
 11
15.248999999999789
 21
40.132219999999961
 31
0.0
  0
LINE
  5
D951
  8
KERA6
 10
0.0
 20
24.60062000000017
 30
0.0
 11
15.53199999999992
 21
40.132219999999961
 31
0.0
  0
LINE
  5
D952
  8
KERA6
 10
0.0
 20
24.317720000000008
 30
0.0
 11
15.815000000000049
 21
40.132219999999961
 31
0.0
  0
LINE
  5
D953
  8
KERA6
 10
0.0
 20
24.03492000000006
 30
0.0
 11
16.097999999999949
 21
40.132219999999961
 31
0.0
  0
LINE
  5
D954
  8
KERA6
 10
0.0
 20
23.752120000000101
 30
0.0
 11
16.380999999999862
 21
40.132219999999961
 31
0.0
  0
LINE
  5
D955
  8
KERA6
 10
0.0
 20
23.46921999999995
 30
0.0
 11
16.663000000000011
 21
40.132219999999961
 31
0.0
  0
LINE
  5
D956
  8
KERA6
 10
0.0
 20
23.186419999999998
 30
0.0
 11
16.945999999999909
 21
40.132219999999961
 31
0.0
  0
LINE
  5
D957
  8
KERA6
 10
0.0
 20
22.90351999999984
 30
0.0
 11
17.228999999999811
 21
40.132219999999961
 31
0.0
  0
LINE
  5
D958
  8
KERA6
 10
0.0
 20
22.620719999999888
 30
0.0
 11
17.51199999999994
 21
40.132219999999961
 31
0.0
  0
LINE
  5
D959
  8
KERA6
 10
0.0
 20
22.337819999999741
 30
0.0
 11
17.795000000000069
 21
40.132219999999961
 31
0.0
  0
LINE
  5
D95A
  8
KERA6
 10
0.0
 20
22.055019999999789
 30
0.0
 11
18.077999999999971
 21
40.132219999999961
 31
0.0
  0
LINE
  5
D95B
  8
KERA6
 10
0.0
 20
21.772219999999841
 30
0.0
 11
18.3599999999999
 21
40.132219999999961
 31
0.0
  0
LINE
  5
D95C
  8
KERA6
 10
0.0
 20
21.48931999999968
 30
0.0
 11
18.643000000000029
 21
40.132219999999961
 31
0.0
  0
LINE
  5
D95D
  8
KERA6
 10
0.0
 20
21.206519999999731
 30
0.0
 11
18.925999999999931
 21
40.132219999999961
 31
0.0
  0
LINE
  5
D95E
  8
KERA6
 10
0.0
 20
20.923620000000032
 30
0.0
 11
19.208999999999829
 21
40.132219999999961
 31
0.0
  0
LINE
  5
D95F
  8
KERA6
 10
0.0
 20
20.640820000000069
 30
0.0
 11
19.491999999999958
 21
40.132219999999961
 31
0.0
  0
LINE
  5
D960
  8
KERA6
 10
0.0
 20
20.357919999999918
 30
0.0
 11
19.775000000000091
 21
40.132219999999961
 31
0.0
  0
LINE
  5
D961
  8
KERA6
 10
0.0
 20
20.07511999999997
 30
0.0
 11
20.056999999999789
 21
40.132219999999961
 31
0.0
  0
LINE
  5
D962
  8
KERA6
 10
0.0
 20
19.792320000000021
 30
0.0
 11
20.339999999999922
 21
40.132219999999961
 31
0.0
  0
LINE
  5
D963
  8
KERA6
 10
0.0
 20
19.509420000000318
 30
0.0
 11
20.623000000000051
 21
40.132219999999961
 31
0.0
  0
LINE
  5
D964
  8
KERA6
 10
0.0
 20
19.226619999999912
 30
0.0
 11
20.905999999999949
 21
40.132219999999961
 31
0.0
  0
LINE
  5
D965
  8
KERA6
 10
0.0
 20
9.8928200000000288
 30
0.0
 11
30.239999999999782
 21
40.132219999999961
 31
0.0
  0
LINE
  5
D966
  8
KERA6
 10
0.0
 20
9.6099199999998746
 30
0.0
 11
30.522999999999911
 21
40.132219999999961
 31
0.0
  0
LINE
  5
D967
  8
KERA6
 10
0.0
 20
9.3271199999999226
 30
0.0
 11
30.80600000000004
 21
40.132219999999961
 31
0.0
  0
LINE
  5
D968
  8
KERA6
 10
0.0
 20
9.0442199999997683
 30
0.0
 11
31.087999999999969
 21
40.132219999999961
 31
0.0
  0
LINE
  5
D969
  8
KERA6
 10
0.0
 20
8.7614199999998164
 30
0.0
 11
31.370999999999871
 21
40.132219999999961
 31
0.0
  0
LINE
  5
D96A
  8
KERA6
 10
0.0
 20
8.4785199999996621
 30
0.0
 11
31.654
 21
40.132219999999961
 31
0.0
  0
LINE
  5
D96B
  8
KERA6
 10
0.0
 20
8.1957199999997101
 30
0.0
 11
31.936999999999902
 21
40.132219999999961
 31
0.0
  0
LINE
  5
D96C
  8
KERA6
 10
0.0
 20
7.9129199999997581
 30
0.0
 11
32.2199999999998
 21
40.132219999999961
 31
0.0
  0
LINE
  5
D96D
  8
KERA6
 10
0.0
 20
7.6300200000000578
 30
0.0
 11
32.502999999999929
 21
40.132219999999961
 31
0.0
  0
LINE
  5
D96E
  8
KERA6
 10
0.0
 20
7.3472200000001058
 30
0.0
 11
32.784999999999847
 21
40.132219999999961
 31
0.0
  0
LINE
  5
D96F
  8
KERA6
 10
0.0
 20
7.0643199999999524
 30
0.0
 11
33.067999999999991
 21
40.132219999999961
 31
0.0
  0
LINE
  5
D970
  8
KERA6
 10
0.0
 20
6.7815200000000004
 30
0.0
 11
33.350999999999893
 21
40.132219999999961
 31
0.0
  0
LINE
  5
D971
  8
KERA6
 10
0.0
 20
6.4986200000003
 30
0.0
 11
33.634000000000022
 21
40.132219999999961
 31
0.0
  0
LINE
  5
D972
  8
KERA6
 10
0.0
 20
6.2158199999998942
 30
0.0
 11
33.916999999999923
 21
40.132219999999961
 31
0.0
  0
LINE
  5
D973
  8
KERA6
 10
0.0
 20
5.9330199999999422
 30
0.0
 11
34.199999999999818
 21
40.132219999999961
 31
0.0
  0
LINE
  5
D974
  8
KERA6
 10
0.0
 20
5.6501399999997366
 30
0.0
 11
34.481999999999971
 21
40.132219999999961
 31
0.0
  0
LINE
  5
D975
  8
KERA6
 10
0.0
 20
5.3672999999998856
 30
0.0
 11
34.764999999999873
 21
40.132219999999961
 31
0.0
  0
LINE
  5
D976
  8
KERA6
 10
0.0
 20
5.0844500000002881
 30
0.0
 11
35.048000000000002
 21
40.132219999999961
 31
0.0
  0
LINE
  5
D977
  8
KERA6
 10
0.0
 20
4.8016099999999824
 30
0.0
 11
35.330999999999896
 21
40.132219999999961
 31
0.0
  0
LINE
  5
D978
  8
KERA6
 10
0.0
 20
4.5187699999996758
 30
0.0
 11
35.614000000000033
 21
40.132219999999961
 31
0.0
  0
LINE
  5
D979
  8
KERA6
 10
0.0
 20
4.2359200000000783
 30
0.0
 11
35.896999999999927
 21
40.132219999999961
 31
0.0
  0
LINE
  5
D97A
  8
KERA6
 10
0.0
 20
3.9530800000002269
 30
0.0
 11
36.179999999999843
 21
40.132219999999961
 31
0.0
  0
LINE
  5
D97B
  8
KERA6
 10
0.0
 20
3.6702399999999211
 30
0.0
 11
36.461999999999989
 21
40.132219999999961
 31
0.0
  0
LINE
  5
D97C
  8
KERA6
 10
0.0
 20
3.3874000000000701
 30
0.0
 11
36.744999999999891
 21
40.132219999999961
 31
0.0
  0
LINE
  5
D97D
  8
KERA6
 10
0.0
 20
3.104550000000017
 30
0.0
 11
37.027999999999793
 21
40.132219999999961
 31
0.0
  0
LINE
  5
D97E
  8
KERA6
 10
0.0
 20
2.821710000000166
 30
0.0
 11
37.310999999999922
 21
40.132219999999961
 31
0.0
  0
LINE
  5
D97F
  8
KERA6
 10
0.0
 20
2.538870000000315
 30
0.0
 11
37.594000000000051
 21
40.132219999999961
 31
0.0
  0
LINE
  5
D980
  8
KERA6
 10
0.0
 20
2.2560300000000089
 30
0.0
 11
37.87699999999996
 21
40.132219999999961
 31
0.0
  0
LINE
  5
D981
  8
KERA6
 10
40.132999999999811
 20
40.132219999999961
 30
0.0
 11
0.0
 21
0.0
 31
0.0
  0
LINE
  5
D982
  8
KERA6
 10
0.0
 20
40.132219999999961
 30
0.0
 11
40.132999999999811
 21
40.132219999999961
 31
0.0
  0
LINE
  5
D983
  8
KERA6
 10
0.0
 20
18.943720000000209
 30
0.0
 11
21.188999999999851
 21
40.132219999999961
 31
0.0
  0
LINE
  5
D984
  8
KERA6
 10
0.0
 20
18.66092000000026
 30
0.0
 11
21.47199999999998
 21
40.132219999999961
 31
0.0
  0
LINE
  5
D985
  8
KERA6
 10
0.0
 20
18.378020000000099
 30
0.0
 11
21.754999999999882
 21
40.132219999999961
 31
0.0
  0
LINE
  5
D986
  8
KERA6
 10
0.0
 20
18.09522000000015
 30
0.0
 11
22.036999999999811
 21
40.132219999999961
 31
0.0
  0
LINE
  5
D987
  8
KERA6
 10
0.0
 20
17.812420000000198
 30
0.0
 11
22.319999999999929
 21
40.132219999999961
 31
0.0
  0
LINE
  5
D988
  8
KERA6
 10
0.0
 20
17.529520000000051
 30
0.0
 11
22.603000000000069
 21
40.132219999999961
 31
0.0
  0
LINE
  5
D989
  8
KERA6
 10
0.0
 20
17.246720000000089
 30
0.0
 11
22.885999999999971
 21
40.132219999999961
 31
0.0
  0
LINE
  5
D98A
  8
KERA6
 10
0.0
 20
16.963819999999942
 30
0.0
 11
23.168999999999869
 21
40.132219999999961
 31
0.0
  0
LINE
  5
D98B
  8
KERA6
 10
0.0
 20
16.68101999999999
 30
0.0
 11
23.451999999999771
 21
40.132219999999961
 31
0.0
  0
LINE
  5
D98C
  8
KERA6
 10
0.0
 20
16.398119999999832
 30
0.0
 11
23.733999999999931
 21
40.132219999999961
 31
0.0
  0
LINE
  5
D98D
  8
KERA6
 10
0.0
 20
16.11531999999988
 30
0.0
 11
24.016999999999829
 21
40.132219999999961
 31
0.0
  0
LINE
  5
D98E
  8
KERA6
 10
0.0
 20
15.83251999999993
 30
0.0
 11
24.299999999999962
 21
40.132219999999961
 31
0.0
  0
LINE
  5
D98F
  8
KERA6
 10
0.0
 20
15.54961999999977
 30
0.0
 11
24.58300000000008
 21
40.132219999999961
 31
0.0
  0
LINE
  5
D990
  8
KERA6
 10
0.0
 20
15.26681999999982
 30
0.0
 11
24.865999999999989
 21
40.132219999999961
 31
0.0
  0
LINE
  5
D991
  8
KERA6
 10
0.0
 20
14.983919999999671
 30
0.0
 11
25.148999999999891
 21
40.132219999999961
 31
0.0
  0
LINE
  5
D992
  8
KERA6
 10
0.0
 20
14.701119999999721
 30
0.0
 11
25.43100000000004
 21
40.132219999999961
 31
0.0
  0
LINE
  5
D993
  8
KERA6
 10
0.0
 20
14.418220000000019
 30
0.0
 11
25.713999999999938
 21
40.132219999999961
 31
0.0
  0
LINE
  5
D994
  8
KERA6
 10
0.0
 20
14.13542000000006
 30
0.0
 11
25.99699999999984
 21
40.132219999999961
 31
0.0
  0
LINE
  5
D995
  8
KERA6
 10
0.0
 20
13.852619999999661
 30
0.0
 11
26.279999999999969
 21
40.132219999999961
 31
0.0
  0
LINE
  5
D996
  8
KERA6
 10
0.0
 20
13.569719999999959
 30
0.0
 11
26.562999999999871
 21
40.132219999999961
 31
0.0
  0
LINE
  5
D997
  8
KERA6
 10
0.0
 20
13.286920000000009
 30
0.0
 11
26.846
 21
40.132219999999961
 31
0.0
  0
LINE
  5
D998
  8
KERA6
 10
0.0
 20
13.00402000000031
 30
0.0
 11
27.128999999999898
 21
40.132219999999961
 31
0.0
  0
LINE
  5
D999
  8
KERA6
 10
0.0
 20
12.721219999999899
 30
0.0
 11
27.411000000000062
 21
40.132219999999961
 31
0.0
  0
LINE
  5
D99A
  8
KERA6
 10
0.0
 20
12.4383200000002
 30
0.0
 11
27.69399999999996
 21
40.132219999999961
 31
0.0
  0
LINE
  5
D99B
  8
KERA6
 10
0.0
 20
12.15552000000025
 30
0.0
 11
27.976999999999862
 21
40.132219999999961
 31
0.0
  0
LINE
  5
D99C
  8
KERA6
 10
0.0
 20
11.872720000000299
 30
0.0
 11
28.259999999999991
 21
40.132219999999961
 31
0.0
  0
LINE
  5
D99D
  8
KERA6
 10
0.0
 20
11.58982000000014
 30
0.0
 11
28.542999999999889
 21
40.132219999999961
 31
0.0
  0
LINE
  5
D99E
  8
KERA6
 10
0.0
 20
11.30702000000019
 30
0.0
 11
28.826000000000018
 21
40.132219999999961
 31
0.0
  0
LINE
  5
D99F
  8
KERA6
 10
0.0
 20
11.024120000000041
 30
0.0
 11
29.107999999999951
 21
40.132219999999961
 31
0.0
  0
LINE
  5
D9A0
  8
KERA6
 10
0.0
 20
10.74132000000008
 30
0.0
 11
29.39100000000008
 21
40.132219999999961
 31
0.0
  0
LINE
  5
D9A1
  8
KERA6
 10
0.0
 20
10.458419999999929
 30
0.0
 11
29.673999999999982
 21
40.132219999999961
 31
0.0
  0
LINE
  5
D9A2
  8
KERA6
 10
0.0
 20
10.175619999999981
 30
0.0
 11
29.95699999999988
 21
40.132219999999961
 31
0.0
  0
LINE
  5
D9A3
  8
KERA6
 10
0.0
 20
1.973179999999956
 30
0.0
 11
38.158999999999878
 21
40.132219999999961
 31
0.0
  0
LINE
  5
D9A4
  8
KERA6
 10
0.0
 20
1.690340000000105
 30
0.0
 11
38.442000000000007
 21
40.132219999999961
 31
0.0
  0
LINE
  5
D9A5
  8
KERA6
 10
0.0
 20
1.407500000000254
 30
0.0
 11
38.724999999999909
 21
40.132219999999961
 31
0.0
  0
LINE
  5
D9A6
  8
KERA6
 10
0.0
 20
1.1246499999997459
 30
0.0
 11
39.007999999999811
 21
40.132219999999961
 31
0.0
  0
LINE
  5
D9A7
  8
KERA6
 10
0.0
 20
0.8418099999998958
 30
0.0
 11
39.29099999999994
 21
40.132219999999961
 31
0.0
  0
LINE
  5
D9A8
  8
KERA6
 10
0.0
 20
0.5589700000000449
 30
0.0
 11
39.574000000000069
 21
40.132219999999961
 31
0.0
  0
LINE
  5
D9A9
  8
KERA6
 10
0.0
 20
0.2761300000001938
 30
0.0
 11
39.856000000000002
 21
40.132219999999961
 31
0.0
  0
LINE
  5
D9AA
  8
KERA6
 10
0.0
 20
34.500119999999697
 30
0.0
 11
5.6329999999998099
 21
40.132219999999961
 31
0.0
  0
LINE
  5
D9AB
  8
KERA6
 10
0.0
 20
34.217219999999998
 30
0.0
 11
5.9149999999999627
 21
40.132219999999961
 31
0.0
  0
LINE
  5
D9AC
  8
KERA6
 10
0.0
 20
33.934420000000053
 30
0.0
 11
6.1979999999998654
 21
40.132219999999961
 31
0.0
  0
LINE
  5
D9AD
  8
KERA6
 10
0.0
 20
33.651519999999891
 30
0.0
 11
6.4809999999999937
 21
40.132219999999961
 31
0.0
  0
LINE
  5
D9AE
  8
KERA6
 10
0.0
 20
33.368719999999939
 30
0.0
 11
6.7639999999998963
 21
40.132219999999961
 31
0.0
  0
LINE
  5
D9AF
  8
KERA6
 10
0.0
 20
33.085919999999987
 30
0.0
 11
7.0470000000000246
 21
40.132219999999961
 31
0.0
  0
LINE
  5
D9B0
  8
KERA6
 10
0.0
 20
32.803020000000288
 30
0.0
 11
7.3299999999999272
 21
40.132219999999961
 31
0.0
  0
LINE
  5
D9B1
  8
KERA6
 10
0.0
 20
32.520219999999881
 30
0.0
 11
7.6119999999998518
 21
40.132219999999961
 31
0.0
  0
LINE
  5
D9B2
  8
KERA6
 10
0.0
 20
29.974619999999959
 30
0.0
 11
10.1579999999999
 21
40.132219999999961
 31
0.0
  0
LINE
  5
D9B3
  8
KERA6
 10
0.0
 20
32.237320000000182
 30
0.0
 11
7.8949999999999809
 21
40.132219999999961
 31
0.0
  0
LINE
  5
D9B4
  8
KERA6
 10
0.0
 20
31.95452000000023
 30
0.0
 11
8.1779999999998836
 21
40.132219999999961
 31
0.0
  0
LINE
  5
D9B5
  8
KERA6
 10
0.0
 20
31.671620000000079
 30
0.0
 11
8.4609999999997854
 21
40.132219999999961
 31
0.0
  0
LINE
  5
D9B6
  8
KERA6
 10
0.0
 20
31.388820000000131
 30
0.0
 11
8.7439999999999145
 21
40.132219999999961
 31
0.0
  0
LINE
  5
D9B7
  8
KERA6
 10
0.0
 20
31.106020000000171
 30
0.0
 11
9.0270000000000437
 21
40.132219999999961
 31
0.0
  0
LINE
  5
D9B8
  8
KERA6
 10
0.0
 20
30.823120000000021
 30
0.0
 11
9.3089999999999691
 21
40.132219999999961
 31
0.0
  0
LINE
  5
D9B9
  8
KERA6
 10
0.0
 20
30.540320000000062
 30
0.0
 11
9.5919999999998709
 21
40.132219999999961
 31
0.0
  0
LINE
  5
D9BA
  8
KERA6
 10
0.0
 20
30.257419999999911
 30
0.0
 11
9.875
 21
40.132219999999961
 31
0.0
  0
LINE
  5
D9BB
  8
KERA6
 10
0.0
 20
0.0
 30
0.0
 11
0.0
 21
40.132219999999961
 31
0.0
  0
LINE
  5
D9BC
  8
KERA6
 10
-40.132000000000062
 20
40.132219999999961
 30
0.0
 11
0.0
 21
0.0
 31
0.0
  0
LINE
  5
D9BD
  8
KERA6
 10
0.0
 20
0.0
 30
0.0
 11
0.0
 21
40.132219999999961
 31
0.0
  0
LINE
  5
D9BE
  8
KERA6
 10
0.0
 20
40.132219999999961
 30
0.0
 11
-40.132000000000062
 21
40.132219999999961
 31
0.0
  0
LINE
  5
D9BF
  8
KERA6
 10
0.0
 20
39.874119999999948
 30
0.0
 11
0.2579999999998108
 21
40.132219999999961
 31
0.0
  0
LINE
  5
D9C0
  8
KERA6
 10
0.0
 20
39.591220000000249
 30
0.0
 11
0.54099999999994
 21
40.132219999999961
 31
0.0
  0
LINE
  5
D9C1
  8
KERA6
 10
0.0
 20
39.308420000000297
 30
0.0
 11
0.8240000000000691
 21
40.132219999999961
 31
0.0
  0
LINE
  5
D9C2
  8
KERA6
 10
0.0
 20
39.02561999999989
 30
0.0
 11
1.10699999999997
 21
40.132219999999961
 31
0.0
  0
LINE
  5
D9C3
  8
KERA6
 10
0.0
 20
38.74272000000019
 30
0.0
 11
1.389999999999872
 21
40.132219999999961
 31
0.0
  0
LINE
  5
D9C4
  8
KERA6
 10
0.0
 20
38.459920000000238
 30
0.0
 11
1.6730000000000009
 21
40.132219999999961
 31
0.0
  0
LINE
  5
D9C5
  8
KERA6
 10
0.0
 20
38.177020000000091
 30
0.0
 11
1.9559999999999029
 21
40.132219999999961
 31
0.0
  0
LINE
  5
D9C6
  8
KERA6
 10
0.0
 20
37.894220000000132
 30
0.0
 11
2.237999999999829
 21
40.132219999999961
 31
0.0
  0
LINE
  5
D9C7
  8
KERA6
 10
0.0
 20
37.611319999999978
 30
0.0
 11
2.5209999999999582
 21
40.132219999999961
 31
0.0
  0
LINE
  5
D9C8
  8
KERA6
 10
0.0
 20
37.328520000000033
 30
0.0
 11
2.803999999999859
 21
40.132219999999961
 31
0.0
  0
LINE
  5
D9C9
  8
KERA6
 10
0.0
 20
37.045720000000081
 30
0.0
 11
3.0869999999999891
 21
40.132219999999961
 31
0.0
  0
LINE
  5
D9CA
  8
KERA6
 10
0.0
 20
36.76281999999992
 30
0.0
 11
3.36999999999989
 21
40.132219999999961
 31
0.0
  0
LINE
  5
D9CB
  8
KERA6
 10
0.0
 20
36.480019999999968
 30
0.0
 11
3.6529999999997922
 21
40.132219999999961
 31
0.0
  0
LINE
  5
D9CC
  8
KERA6
 10
0.0
 20
36.197119999999821
 30
0.0
 11
3.934999999999945
 21
40.132219999999961
 31
0.0
  0
LINE
  5
D9CD
  8
KERA6
 10
0.0
 20
35.914319999999861
 30
0.0
 11
4.2179999999998472
 21
40.132219999999961
 31
0.0
  0
LINE
  5
D9CE
  8
KERA6
 10
0.0
 20
35.631419999999707
 30
0.0
 11
4.5009999999999764
 21
40.132219999999961
 31
0.0
  0
LINE
  5
D9CF
  8
KERA6
 10
0.0
 20
35.348619999999748
 30
0.0
 11
4.7839999999998781
 21
40.132219999999961
 31
0.0
  0
LINE
  5
D9D0
  8
KERA6
 10
0.0
 20
35.065819999999803
 30
0.0
 11
5.0670000000000073
 21
40.132219999999961
 31
0.0
  0
LINE
  5
D9D1
  8
KERA6
 10
0.0
 20
34.782920000000097
 30
0.0
 11
5.3499999999999091
 21
40.132219999999961
 31
0.0
  0
LINE
  5
D9D2
  8
KERA6
 10
40.132999999999811
 20
40.132219999999961
 30
0.0
 11
67.869999999999891
 21
67.869419999999991
 31
0.0
  0
TEXT
  5
D9D3
  8
KERA6
 10
135.7655
 20
74.334020000000237
 30
0.0
 40
35.0
  1
0 = OKFFB
 41
0.6641983783783785
  7
ROMANS
 72
     5
 11
340.56
 21
74.334020000000237
 31
0.0
  0
LINE
  5
D9D4
  8
KERA6
 10
121.5558000000001
 20
89.129619999999704
 30
0.0
 11
121.5558000000001
 21
98.383420000000115
 31
0.0
  0
ENDBLK
  5
D9D6
  8
0
  0
BLOCK
  8
0
  2
A$C6F5579A8
 70
     0
 10
0.0
 20
0.0
 30
0.0
  3
A$C6F5579A8
  1

  0
INSERT
  5
D9D8
  8
KERA3
  2
OKFFB
 10
157.29996331548821
 20
0.00000042567018
 30
0.0
  0
ENDBLK
  5
D9DA
  8
0
  0
BLOCK
  8
0
  2
*D4
 70
     1
 10
0.0
 20
0.0
 30
0.0
  3
*D4
  1

  0
LINE
  5
1095D
  8
KERA4
 10
-1980.6206617910179
 20
1261.9162885596211
 30
0.0
 11
-1587.0643297065851
 21
1261.9162885596211
 31
0.0
  0
LINE
  5
1095E
  8
KERA4
 10
-1980.6206617910179
 20
411.91628898529149
 30
0.0
 11
-1587.0643297065851
 21
411.91628898529137
 31
0.0
  0
LINE
  5
1095F
  8
KERA4
 10
-1602.0643297065851
 20
1211.9162885596211
 30
0.0
 11
-1602.0643297065851
 21
930.54770998208687
 31
0.0
  0
LINE
  5
10960
  8
KERA4
 10
-1602.0643297065851
 20
461.91628898529137
 30
0.0
 11
-1602.0643297065851
 21
854.5961410871347
 31
0.0
  0
TEXT
  8
KERA4
  40
45
  5
109ED
  72
0
  71
0
 10
-1692.06
 20
812.922
 30
0.000000
  1
850
  0
SOLID
  5
10962
  8
KERA4
 10
-1610.3976630399179
 20
1211.9162885596211
 30
0.0
 11
-1593.7309963732521
 21
1211.9162885596211
 31
0.0
 12
-1602.0643297065851
 22
1261.9162885596211
 32
0.0
 13
-1602.0643297065851
 23
1261.9162885596211
 33
0.0
  0
SOLID
  5
10963
  8
KERA4
 10
-1610.3976630399179
 20
461.91628898529137
 30
0.0
 11
-1593.7309963732521
 21
461.91628898529137
 31
0.0
 12
-1602.0643297065851
 22
411.91628898529137
 32
0.0
 13
-1602.0643297065851
 23
411.91628898529137
 33
0.0
  0
POINT
  5
10964
  8
DEFPOINTS
 62
     0
 10
-2000.6206617910179
 20
1261.9162885596211
 30
0.0
  0
POINT
  5
10965
  8
DEFPOINTS
 62
     0
 10
-2000.6206617910179
 20
411.91628898529149
 30
0.0
  0
POINT
  5
10966
  8
DEFPOINTS
 62
     0
 10
-1602.0643297065851
 20
411.91628898529137
 30
0.0
  0
ENDBLK
  5
1001D
  8
0
  0
BLOCK
  8
0
  2
*D5
 70
     1
 10
0.0
 20
0.0
 30
0.0
  3
*D5
  1

  0
LINE
  5
10967
  8
KERA4
 10
-2149.7147832120331
 20
941.91628898529143
 30
0.0
 11
-1868.868473690688
 21
941.91628898529143
 31
0.0
  0
LINE
  5
10968
  8
KERA4
 10
-1899.207271971439
 20
411.91628898529149
 30
0.0
 11
-1868.8684736906889
 21
411.91628898529149
 31
0.0
  0
LINE
  5
10969
  8
KERA4
 10
-1883.8684736906889
 20
891.91628898529143
 30
0.0
 11
-1883.8684736906889
 21
714.90742131817001
 31
0.0
  0
LINE
  5
1096A
  8
KERA4
 10
-1883.8684736906889
 20
461.91628898529149
 30
0.0
 11
-1883.8684736906889
 21
638.92515665241285
 31
0.0
  0
SOLID
  5
1096B
  8
KERA4
 10
-1892.2018070240219
 20
891.91628898529143
 30
0.0
 11
-1875.535140357355
 21
891.91628898529143
 31
0.0
 12
-1883.8684736906889
 22
941.91628898529143
 32
0.0
 13
-1883.8684736906889
 23
941.91628898529143
 33
0.0
  0
SOLID
  5
1096C
  8
KERA4
 10
-1892.2018070240219
 20
461.91628898529149
 30
0.0
 11
-1875.535140357355
 21
461.91628898529149
 31
0.0
 12
-1883.8684736906889
 22
411.91628898529149
 32
0.0
 13
-1883.8684736906889
 23
411.91628898529149
 33
0.0
  0
TEXT
  8
KERA4
  40
45
  5
109EE
  72
0
  71
0
 10
-1973.87
 20
597.266
 30
0.000000
  1
530
  0
POINT
  5
1096E
  8
DEFPOINTS
 62
     0
 10
-2169.7147832120331
 20
941.91628898529143
 30
0.0
  0
POINT
  5
1096F
  8
DEFPOINTS
 62
     0
 10
-1919.207271971439
 20
411.91628898529149
 30
0.0
  0
POINT
  5
10970
  8
DEFPOINTS
 62
     0
 10
-1883.8684736906889
 20
411.91628898529149
 30
0.0
  0
ENDBLK
  5
10125
  8
0
  0
BLOCK
  8
0
  2
248100
 70
     0
 10
0.0
 20
0.0
 30
0.0
  3
248100
  1

  0
ARC
  5
F8DE
  8
KERA1
 10
32.539650113581963
 20
198.25928343304599
 30
-0.0000001564299905
 40
318.28519163850223
 50
270.73105656649301
 51
284.19292252797521
  0
LINE
  5
F8DF
  8
KERA0
 10
243.82615825832769
 20
-54.999996708180099
 30
0.0
 11
-243.81368104793549
 21
-54.999996708179879
 31
0.0
  0
LINE
  5
F8E0
  8
KERA0
 10
-244.9937613948041
 20
0.0
 30
0.0
 11
245.00623860519639
 21
0.0
 31
0.0
  0
LINE
  5
F8E1
  8
KERA0
 10
167.06854641463491
 20
-169.9999912828209
 30
0.000000000000052
 11
-167.05606920424091
 21
-169.9999912828211
 31
0.0000000000000203
  0
LINE
  5
F8E2
  8
KERA2
 10
-0.000000000003638
 20
-175.54323834189421
 30
-0.000000198220303
 11
-0.000000000001819
 21
-94.888959416306307
 31
-0.000000198220303
  0
POLYLINE
  5
F8E3
  8
KERA1
 66
     1
 10
0.0
 20
0.0
 30
0.0
 70
    12
 75
     6
  0
VERTEX
  5
10481
  8
KERA1
 10
33.596216902907152
 20
-160.34028660329321
 30
-0.0000001982203024
 70
    48
  0
VERTEX
  5
10482
  8
KERA1
 10
33.596216902907152
 20
-160.34028660329321
 30
-0.0000001982203024
 70
    40
  0
VERTEX
  5
10483
  8
KERA1
 10
33.756325823575033
 20
-157.53919779149479
 30
-0.000000198220302
 70
    40
  0
VERTEX
  5
10484
  8
KERA1
 10
33.89780711358253
 20
-155.0639974287148
 30
-0.0000001982203017
 70
    40
  0
VERTEX
  5
10485
  8
KERA1
 10
34.023321863025558
 20
-152.86813002223599
 30
-0.0000001982203014
 70
    40
  0
VERTEX
  5
10486
  8
KERA1
 10
34.135531161997278
 20
-150.9050400793414
 30
-0.0000001982203011
 70
    40
  0
VERTEX
  5
10487
  8
KERA1
 10
34.237096100591771
 20
-149.12817210731461
 30
-0.0000001982203009
 70
    40
  0
VERTEX
  5
10488
  8
KERA1
 10
34.330677768904017
 20
-147.49097061343829
 30
-0.0000001982203007
 70
    40
  0
VERTEX
  5
10489
  8
KERA1
 10
34.418937257028119
 20
-145.94688010499539
 30
-0.0000001982203005
 70
    40
  0
VERTEX
  5
1048A
  8
KERA1
 10
34.504535655058142
 20
-144.4493450892698
 30
-0.0000001982203003
 70
    40
  0
VERTEX
  5
1048B
  8
KERA1
 10
34.591089510751772
 20
-142.93509444169851
 30
-0.0000001982203001
 70
    40
  0
VERTEX
  5
1048C
  8
KERA1
 10
34.686037202524858
 20
-141.27399451033671
 30
-0.0000001982202999
 70
    40
  0
VERTEX
  5
1048D
  8
KERA1
 10
34.797772566455023
 20
-139.3191960113943
 30
-0.0000001982202998
 70
    40
  0
VERTEX
  5
1048E
  8
KERA1
 10
34.934689438621717
 20
-136.92384966108099
 30
-0.0000001982202996
 70
    40
  0
VERTEX
  5
1048F
  8
KERA1
 10
35.105181655104388
 20
-133.94110617560611
 30
-0.0000001982202995
 70
    40
  0
VERTEX
  5
10490
  8
KERA1
 10
35.317643051979758
 20
-130.22411627118001
 30
-0.0000001982202994
 70
    40
  0
VERTEX
  5
10491
  8
KERA1
 10
35.580467465329093
 20
-125.62603066401169
 30
-0.0000001982202993
 70
    40
  0
VERTEX
  5
10492
  8
KERA1
 10
35.902048731230032
 20
-120.000000070311
 30
-0.0000001982202993
 70
    40
  0
VERTEX
  5
10493
  8
KERA1
 10
34.050376278983087
 20
-152.39481584628101
 30
-0.0000001982203013
 70
    48
  0
VERTEX
  5
10494
  8
KERA1
 10
34.504535655058142
 20
-144.44934508927
 30
-0.0000001982203003
 70
    48
  0
VERTEX
  5
10495
  8
KERA1
 10
34.958695031134091
 20
-136.50387433225819
 30
-0.0000001982202993
 70
    48
  0
VERTEX
  5
10496
  8
KERA1
 10
0.0
 20
0.0
 30
0.0
 70
    32
  0
SEQEND
  5
10497
  8
KERA1
  0
POLYLINE
  5
F8FB
  8
KERA1
 66
     1
 10
0.0
 20
0.0
 30
0.0
 70
    12
 75
     6
  0
VERTEX
  5
10499
  8
KERA1
 10
-33.583739692515337
 20
-160.34028660329321
 30
-0.0000001982203024
 70
    48
  0
VERTEX
  5
1049A
  8
KERA1
 10
-33.583739692515337
 20
-160.34028660329321
 30
-0.0000001982203024
 70
    40
  0
VERTEX
  5
1049B
  8
KERA1
 10
-33.743848613183218
 20
-157.53919779149479
 30
-0.000000198220302
 70
    40
  0
VERTEX
  5
1049C
  8
KERA1
 10
-33.88532990319073
 20
-155.0639974287148
 30
-0.0000001982203017
 70
    40
  0
VERTEX
  5
1049D
  8
KERA1
 10
-34.01084465263375
 20
-152.86813002223599
 30
-0.0000001982203014
 70
    40
  0
VERTEX
  5
1049E
  8
KERA1
 10
-34.123053951605471
 20
-150.9050400793414
 30
-0.0000001982203011
 70
    40
  0
VERTEX
  5
1049F
  8
KERA1
 10
-34.224618890199963
 20
-149.12817210731461
 30
-0.0000001982203009
 70
    40
  0
VERTEX
  5
104A0
  8
KERA1
 10
-34.318200558512217
 20
-147.49097061343829
 30
-0.0000001982203007
 70
    40
  0
VERTEX
  5
104A1
  8
KERA1
 10
-34.406460046636312
 20
-145.94688010499539
 30
-0.0000001982203005
 70
    40
  0
VERTEX
  5
104A2
  8
KERA1
 10
-34.492058444666327
 20
-144.4493450892698
 30
-0.0000001982203003
 70
    40
  0
VERTEX
  5
104A3
  8
KERA1
 10
-34.578612300359971
 20
-142.93509444169851
 30
-0.0000001982203001
 70
    40
  0
VERTEX
  5
104A4
  8
KERA1
 10
-34.67355999213305
 20
-141.27399451033671
 30
-0.0000001982202999
 70
    40
  0
VERTEX
  5
104A5
  8
KERA1
 10
-34.785295356063223
 20
-139.3191960113943
 30
-0.0000001982202998
 70
    40
  0
VERTEX
  5
104A6
  8
KERA1
 10
-34.92221222822991
 20
-136.92384966108099
 30
-0.0000001982202996
 70
    40
  0
VERTEX
  5
104A7
  8
KERA1
 10
-35.092704444712581
 20
-133.94110617560611
 30
-0.0000001982202995
 70
    40
  0
VERTEX
  5
104A8
  8
KERA1
 10
-35.30516584158795
 20
-130.22411627118001
 30
-0.0000001982202994
 70
    40
  0
VERTEX
  5
104A9
  8
KERA1
 10
-35.567990254937293
 20
-125.62603066401169
 30
-0.0000001982202993
 70
    40
  0
VERTEX
  5
104AA
  8
KERA1
 10
-35.889571520838217
 20
-120.000000070311
 30
-0.0000001982202993
 70
    40
  0
VERTEX
  5
104AB
  8
KERA1
 10
-34.037899068591287
 20
-152.39481584628101
 30
-0.0000001982203013
 70
    48
  0
VERTEX
  5
104AC
  8
KERA1
 10
-34.492058444666327
 20
-144.44934508927
 30
-0.0000001982203003
 70
    48
  0
VERTEX
  5
104AD
  8
KERA1
 10
-34.946217820742277
 20
-136.50387433225819
 30
-0.0000001982202993
 70
    48
  0
VERTEX
  5
104AE
  8
KERA1
 10
0.0
 20
0.0
 30
0.0
 70
    32
  0
SEQEND
  5
104AF
  8
KERA1
  0
POLYLINE
  5
F913
  8
KERA0
 66
     1
 10
0.0
 20
0.0
 30
0.0
 70
    12
 75
     6
  0
VERTEX
  5
104B1
  8
KERA0
 10
-223.04870284165369
 20
-59.337098412983089
 30
0.0000000000000203
 70
    48
  0
VERTEX
  5
104B2
  8
KERA0
 10
-215.66426884242361
 20
-95.350936586801026
 30
0.0000000000000203
 70
    48
  0
VERTEX
  5
104B3
  8
KERA0
 10
-196.7028167144326
 20
-135.2299440139829
 30
0.0000000000000203
 70
    48
  0
VERTEX
  5
104B4
  8
KERA0
 10
-171.81563057087621
 20
-167.65328782118669
 30
0.0000000000000203
 70
    48
  0
VERTEX
  5
104B5
  8
KERA0
 10
-223.04870284165369
 20
-59.337098412983089
 30
0.0000000000000203
 70
    40
  0
VERTEX
  5
104B6
  8
KERA0
 10
-219.7479050314405
 20
-73.001356535211016
 30
0.0000000000000203
 70
    40
  0
VERTEX
  5
104B7
  8
KERA0
 10
-215.42798775735719
 20
-86.895308264706046
 30
0.0000000000000203
 70
    40
  0
VERTEX
  5
104B8
  8
KERA0
 10
-210.15517700510549
 20
-100.8862875912359
 30
0.0000000000000203
 70
    40
  0
VERTEX
  5
104B9
  8
KERA0
 10
-203.99569876038731
 20
-114.84162850456499
 30
0.0000000000000203
 70
    40
  0
VERTEX
  5
104BA
  8
KERA0
 10
-197.01577900890331
 20
-128.62866499446
 30
0.0000000000000203
 70
    40
  0
VERTEX
  5
104BB
  8
KERA0
 10
-189.28164373635619
 20
-142.11473105068399
 30
0.0000000000000203
 70
    40
  0
VERTEX
  5
104BC
  8
KERA0
 10
-180.85951892844599
 20
-155.16716066300501
 30
0.0000000000000203
 70
    40
  0
VERTEX
  5
104BD
  8
KERA0
 10
-171.81563057087621
 20
-167.65328782118669
 30
0.0000000000000203
 70
    40
  0
SEQEND
  5
104BE
  8
KERA0
  0
ARC
  5
F922
  8
KERA0
 10
-167.05606920424091
 20
-163.9999912828211
 30
0.0000000000000203
 40
6.0
 50
217.50876274760191
 51
270.0
  0
LINE
  5
F923
  8
KERA1
 10
-28.651011024091531
 20
-165.05425388032219
 30
-0.0000001982203036
 11
-0.0000000000009095
 21
-165.05425388032171
 31
-0.0000000268707782
  0
POLYLINE
  5
F924
  8
KERA1
 66
     1
 10
0.0
 20
0.0
 30
0.0
 70
    12
 75
     6
  0
VERTEX
  5
104C2
  8
KERA1
 10
-33.583739692515337
 20
-160.34028660329321
 30
-0.0000001982203024
 70
    48
  0
VERTEX
  5
104C3
  8
KERA1
 10
-33.565743590796053
 20
-160.65512651958011
 30
-0.0000001982203024
 70
    48
  0
VERTEX
  5
104C4
  8
KERA1
 10
-33.470002252206541
 20
-161.281383655529
 30
-0.0000001982203025
 70
    48
  0
VERTEX
  5
104C5
  8
KERA1
 10
-33.152267386677522
 20
-162.176998421017
 30
-0.0000001982203027
 70
    48
  0
VERTEX
  5
104C6
  8
KERA1
 10
-32.671751500622122
 20
-162.9968660362299
 30
-0.0000001982203028
 70
    48
  0
VERTEX
  5
104C7
  8
KERA1
 10
-32.04560635391681
 20
-163.71172363086521
 30
-0.000000198220303
 70
    48
  0
VERTEX
  5
104C8
  8
KERA1
 10
-31.29618186278276
 20
-164.29605406601311
 30
-0.0000001982203031
 70
    48
  0
VERTEX
  5
104C9
  8
KERA1
 10
-30.450229011910778
 20
-164.72900001798621
 30
-0.0000001982203033
 70
    48
  0
VERTEX
  5
104CA
  8
KERA1
 10
-29.537941773314738
 20
-164.995107603798
 30
-0.0000001982203034
 70
    48
  0
VERTEX
  5
104CB
  8
KERA1
 10
-28.907241582817729
 20
-165.0549546918503
 30
-0.0000001982203035
 70
    48
  0
VERTEX
  5
104CC
  8
KERA1
 10
-28.591887761587721
 20
-165.0549546918503
 30
-0.0000001982203036
 70
    48
  0
VERTEX
  5
104CD
  8
KERA1
 10
-33.583739692515337
 20
-160.34028660329321
 30
-0.0000001982203024
 70
    40
  0
VERTEX
  5
104CE
  8
KERA1
 10
-33.468453952547861
 20
-161.15906991520319
 30
-0.0000001982203025
 70
    40
  0
VERTEX
  5
104CF
  8
KERA1
 10
-33.219802117611842
 20
-161.94765477132231
 30
-0.0000001982203026
 70
    40
  0
VERTEX
  5
104D0
  8
KERA1
 10
-32.844588595544337
 20
-162.68447706541221
 30
-0.0000001982203028
 70
    40
  0
VERTEX
  5
104D1
  8
KERA1
 10
-32.353076664663597
 20
-163.3493878089632
 30
-0.0000001982203029
 70
    40
  0
VERTEX
  5
104D2
  8
KERA1
 10
-31.758707526588299
 20
-163.92420585264489
 30
-0.000000198220303
 70
    40
  0
VERTEX
  5
104D3
  8
KERA1
 10
-31.077733753969369
 20
-164.393211857621
 30
-0.0000001982203032
 70
    40
  0
VERTEX
  5
104D4
  8
KERA1
 10
-30.32877564027876
 20
-164.7435779530139
 30
-0.0000001982203033
 70
    40
  0
VERTEX
  5
104D5
  8
KERA1
 10
-29.532314598790439
 20
-164.9657181115092
 30
-0.0000001982203034
 70
    40
  0
VERTEX
  5
104D6
  8
KERA1
 10
-28.710134286595348
 20
-165.05355306879409
 30
-0.0000001982203035
 70
    40
  0
VERTEX
  5
104D7
  8
KERA1
 10
-28.591887761587721
 20
-165.0549546918503
 30
-0.0000001982203036
 70
    40
  0
SEQEND
  5
104D8
  8
KERA1
  0
POLYLINE
  5
F93C
  8
KERA1
 66
     1
 10
0.0
 20
0.0
 30
0.0
 70
    12
 75
     6
  0
VERTEX
  5
104DA
  8
KERA1
 10
33.596216902907152
 20
-160.34028660329321
 30
-0.0000001982203024
 70
    48
  0
VERTEX
  5
104DB
  8
KERA1
 10
33.578220801187847
 20
-160.65512651958011
 30
-0.0000001982203024
 70
    48
  0
VERTEX
  5
104DC
  8
KERA1
 10
33.482479462598349
 20
-161.281383655529
 30
-0.0000001982203025
 70
    48
  0
VERTEX
  5
104DD
  8
KERA1
 10
33.16474459706933
 20
-162.176998421017
 30
-0.0000001982203027
 70
    48
  0
VERTEX
  5
104DE
  8
KERA1
 10
32.68422871101393
 20
-162.9968660362299
 30
-0.0000001982203028
 70
    48
  0
VERTEX
  5
104DF
  8
KERA1
 10
32.058083564308617
 20
-163.71172363086521
 30
-0.000000198220303
 70
    48
  0
VERTEX
  5
104E0
  8
KERA1
 10
31.308659073174571
 20
-164.29605406601311
 30
-0.0000001982203031
 70
    48
  0
VERTEX
  5
104E1
  8
KERA1
 10
30.46270622230259
 20
-164.72900001798621
 30
-0.0000001982203033
 70
    48
  0
VERTEX
  5
104E2
  8
KERA1
 10
29.55041898370655
 20
-164.995107603798
 30
-0.0000001982203034
 70
    48
  0
VERTEX
  5
104E3
  8
KERA1
 10
28.91971879320954
 20
-165.0549546918503
 30
-0.0000001982203035
 70
    48
  0
VERTEX
  5
104E4
  8
KERA1
 10
28.604364971979521
 20
-165.0549546918503
 30
-0.0000001982203036
 70
    48
  0
VERTEX
  5
104E5
  8
KERA1
 10
33.596216902907152
 20
-160.34028660329321
 30
-0.0000001982203024
 70
    40
  0
VERTEX
  5
104E6
  8
KERA1
 10
33.480931162939669
 20
-161.15906991520319
 30
-0.0000001982203025
 70
    40
  0
VERTEX
  5
104E7
  8
KERA1
 10
33.232279328003642
 20
-161.94765477132231
 30
-0.0000001982203026
 70
    40
  0
VERTEX
  5
104E8
  8
KERA1
 10
32.857065805936152
 20
-162.68447706541221
 30
-0.0000001982203028
 70
    40
  0
VERTEX
  5
104E9
  8
KERA1
 10
32.365553875055411
 20
-163.3493878089632
 30
-0.0000001982203029
 70
    40
  0
VERTEX
  5
104EA
  8
KERA1
 10
31.771184736980111
 20
-163.92420585264489
 30
-0.000000198220303
 70
    40
  0
VERTEX
  5
104EB
  8
KERA1
 10
31.09021096436118
 20
-164.393211857621
 30
-0.0000001982203032
 70
    40
  0
VERTEX
  5
104EC
  8
KERA1
 10
30.341252850670571
 20
-164.7435779530139
 30
-0.0000001982203033
 70
    40
  0
VERTEX
  5
104ED
  8
KERA1
 10
29.54479180918225
 20
-164.9657181115092
 30
-0.0000001982203034
 70
    40
  0
VERTEX
  5
104EE
  8
KERA1
 10
28.722611496987149
 20
-165.05355306879409
 30
-0.0000001982203035
 70
    40
  0
VERTEX
  5
104EF
  8
KERA1
 10
28.604364971979521
 20
-165.0549546918503
 30
-0.0000001982203036
 70
    40
  0
SEQEND
  5
104F0
  8
KERA1
  0
LINE
  5
F954
  8
KERA1
 10
28.663488234483339
 20
-165.05425388032219
 30
-0.0000001982203036
 11
0.0124772103927171
 21
-165.05425388032171
 31
-0.0000000268707782
  0
ARC
  5
F955
  8
KERA1
 10
-79.298992981110132
 20
18.69045414828383
 30
-0.0000000071788954
 40
132.7362380093569
 50
190.06172698847459
 51
256.3751763202618
  0
POLYLINE
  5
F956
  8
KERA0
 66
     1
 10
0.0
 20
0.0
 30
0.0
 70
    12
 75
     6
  0
VERTEX
  5
104F4
  8
KERA0
 10
-249.9937613948041
 20
-5.0
 30
0.0
 70
    48
  0
VERTEX
  5
104F5
  8
KERA0
 10
-249.59983015414039
 20
-20.043627149907032
 30
0.0
 70
    48
  0
VERTEX
  5
104F6
  8
KERA0
 10
-249.2058989134766
 20
-35.087254299812912
 30
0.0
 70
    48
  0
VERTEX
  5
104F7
  8
KERA0
 10
-248.8119676728129
 20
-50.13088144971902
 30
0.0
 70
    48
  0
VERTEX
  5
104F8
  8
KERA0
 10
-249.9937613948041
 20
-5.0
 30
0.0
 70
    40
  0
VERTEX
  5
104F9
  8
KERA0
 10
-249.8460371795554
 20
-10.641360181215081
 30
0.0
 70
    40
  0
VERTEX
  5
104FA
  8
KERA0
 10
-249.69831296430681
 20
-16.28272036242992
 30
0.0
 70
    40
  0
VERTEX
  5
104FB
  8
KERA0
 10
-249.55058874905811
 20
-21.924080543645001
 30
0.0
 70
    40
  0
VERTEX
  5
104FC
  8
KERA0
 10
-249.4028645338085
 20
-27.565440724860078
 30
0.0
 70
    40
  0
VERTEX
  5
104FD
  8
KERA0
 10
-249.25514031855889
 20
-33.206800906074932
 30
0.0
 70
    40
  0
VERTEX
  5
104FE
  8
KERA0
 10
-249.1074161033103
 20
-38.8481610872891
 30
0.0
 70
    40
  0
VERTEX
  5
104FF
  8
KERA0
 10
-248.95969188806251
 20
-44.48952126850395
 30
0.0
 70
    40
  0
VERTEX
  5
10500
  8
KERA0
 10
-248.8119676728129
 20
-50.13088144971902
 30
0.0
 70
    40
  0
SEQEND
  5
10501
  8
KERA0
  0
POLYLINE
  5
F965
  8
KERA0
 66
     1
 10
0.0
 20
0.0
 30
0.0
 70
    12
 75
     6
  0
VERTEX
  5
10503
  8
KERA0
 10
-243.81368104793549
 20
-54.999996708179879
 30
0.0
 70
    48
  0
VERTEX
  5
10504
  8
KERA0
 10
-246.52412277222899
 20
-54.999996708179879
 30
0.0
 70
    48
  0
VERTEX
  5
10505
  8
KERA0
 10
-248.74101657990471
 20
-52.840394373328991
 30
0.0
 70
    48
  0
VERTEX
  5
10506
  8
KERA0
 10
-248.8119676728129
 20
-50.13088144971902
 30
0.0
 70
    48
  0
VERTEX
  5
10507
  8
KERA0
 10
-243.81368104793549
 20
-54.999996708179879
 30
0.0
 70
    40
  0
VERTEX
  5
10508
  8
KERA0
 10
-244.3157016898931
 20
-54.975081859467082
 30
0.0
 70
    40
  0
VERTEX
  5
10509
  8
KERA0
 10
-244.80373430236429
 20
-54.901909277924908
 30
0.0
 70
    40
  0
VERTEX
  5
1050A
  8
KERA0
 10
-245.2753583851536
 20
-54.782836910447031
 30
0.0
 70
    40
  0
VERTEX
  5
1050B
  8
KERA0
 10
-245.728153438069
 20
-54.620222703927993
 30
0.0
 70
    40
  0
VERTEX
  5
1050C
  8
KERA0
 10
-246.1596989609188
 20
-54.41642460526009
 30
0.0
 70
    40
  0
VERTEX
  5
1050D
  8
KERA0
 10
-246.5675744535092
 20
-54.173800561336982
 30
0.0
 70
    40
  0
VERTEX
  5
1050E
  8
KERA0
 10
-246.9493594156483
 20
-53.894708519053893
 30
0.0
 70
    40
  0
VERTEX
  5
1050F
  8
KERA0
 10
-247.3026333471434
 20
-53.581506425302898
 30
0.0
 70
    40
  0
VERTEX
  5
10510
  8
KERA0
 10
-247.6249757478017
 20
-53.236552226979029
 30
0.0
 70
    40
  0
VERTEX
  5
10511
  8
KERA0
 10
-247.91396611743221
 20
-52.862203870974099
 30
0.0
 70
    40
  0
VERTEX
  5
10512
  8
KERA0
 10
-248.1671839558403
 20
-52.460819304184042
 30
0.0
 70
    40
  0
VERTEX
  5
10513
  8
KERA0
 10
-248.3822087628341
 20
-52.03475647350092
 30
0.0
 70
    40
  0
VERTEX
  5
10514
  8
KERA0
 10
-248.55662003821999
 20
-51.586373325819977
 30
0.0
 70
    40
  0
VERTEX
  5
10515
  8
KERA0
 10
-248.6879972818079
 20
-51.118027808033048
 30
0.0
 70
    40
  0
VERTEX
  5
10516
  8
KERA0
 10
-248.77391999340401
 20
-50.632077867034923
 30
0.0
 70
    40
  0
VERTEX
  5
10517
  8
KERA0
 10
-248.8119676728129
 20
-50.13088144971902
 30
0.0
 70
    40
  0
SEQEND
  5
10518
  8
KERA0
  0
POLYLINE
  5
F97C
  8
KERA0
 66
     1
 10
0.0
 20
0.0
 30
0.0
 70
    12
 75
     6
  0
VERTEX
  5
1051A
  8
KERA0
 10
-223.04872157335831
 20
-59.337098612623997
 30
0.0000000000000203
 70
    48
  0
VERTEX
  5
1051B
  8
KERA0
 10
-223.78961558737049
 20
-56.768555467559963
 30
0.0000000521858436
 70
    48
  0
VERTEX
  5
1051C
  8
KERA0
 10
-226.14041866631669
 20
-54.999996436507899
 30
0.0000000521858353
 70
    48
  0
VERTEX
  5
1051D
  8
KERA0
 10
-228.8136821827047
 20
-54.999996436507899
 30
0.0
 70
    48
  0
VERTEX
  5
1051E
  8
KERA0
 10
-223.04872157335831
 20
-59.337098612623997
 30
0.0000000000000203
 70
    40
  0
VERTEX
  5
1051F
  8
KERA0
 10
-223.3995067679316
 20
-58.413285936454031
 30
0.0000000171234932
 70
    40
  0
VERTEX
  5
10520
  8
KERA0
 10
-223.88613364873891
 20
-57.57582225828196
 30
0.0000000293545444
 70
    40
  0
VERTEX
  5
10521
  8
KERA0
 10
-224.4935149271769
 20
-56.836058065417092
 30
0.0000000366931741
 70
    40
  0
VERTEX
  5
10522
  8
KERA0
 10
-225.2065633146413
 20
-56.205343845166908
 30
0.0000000391393821
 70
    40
  0
VERTEX
  5
10523
  8
KERA0
 10
-226.0101915225296
 20
-55.695030084842081
 30
0.0000000366931687
 70
    40
  0
VERTEX
  5
10524
  8
KERA0
 10
-226.8893122622394
 20
-55.31646727175098
 30
0.0000000293545338
 70
    40
  0
VERTEX
  5
10525
  8
KERA0
 10
-227.82883824516551
 20
-55.081005893204058
 30
0.0000000171234776
 70
    40
  0
VERTEX
  5
10526
  8
KERA0
 10
-228.8136821827047
 20
-54.999996436507899
 30
0.0
 70
    40
  0
SEQEND
  5
10527
  8
KERA0
  0
POLYLINE
  5
F98B
  8
KERA0
 66
     1
 10
0.0
 20
0.0
 30
0.0
 70
    12
 75
     6
  0
VERTEX
  5
10529
  8
KERA0
 10
-249.9937613948041
 20
-5.0
 30
0.0
 70
    48
  0
VERTEX
  5
1052A
  8
KERA0
 10
-249.9937613948041
 20
-2.2385762508458811
 30
0.0
 70
    48
  0
VERTEX
  5
1052B
  8
KERA0
 10
-247.7551851439585
 20
0.0
 30
0.0
 70
    48
  0
VERTEX
  5
1052C
  8
KERA0
 10
-244.9937613948041
 20
0.0
 30
0.0
 70
    48
  0
VERTEX
  5
1052D
  8
KERA0
 10
-249.9937613948041
 20
-5.0
 30
0.0
 70
    40
  0
VERTEX
  5
1052E
  8
KERA0
 10
-249.96794695845441
 20
-4.4887790452439731
 30
0.0
 70
    40
  0
VERTEX
  5
1052F
  8
KERA0
 10
-249.8921791657649
 20
-3.992325603270046
 30
0.0
 70
    40
  0
VERTEX
  5
10530
  8
KERA0
 10
-249.76897129127789
 20
-3.5131529486170621
 30
0.0
 70
    40
  0
VERTEX
  5
10531
  8
KERA0
 10
-249.60083660952839
 20
-3.0537743558259081
 30
0.0
 70
    40
  0
VERTEX
  5
10532
  8
KERA0
 10
-249.39028839506139
 20
-2.6167030994349711
 30
0.0
 70
    40
  0
VERTEX
  5
10533
  8
KERA0
 10
-249.13983992241361
 20
-2.2044524539849131
 30
0.0
 70
    40
  0
VERTEX
  5
10534
  8
KERA0
 10
-248.85200446612541
 20
-1.8195356940159391
 30
0.0
 70
    40
  0
VERTEX
  5
10535
  8
KERA0
 10
-248.52929530073649
 20
-1.4644660940668921
 30
0.0
 70
    40
  0
VERTEX
  5
10536
  8
KERA0
 10
-248.17422570078821
 20
-1.1417569286788869
 30
0.0
 70
    40
  0
VERTEX
  5
10537
  8
KERA0
 10
-247.78930894081901
 20
-0.8539214723909935
 30
0.0
 70
    40
  0
VERTEX
  5
10538
  8
KERA0
 10
-247.37705829536941
 20
-0.6034729997429622
 30
0.0
 70
    40
  0
VERTEX
  5
10539
  8
KERA0
 10
-246.9399870389789
 20
-0.3929247852749995
 30
0.0
 70
    40
  0
VERTEX
  5
1053A
  8
KERA0
 10
-246.48060844618701
 20
-0.2247901035270843
 30
0.0
 70
    40
  0
VERTEX
  5
1053B
  8
KERA0
 10
-246.00143579153431
 20
-0.1015822290380584
 30
0.0
 70
    40
  0
VERTEX
  5
1053C
  8
KERA0
 10
-245.50498234955921
 20
-0.0258144363499469
 30
0.0
 70
    40
  0
VERTEX
  5
1053D
  8
KERA0
 10
-244.9937613948041
 20
0.0
 30
0.0
 70
    40
  0
SEQEND
  5
1053E
  8
KERA0
  0
POLYLINE
  5
F9A2
  8
KERA1
 66
     1
 10
0.0
 20
0.0
 30
0.0
 70
    12
 75
     6
  0
VERTEX
  5
10540
  8
KERA1
 10
-209.9937613948041
 20
-4.499767718594966
 30
-0.0000000071788954
 70
    48
  0
VERTEX
  5
10541
  8
KERA1
 10
-210.2506520038533
 20
-1.944937307757072
 30
-0.000000003089999
 70
    48
  0
VERTEX
  5
10542
  8
KERA1
 10
-212.40096200327389
 20
0.0
 30
0.0000000000129393
 70
    48
  0
VERTEX
  5
10543
  8
KERA1
 10
-214.96867522970021
 20
0.0
 30
0.0
 70
    48
  0
VERTEX
  5
10544
  8
KERA1
 10
-209.9937613948041
 20
-4.499767718594966
 30
-0.0000000071788954
 70
    40
  0
VERTEX
  5
10545
  8
KERA1
 10
-210.06375653697339
 20
-4.0282101398909163
 30
-0.0000000064243015
 70
    40
  0
VERTEX
  5
10546
  8
KERA1
 10
-210.1759665630525
 20
-3.5729025619500581
 30
-0.000000005695936
 70
    40
  0
VERTEX
  5
10547
  8
KERA1
 10
-210.3282293399898
 20
-3.1358006159300649
 30
-0.0000000049969189
 70
    40
  0
VERTEX
  5
10548
  8
KERA1
 10
-210.51838273473371
 20
-2.718859932992018
 30
-0.0000000043303702
 70
    40
  0
VERTEX
  5
10549
  8
KERA1
 10
-210.7442646142317
 20
-2.3240361442940412
 30
-0.0000000036994099
 70
    40
  0
VERTEX
  5
1054A
  8
KERA1
 10
-211.00371284543229
 20
-1.9532848809949419
 30
-0.000000003107158
 70
    40
  0
VERTEX
  5
1054B
  8
KERA1
 10
-211.294565295284
 20
-1.6085617742548941
 30
-0.0000000025567345
 70
    40
  0
VERTEX
  5
1054C
  8
KERA1
 10
-211.61465983073691
 20
-1.291822455232932
 30
-0.0000000020512593
 70
    40
  0
VERTEX
  5
1054D
  8
KERA1
 10
-211.96183431873399
 20
-1.0050225550880889
 30
-0.0000000015938526
 70
    40
  0
VERTEX
  5
1054E
  8
KERA1
 10
-212.3339266262301
 20
-0.7501177049789476
 30
-0.0000000011876342
 70
    40
  0
VERTEX
  5
1054F
  8
KERA1
 10
-212.72877462016729
 20
-0.5290635360649958
 30
-0.0000000008357242
 70
    40
  0
VERTEX
  5
10550
  8
KERA1
 10
-213.14421616749681
 20
-0.3438156795059513
 30
-0.0000000005412426
 70
    40
  0
VERTEX
  5
10551
  8
KERA1
 10
-213.5780891351678
 20
-0.1963297664610763
 30
-0.0000000003073094
 70
    40
  0
VERTEX
  5
10552
  8
KERA1
 10
-214.02823139012531
 20
-0.0885614280889513
 30
-0.0000000001370445
 70
    40
  0
VERTEX
  5
10553
  8
KERA1
 10
-214.49248079932019
 20
-0.0224662955490658
 30
-0.0000000000335681
 70
    40
  0
VERTEX
  5
10554
  8
KERA1
 10
-214.96867522970021
 20
0.0
 30
0.0
 70
    40
  0
SEQEND
  5
10555
  8
KERA1
  0
LINE
  5
F9B9
  8
KERA1
 10
-35.895801300604951
 20
-120.000000070311
 30
0.0
 11
-0.0000000000009095
 21
-120.000000070311
 31
0.0
  0
ARC
  5
F9BA
  8
KERA1
 10
-32.527172903190149
 20
198.25928343304599
 30
-0.0000001564299905
 40
318.28519163850223
 50
255.8070774720247
 51
269.2689434335071
  0
LINE
  5
F9BB
  8
KERA1
 10
35.908278510996752
 20
-120.000000070311
 30
0.0
 11
0.0124772103927171
 21
-120.000000070311
 31
0.0
  0
POLYLINE
  5
F9BE
  8
KERA0
 66
     1
 10
0.0
 20
0.0
 30
0.0
 70
    12
 75
     6
  0
VERTEX
  5
1055A
  8
KERA0
 10
223.0611800520455
 20
-59.337098412983089
 30
0.0000000000000203
 70
    48
  0
VERTEX
  5
1055B
  8
KERA0
 10
215.67674605281579
 20
-95.350936586801026
 30
0.0000000000000203
 70
    48
  0
VERTEX
  5
1055C
  8
KERA0
 10
196.71529392482489
 20
-135.22994401398319
 30
0.0000000000000203
 70
    48
  0
VERTEX
  5
1055D
  8
KERA0
 10
171.8281077812685
 20
-167.65328782118721
 30
0.0000000000000203
 70
    48
  0
VERTEX
  5
1055E
  8
KERA0
 10
223.0611800520455
 20
-59.337098412983089
 30
0.0000000000000203
 70
    40
  0
VERTEX
  5
1055F
  8
KERA0
 10
219.76038224183279
 20
-73.001356535211016
 30
0.0000000000000203
 70
    40
  0
VERTEX
  5
10560
  8
KERA0
 10
215.44046496774939
 20
-86.895308264706046
 30
0.0000000000000203
 70
    40
  0
VERTEX
  5
10561
  8
KERA0
 10
210.16765421549781
 20
-100.8862875912361
 30
0.0000000000000203
 70
    40
  0
VERTEX
  5
10562
  8
KERA0
 10
204.0081759707796
 20
-114.84162850456499
 30
0.0000000000000203
 70
    40
  0
VERTEX
  5
10563
  8
KERA0
 10
197.0282562192956
 20
-128.62866499446
 30
0.0000000000000203
 70
    40
  0
VERTEX
  5
10564
  8
KERA0
 10
189.29412094674851
 20
-142.11473105068399
 30
0.0000000000000203
 70
    40
  0
VERTEX
  5
10565
  8
KERA0
 10
180.87199613883919
 20
-155.16716066300501
 30
0.0000000000000203
 70
    40
  0
VERTEX
  5
10566
  8
KERA0
 10
171.8281077812685
 20
-167.65328782118721
 30
0.0000000000000203
 70
    40
  0
SEQEND
  5
10567
  8
KERA0
  0
ARC
  5
F9CD
  8
KERA0
 10
167.06854641463491
 20
-163.9999912828209
 30
0.000000000000052
 40
6.0
 50
270.0
 51
322.49123725239821
  0
ARC
  5
F9CE
  8
KERA1
 10
79.31147019150194
 20
18.69045414828383
 30
-0.0000000071788954
 40
132.7362380093569
 50
283.6248236797382
 51
349.93827301152533
  0
POLYLINE
  5
F9CF
  8
KERA0
 66
     1
 10
0.0
 20
0.0
 30
0.0
 70
    12
 75
     6
  0
VERTEX
  5
1056B
  8
KERA0
 10
250.0062386051963
 20
-5.0
 30
0.0
 70
    48
  0
VERTEX
  5
1056C
  8
KERA0
 10
249.6123073645326
 20
-20.043627149907032
 30
0.0
 70
    48
  0
VERTEX
  5
1056D
  8
KERA0
 10
249.2183761238698
 20
-35.087254299813139
 30
0.0
 70
    48
  0
VERTEX
  5
1056E
  8
KERA0
 10
248.82444488320519
 20
-50.13088144971902
 30
0.0
 70
    48
  0
VERTEX
  5
1056F
  8
KERA0
 10
250.0062386051963
 20
-5.0
 30
0.0
 70
    40
  0
VERTEX
  5
10570
  8
KERA0
 10
249.85851438994769
 20
-10.641360181215081
 30
0.0
 70
    40
  0
VERTEX
  5
10571
  8
KERA0
 10
249.71079017469859
 20
-16.282720362430151
 30
0.0
 70
    40
  0
VERTEX
  5
10572
  8
KERA0
 10
249.5630659594494
 20
-21.924080543645001
 30
0.0
 70
    40
  0
VERTEX
  5
10573
  8
KERA0
 10
249.4153417442007
 20
-27.56544072485918
 30
0.0
 70
    40
  0
VERTEX
  5
10574
  8
KERA0
 10
249.26761752895121
 20
-33.206800906074022
 30
0.0
 70
    40
  0
VERTEX
  5
10575
  8
KERA0
 10
249.11989331370339
 20
-38.8481610872891
 30
0.0
 70
    40
  0
VERTEX
  5
10576
  8
KERA0
 10
248.9721690984548
 20
-44.48952126850417
 30
0.0
 70
    40
  0
VERTEX
  5
10577
  8
KERA0
 10
248.82444488320519
 20
-50.13088144971902
 30
0.0
 70
    40
  0
SEQEND
  5
10578
  8
KERA0
  0
POLYLINE
  5
F9DE
  8
KERA0
 66
     1
 10
0.0
 20
0.0
 30
0.0
 70
    12
 75
     6
  0
VERTEX
  5
1057A
  8
KERA0
 10
223.06119878375151
 20
-59.337098612623997
 30
0.0000000000000203
 70
    48
  0
VERTEX
  5
1057B
  8
KERA0
 10
223.8020927977627
 20
-56.768555467559963
 30
0.0000000521858436
 70
    48
  0
VERTEX
  5
1057C
  8
KERA0
 10
226.15289587670989
 20
-54.999996436508127
 30
0.0000000521858353
 70
    48
  0
VERTEX
  5
1057D
  8
KERA0
 10
228.8261593930979
 20
-54.999996436508127
 30
0.0
 70
    48
  0
VERTEX
  5
1057E
  8
KERA0
 10
223.06119878375151
 20
-59.337098612623997
 30
0.0000000000000203
 70
    40
  0
VERTEX
  5
1057F
  8
KERA0
 10
223.41198397832389
 20
-58.413285936454031
 30
0.0000000171234932
 70
    40
  0
VERTEX
  5
10580
  8
KERA0
 10
223.89861085913029
 20
-57.575822258282187
 30
0.0000000293545444
 70
    40
  0
VERTEX
  5
10581
  8
KERA0
 10
224.5059921375682
 20
-56.836058065416182
 30
0.0000000366931741
 70
    40
  0
VERTEX
  5
10582
  8
KERA0
 10
225.21904052503351
 20
-56.205343845167128
 30
0.0000000391393821
 70
    40
  0
VERTEX
  5
10583
  8
KERA0
 10
226.0226687329228
 20
-55.695030084842081
 30
0.0000000366931687
 70
    40
  0
VERTEX
  5
10584
  8
KERA0
 10
226.90178947263169
 20
-55.31646727175098
 30
0.0000000293545338
 70
    40
  0
VERTEX
  5
10585
  8
KERA0
 10
227.84131545555789
 20
-55.081005893203148
 30
0.0000000171234776
 70
    40
  0
VERTEX
  5
10586
  8
KERA0
 10
228.8261593930979
 20
-54.999996436508127
 30
0.0
 70
    40
  0
SEQEND
  5
10587
  8
KERA0
  0
POLYLINE
  5
F9ED
  8
KERA0
 66
     1
 10
0.0
 20
0.0
 30
0.0
 70
    12
 75
     6
  0
VERTEX
  5
10589
  8
KERA0
 10
243.82615825832769
 20
-54.999996708180099
 30
0.0
 70
    48
  0
VERTEX
  5
1058A
  8
KERA0
 10
246.53659998262131
 20
-54.999996708180099
 30
0.0
 70
    48
  0
VERTEX
  5
1058B
  8
KERA0
 10
248.7534937902978
 20
-52.840394373328081
 30
0.0
 70
    48
  0
VERTEX
  5
1058C
  8
KERA0
 10
248.82444488320519
 20
-50.13088144971902
 30
0.0
 70
    48
  0
VERTEX
  5
1058D
  8
KERA0
 10
243.82615825832769
 20
-54.999996708180099
 30
0.0
 70
    40
  0
VERTEX
  5
1058E
  8
KERA0
 10
244.3281789002863
 20
-54.975081859467082
 30
0.0
 70
    40
  0
VERTEX
  5
1058F
  8
KERA0
 10
244.81621151275661
 20
-54.901909277925142
 30
0.0
 70
    40
  0
VERTEX
  5
10590
  8
KERA0
 10
245.2878355955458
 20
-54.782836910447031
 30
0.0
 70
    40
  0
VERTEX
  5
10591
  8
KERA0
 10
245.74063064846041
 20
-54.620222703927993
 30
0.0
 70
    40
  0
VERTEX
  5
10592
  8
KERA0
 10
246.17217617131021
 20
-54.41642460526009
 30
0.0
 70
    40
  0
VERTEX
  5
10593
  8
KERA0
 10
246.58005166390149
 20
-54.173800561336982
 30
0.0
 70
    40
  0
VERTEX
  5
10594
  8
KERA0
 10
246.96183662604059
 20
-53.894708519052983
 30
0.0
 70
    40
  0
VERTEX
  5
10595
  8
KERA0
 10
247.3151105575366
 20
-53.581506425303132
 30
0.0
 70
    40
  0
VERTEX
  5
10596
  8
KERA0
 10
247.63745295819581
 20
-53.23655222697812
 30
0.0
 70
    40
  0
VERTEX
  5
10597
  8
KERA0
 10
247.9264433278245
 20
-52.862203870974099
 30
0.0
 70
    40
  0
VERTEX
  5
10598
  8
KERA0
 10
248.17966116623259
 20
-52.460819304184042
 30
0.0
 70
    40
  0
VERTEX
  5
10599
  8
KERA0
 10
248.39468597322639
 20
-52.03475647350114
 30
0.0
 70
    40
  0
VERTEX
  5
1059A
  8
KERA0
 10
248.56909724861319
 20
-51.586373325819068
 30
0.0
 70
    40
  0
VERTEX
  5
1059B
  8
KERA0
 10
248.7004744922001
 20
-51.118027808033048
 30
0.0
 70
    40
  0
VERTEX
  5
1059C
  8
KERA0
 10
248.7863972037953
 20
-50.63207786703515
 30
0.0
 70
    40
  0
VERTEX
  5
1059D
  8
KERA0
 10
248.82444488320519
 20
-50.13088144971902
 30
0.0
 70
    40
  0
SEQEND
  5
1059E
  8
KERA0
  0
POLYLINE
  5
FA04
  8
KERA1
 66
     1
 10
0.0
 20
0.0
 30
0.0
 70
    12
 75
     6
  0
VERTEX
  5
105A0
  8
KERA1
 10
210.0062386051959
 20
-4.499767718594966
 30
-0.0000000071788954
 70
    48
  0
VERTEX
  5
105A1
  8
KERA1
 10
210.263129214245
 20
-1.944937307757072
 30
-0.000000003089999
 70
    48
  0
VERTEX
  5
105A2
  8
KERA1
 10
212.4134392136657
 20
0.0
 30
0.0000000000129393
 70
    48
  0
VERTEX
  5
105A3
  8
KERA1
 10
214.9811524400921
 20
0.0
 30
0.0
 70
    48
  0
VERTEX
  5
105A4
  8
KERA1
 10
210.0062386051959
 20
-4.499767718594966
 30
-0.0000000071788954
 70
    40
  0
VERTEX
  5
105A5
  8
KERA1
 10
210.07623374736519
 20
-4.0282101398909163
 30
-0.0000000064243015
 70
    40
  0
VERTEX
  5
105A6
  8
KERA1
 10
210.18844377344431
 20
-3.5729025619500581
 30
-0.000000005695936
 70
    40
  0
VERTEX
  5
105A7
  8
KERA1
 10
210.34070655038161
 20
-3.1358006159300649
 30
-0.0000000049969189
 70
    40
  0
VERTEX
  5
105A8
  8
KERA1
 10
210.53085994512551
 20
-2.718859932992018
 30
-0.0000000043303702
 70
    40
  0
VERTEX
  5
105A9
  8
KERA1
 10
210.7567418246235
 20
-2.3240361442940412
 30
-0.0000000036994099
 70
    40
  0
VERTEX
  5
105AA
  8
KERA1
 10
211.0161900558241
 20
-1.9532848809949419
 30
-0.000000003107158
 70
    40
  0
VERTEX
  5
105AB
  8
KERA1
 10
211.30704250567581
 20
-1.6085617742548941
 30
-0.0000000025567345
 70
    40
  0
VERTEX
  5
105AC
  8
KERA1
 10
211.62713704112869
 20
-1.291822455232932
 30
-0.0000000020512593
 70
    40
  0
VERTEX
  5
105AD
  8
KERA1
 10
211.9743115291258
 20
-1.0050225550880889
 30
-0.0000000015938526
 70
    40
  0
VERTEX
  5
105AE
  8
KERA1
 10
212.3464038366219
 20
-0.7501177049789476
 30
-0.0000000011876342
 70
    40
  0
VERTEX
  5
105AF
  8
KERA1
 10
212.74125183055909
 20
-0.5290635360649958
 30
-0.0000000008357242
 70
    40
  0
VERTEX
  5
105B0
  8
KERA1
 10
213.15669337788859
 20
-0.3438156795059513
 30
-0.0000000005412426
 70
    40
  0
VERTEX
  5
105B1
  8
KERA1
 10
213.59056634555961
 20
-0.1963297664610763
 30
-0.0000000003073094
 70
    40
  0
VERTEX
  5
105B2
  8
KERA1
 10
214.04070860051709
 20
-0.0885614280889513
 30
-0.0000000001370445
 70
    40
  0
VERTEX
  5
105B3
  8
KERA1
 10
214.504958009712
 20
-0.0224662955490658
 30
-0.0000000000335681
 70
    40
  0
VERTEX
  5
105B4
  8
KERA1
 10
214.9811524400921
 20
0.0
 30
0.0
 70
    40
  0
SEQEND
  5
105B5
  8
KERA1
  0
POLYLINE
  5
FA1B
  8
KERA0
 66
     1
 10
0.0
 20
0.0
 30
0.0
 70
    12
 75
     6
  0
VERTEX
  5
105B7
  8
KERA0
 10
250.0062386051963
 20
-5.0
 30
0.0
 70
    48
  0
VERTEX
  5
105B8
  8
KERA0
 10
250.0062386051963
 20
-2.238576250846108
 30
0.0
 70
    48
  0
VERTEX
  5
105B9
  8
KERA0
 10
247.7676623543507
 20
0.0
 30
0.0
 70
    48
  0
VERTEX
  5
105BA
  8
KERA0
 10
245.00623860519639
 20
0.0
 30
0.0
 70
    48
  0
VERTEX
  5
105BB
  8
KERA0
 10
250.0062386051963
 20
-5.0
 30
0.0
 70
    40
  0
VERTEX
  5
105BC
  8
KERA0
 10
249.98042416884661
 20
-4.4887790452439731
 30
0.0
 70
    40
  0
VERTEX
  5
105BD
  8
KERA0
 10
249.90465637615711
 20
-3.992325603270046
 30
0.0
 70
    40
  0
VERTEX
  5
105BE
  8
KERA0
 10
249.7814485016693
 20
-3.5131529486170621
 30
0.0
 70
    40
  0
VERTEX
  5
105BF
  8
KERA0
 10
249.61331381992159
 20
-3.0537743558249981
 30
0.0
 70
    40
  0
VERTEX
  5
105C0
  8
KERA0
 10
249.4027656054536
 20
-2.6167030994349711
 30
0.0
 70
    40
  0
VERTEX
  5
105C1
  8
KERA0
 10
249.15231713280579
 20
-2.20445245398514
 30
0.0
 70
    40
  0
VERTEX
  5
105C2
  8
KERA0
 10
248.8644816765177
 20
-1.8195356940161671
 30
0.0
 70
    40
  0
VERTEX
  5
105C3
  8
KERA0
 10
248.54177251112969
 20
-1.4644660940671199
 30
0.0
 70
    40
  0
VERTEX
  5
105C4
  8
KERA0
 10
248.18670291118039
 20
-1.141756928679114
 30
0.0
 70
    40
  0
VERTEX
  5
105C5
  8
KERA0
 10
247.80178615121119
 20
-0.8539214723909935
 30
0.0
 70
    40
  0
VERTEX
  5
105C6
  8
KERA0
 10
247.38953550576159
 20
-0.6034729997431896
 30
0.0
 70
    40
  0
VERTEX
  5
105C7
  8
KERA0
 10
246.95246424937019
 20
-0.3929247852749995
 30
0.0
 70
    40
  0
VERTEX
  5
105C8
  8
KERA0
 10
246.49308565657839
 20
-0.2247901035270843
 30
0.0
 70
    40
  0
VERTEX
  5
105C9
  8
KERA0
 10
246.01391300192651
 20
-0.1015822290380584
 30
0.0
 70
    40
  0
VERTEX
  5
105CA
  8
KERA0
 10
245.5174595599515
 20
-0.0258144363490374
 30
0.0
 70
    40
  0
VERTEX
  5
105CB
  8
KERA0
 10
245.00623860519639
 20
0.0
 30
0.0
 70
    40
  0
SEQEND
  5
105CC
  8
KERA0
  0
ENDBLK
  5
FA32
  8
0
  0
BLOCK
  8
0
  2
*D7
 70
     1
 10
0.0
 20
0.0
 30
0.0
  3
*D7
  1

  0
LINE
  5
10971
  8
KERA4
 10
-2475.6143845655838
 20
1276.9162885596211
 30
0.0
 11
-2475.6143845655838
 21
1362.6170270085111
 31
0.0
  0
LINE
  5
10972
  8
KERA4
 10
-1975.6882466732079
 20
1274.095608469014
 30
0.0
 11
-1975.6882466732079
 21
1362.6170270085111
 31
0.0
  0
LINE
  5
10973
  8
KERA4
 10
-2425.6143845655838
 20
1347.6170270085111
 30
0.0
 11
-2314.7662542278549
 21
1347.6170270085111
 31
0.0
  0
LINE
  5
10974
  8
KERA4
 10
-2025.6882466732079
 20
1347.6170270085111
 30
0.0
 11
-2136.5363770109379
 21
1347.6170270085111
 31
0.0
  0
SOLID
  5
10975
  8
KERA4
 10
-2425.6143845655838
 20
1355.9503603418441
 30
0.0
 11
-2425.6143845655838
 21
1339.283693675178
 31
0.0
 12
-2475.6143845655838
 22
1347.6170270085111
 32
0.0
 13
-2475.6143845655838
 23
1347.6170270085111
 33
0.0
  0
SOLID
  5
10976
  8
KERA4
 10
-2025.6882466732079
 20
1355.9503603418441
 30
0.0
 11
-2025.6882466732079
 21
1339.283693675178
 31
0.0
 12
-1975.6882466732079
 22
1347.6170270085111
 32
0.0
 13
-1975.6882466732079
 23
1347.6170270085111
 33
0.0
  0
TEXT
  8
KERA4
  40
45
  5
109EF
  72
0
  71
0
 10
-2315.65
 20
1267.97
 30
0.000000
  1
%%c500
  0
POINT
  5
10978
  8
DEFPOINTS
 62
     0
 10
-2475.6143845655838
 20
1256.9162885596211
 30
-0.000000198220303
  0
POINT
  5
10979
  8
DEFPOINTS
 62
     0
 10
-1975.6882466732079
 20
1254.095608469014
 30
-0.000000198220303
  0
POINT
  5
1097A
  8
DEFPOINTS
 62
     0
 10
-1975.6882466732079
 20
1347.6170270085111
 30
0.0
  0
ENDBLK
  5
FB70
  8
0
  0
BLOCK
  8
0
  2
*D8
 70
     1
 10
0.0
 20
0.0
 30
0.0
  3
*D8
  1

  0
LINE
  5
1097B
  8
KERA4
 10
-2038.5520767561461
 20
1051.9162972767999
 30
0.0
 11
-1772.3363172529371
 21
1051.9162972767999
 31
0.0
  0
LINE
  5
1097C
  8
KERA4
 10
-1863.8684736906889
 20
411.91628898529149
 30
0.0
 11
-1772.3363172529371
 21
411.91628898529149
 31
0.0
  0
LINE
  5
1097D
  8
KERA4
 10
-1787.3363172529371
 20
1001.9162972768
 30
0.0
 11
-1787.3363172529371
 21
769.89207757852193
 31
0.0
  0
LINE
  5
1097E
  8
KERA4
 10
-1787.3363172529371
 20
461.91628898529149
 30
0.0
 11
-1787.3363172529371
 21
693.94050868356965
 31
0.0
  0
SOLID
  5
1097F
  8
KERA4
 10
-1795.6696505862701
 20
1001.9162972768
 30
0.0
 11
-1779.0029839196029
 21
1001.9162972768
 31
0.0
 12
-1787.3363172529371
 22
1051.9162972767999
 32
0.0
 13
-1787.3363172529371
 23
1051.9162972767999
 33
0.0
  0
SOLID
  5
10980
  8
KERA4
 10
-1795.6696505862701
 20
461.91628898529149
 30
0.0
 11
-1779.0029839196029
 21
461.91628898529149
 31
0.0
 12
-1787.3363172529371
 22
411.91628898529149
 32
0.0
 13
-1787.3363172529371
 23
411.91628898529149
 33
0.0
  0
TEXT
  8
KERA4
  40
45
  5
109F0
  72
0
  71
0
 10
-1877.34
 20
652.266
 30
0.000000
  1
640
  0
POINT
  5
10982
  8
DEFPOINTS
 62
     0
 10
-2058.5520767561452
 20
1051.9162972767999
 30
0.000000000000052
  0
POINT
  5
10983
  8
DEFPOINTS
 62
     0
 10
-1883.8684736906889
 20
411.91628898529149
 30
0.0
  0
POINT
  5
10984
  8
DEFPOINTS
 62
     0
 10
-1787.3363172529371
 20
411.91628898529149
 30
0.0
  0
ENDBLK
  5
100D3
  8
0
  0
BLOCK
  8
0
  2
*D9
 70
     1
 10
0.0
 20
0.0
 30
0.0
  3
*D9
  1

  0
LINE
  5
10985
  8
KERA4
 10
-1924.3076443945399
 20
1221.9162885596211
 30
0.0
 11
-1679.557442108138
 21
1221.9162885596211
 31
0.0
  0
LINE
  5
10986
  8
KERA4
 10
-1767.3363172529371
 20
411.91628898529149
 30
0.0
 11
-1679.557442108138
 21
411.91628898529149
 31
0.0
  0
LINE
  5
10987
  8
KERA4
 10
-1694.557442108138
 20
1171.9162885596211
 30
0.0
 11
-1694.557442108138
 21
854.89207321993251
 31
0.0
  0
LINE
  5
10988
  8
KERA4
 10
-1694.557442108138
 20
461.91628898529149
 30
0.0
 11
-1694.557442108138
 21
778.94050432498022
 31
0.0
  0
SOLID
  5
10989
  8
KERA4
 10
-1702.8907754414711
 20
1171.9162885596211
 30
0.0
 11
-1686.224108774805
 21
1171.9162885596211
 31
0.0
 12
-1694.557442108138
 22
1221.9162885596211
 32
0.0
 13
-1694.557442108138
 23
1221.9162885596211
 33
0.0
  0
SOLID
  5
1098A
  8
KERA4
 10
-1702.8907754414711
 20
461.91628898529149
 30
0.0
 11
-1686.224108774805
 21
461.91628898529149
 31
0.0
 12
-1694.557442108138
 22
411.91628898529149
 32
0.0
 13
-1694.557442108138
 23
411.91628898529149
 33
0.0
  0
TEXT
  8
KERA4
  40
45
  5
109F1
  72
0
  71
0
 10
-1784.56
 20
737.266
 30
0.000000
  1
810
  0
POINT
  5
1098C
  8
DEFPOINTS
 62
     0
 10
-1944.3076443945411
 20
1221.9162885596211
 30
0.0
  0
POINT
  5
1098D
  8
DEFPOINTS
 62
     0
 10
-1787.3363172529371
 20
411.91628898529149
 30
0.0
  0
POINT
  5
1098E
  8
DEFPOINTS
 62
     0
 10
-1694.557442108138
 20
411.91628898529149
 30
0.0
  0
ENDBLK
  5
100E1
  8
0
  0
BLOCK
  8
0
  2
STERN
 70
     0
 10
0.0
 20
0.0
 30
0.0
  3
STERN
  1

  0
LINE
  5
1013B
  8
KERA4
 10
-7.1415825854878667
 20
-12.3695838845141
 30
0.0
 11
7.1415825854878667
 21
12.3695838845141
 31
0.0
  0
LINE
  5
1013C
  8
KERA4
 10
7.1415825854878667
 20
-12.3695838845141
 30
0.0
 11
-7.1415825854878667
 21
12.3695838845141
 31
0.0
  0
LINE
  5
1013D
  8
KERA4
 10
14.28316517097573
 20
0.0
 30
0.0
 11
-14.28316517097573
 21
0.0
 31
0.0
  0
ENDBLK
  5
1013F
  8
0
  0
BLOCK
  8
0
  2
A$C2C865813
 70
     0
 10
0.0
 20
0.0
 30
0.0
  3
A$C2C865813
  1

  0
INSERT
  5
10141
  8
KERA4
  2
STERN
 10
14.28316607521014
 20
12.369585396661019
 30
0.0
  0
ENDBLK
  5
10143
  8
0
  0
BLOCK
  8
0
  2
A$C698A7CBD
 70
     0
 10
0.0
 20
0.0
 30
0.0
  3
A$C698A7CBD
  1

  0
INSERT
  5
10145
  8
KERA3
  2
A$C2C865813
 10
-0.0000010165927051
 20
-0.0000015715961581
 30
0.0
  0
ENDBLK
  5
10147
  8
0
  0
BLOCK
  8
0
  2
*D13
 70
     1
 10
0.0
 20
0.0
 30
0.0
  3
*D13
  1

  0
LINE
  5
10997
  8
KERA4
 10
-2435.6143949176931
 20
-155.81169330443331
 30
0.0
 11
-2435.6143949176931
 21
-508.04152298082312
 31
0.0
  0
LINE
  5
10998
  8
KERA4
 10
-2015.742124918997
 20
-159.29646535045899
 30
0.0
 11
-2015.742124918997
 21
-508.04152298082312
 31
0.0
  0
LINE
  5
10999
  8
KERA4
 10
-2385.6143949176931
 20
-493.04152298082312
 30
0.0
 11
-2291.46441271507
 21
-493.04152298082312
 31
0.0
  0
LINE
  5
1099A
  8
KERA4
 10
-2065.742124918997
 20
-493.04152298082312
 30
0.0
 11
-2159.8921071216191
 21
-493.04152298082312
 31
0.0
  0
SOLID
  5
1099B
  8
KERA4
 10
-2385.6143949176931
 20
-484.7081896474898
 30
0.0
 11
-2385.6143949176931
 21
-501.37485631415649
 31
0.0
 12
-2435.6143949176931
 22
-493.04152298082312
 32
0.0
 13
-2435.6143949176931
 23
-493.04152298082312
 33
0.0
  0
SOLID
  5
1099C
  8
KERA4
 10
-2065.742124918997
 20
-484.7081896474898
 30
0.0
 11
-2065.742124918997
 21
-501.37485631415649
 31
0.0
 12
-2015.742124918997
 22
-493.04152298082312
 32
0.0
 13
-2015.742124918997
 23
-493.04152298082312
 33
0.0
  0
TEXT
  8
KERA4
  40
45
  5
109F2
  72
0
  71
0
 10
-2315.68
 20
-572.692
 30
0.000000
  1
415
  0
POINT
  5
1099E
  8
DEFPOINTS
 62
     0
 10
-2435.6143949176931
 20
-135.81169330443331
 30
0.0
  0
POINT
  5
1099F
  8
DEFPOINTS
 62
     0
 10
-2015.742124918997
 20
-139.29646535045899
 30
0.0
  0
POINT
  5
109A0
  8
DEFPOINTS
 62
     0
 10
-2015.742124918997
 20
-493.04152298082312
 30
0.0
  0
ENDBLK
  5
102D5
  8
0
  0
BLOCK
  8
0
  2
*D14
 70
     1
 10
0.0
 20
0.0
 30
0.0
  3
*D14
  1

  0
LINE
  5
109A1
  8
KERA4
 10
-2205.6143949176931
 20
-34.145026576610412
 30
0.0
 11
-1772.3363172529371
 21
-34.14502657661054
 31
0.0
  0
LINE
  5
109A2
  8
KERA4
 10
-2205.6143949176931
 20
-344.14502663776648
 30
0.0
 11
-1772.3363172529371
 21
-344.1450266377667
 31
0.0
  0
LINE
  5
109A3
  8
KERA4
 10
-1787.3363172529371
 20
-84.145026576610533
 30
0.0
 11
-1787.3363172529371
 21
-151.15389427431001
 31
0.0
  0
LINE
  5
109A4
  8
KERA4
 10
-1787.3363172529371
 20
-294.1450266377667
 30
0.0
 11
-1787.3363172529371
 21
-227.13615894006719
 31
0.0
  0
SOLID
  5
109A5
  8
KERA4
 10
-1795.6696505862701
 20
-84.145026576610533
 30
0.0
 11
-1779.0029839196029
 21
-84.145026576610533
 31
0.0
 12
-1787.3363172529371
 22
-34.145026576610533
 32
0.0
 13
-1787.3363172529371
 23
-34.145026576610533
 33
0.0
  0
SOLID
  5
109A6
  8
KERA4
 10
-1795.6696505862701
 20
-294.1450266377667
 30
0.0
 11
-1779.0029839196029
 21
-294.1450266377667
 31
0.0
 12
-1787.3363172529371
 22
-344.1450266377667
 32
0.0
 13
-1787.3363172529371
 23
-344.1450266377667
 33
0.0
  0
TEXT
  8
KERA4
  40
45
  5
109F3
  72
0
  71
0
 10
-1877.34
 20
-268.795
 30
0.000000
  1
305
  0
POINT
  5
109A8
  8
DEFPOINTS
 62
     0
 10
-2225.6143949176931
 20
-34.145026576610412
 30
-15.285128674915001
  0
POINT
  5
109A9
  8
DEFPOINTS
 62
     0
 10
-2225.6143949176931
 20
-344.14502663776648
 30
0.0
  0
POINT
  5
109AA
  8
DEFPOINTS
 62
     0
 10
-1787.3363172529371
 20
-344.1450266377667
 30
0.0
  0
ENDBLK
  5
102F7
  8
0
  0
BLOCK
  8
0
  2
*D15
 70
     1
 10
0.0
 20
0.0
 30
0.0
  3
*D15
  1

  0
LINE
  5
109AB
  8
KERA4
 10
-1787.3363172529371
 20
1006.9162972768
 30
0.0
 11
-1787.3363172529371
 21
961.91629727680015
 31
0.0
  0
LINE
  5
109AC
  8
KERA4
 10
-1787.3363172529371
 20
1266.9162885596211
 30
0.0
 11
-1787.3363172529371
 21
1311.9162885596211
 31
0.0
  0
SOLID
  5
109AD
  8
KERA4
 10
-1794.8363172529371
 20
1006.9162972768
 30
0.0
 11
-1779.8363172529371
 21
1006.9162972768
 31
0.0
 12
-1787.3363172529371
 22
1051.9162972767999
 32
0.0
 13
-1787.3363172529371
 23
1051.9162972767999
 33
0.0
  0
SOLID
  5
109AE
  8
KERA4
 10
-1794.8363172529371
 20
1266.9162885596211
 30
0.0
 11
-1779.8363172529371
 21
1266.9162885596211
 31
0.0
 12
-1787.3363172529371
 22
1221.9162885596211
 32
0.0
 13
-1787.3363172529371
 23
1221.9162885596211
 33
0.0
  0
TEXT
  8
KERA4
  40
45
  5
109F4
  72
0
  71
0
 10
-1877.34
 20
1057.27
 30
0.000000
  1
170
  0
POINT
  5
109B0
  8
DEFPOINTS
 62
     0
 10
-1787.3363172529371
 20
1051.9162972767999
 30
0.0
  0
POINT
  5
109B1
  8
DEFPOINTS
 62
     0
 10
-1787.3363172529371
 20
1221.9162885596211
 30
0.0
  0
POINT
  5
109B2
  8
DEFPOINTS
 62
     0
 10
-1787.3363172529371
 20
1221.9162885596211
 30
0.0
  0
ENDBLK
  5
1061A
  8
0
  0
BLOCK
  8
0
  2
*D16
 70
     1
 10
0.0
 20
0.0
 30
0.0
  3
*D16
  1

  0
LINE
  5
109B3
  8
KERA4
 10
-2485.6143845655852
 20
1221.9162885596211
 30
0.0
 11
-2645.5724281474868
 21
1221.9162885596211
 31
0.0
  0
LINE
  5
109B4
  8
KERA4
 10
-2258.5685238210831
 20
1101.9162884893101
 30
0.0
 11
-2645.5724281474868
 21
1101.9162884893101
 31
0.0
  0
LINE
  5
109B5
  8
KERA4
 10
-2630.5724281474868
 20
1266.9162885596211
 30
0.0
 11
-2630.5724281474868
 21
1311.9162885596211
 31
0.0
  0
LINE
  5
109B6
  8
KERA4
 10
-2630.5724281474868
 20
1056.9162884893101
 30
0.0
 11
-2630.5724281474882
 21
1011.91628848931
 31
0.0
  0
SOLID
  5
109B7
  8
KERA4
 10
-2638.0724281474868
 20
1266.9162885596211
 30
0.0
 11
-2623.0724281474868
 21
1266.9162885596211
 31
0.0
 12
-2630.5724281474868
 22
1221.9162885596211
 32
0.0
 13
-2630.5724281474868
 23
1221.9162885596211
 33
0.0
  0
SOLID
  5
109B8
  8
KERA4
 10
-2638.0724281474868
 20
1056.9162884893101
 30
0.0
 11
-2623.0724281474868
 21
1056.9162884893101
 31
0.0
 12
-2630.5724281474868
 22
1101.9162884893101
 32
0.0
 13
-2630.5724281474868
 23
1101.9162884893101
 33
0.0
  0
TEXT
  8
KERA4
  40
45
  5
109F5
  72
0
  71
0
 10
-2720.57
 20
1082.27
 30
0.000000
  1
125
  0
POINT
  5
109BA
  8
DEFPOINTS
 62
     0
 10
-2470.6143845655852
 20
1221.9162885596211
 30
0.0
  0
POINT
  5
109BB
  8
DEFPOINTS
 62
     0
 10
-2243.5685238210831
 20
1101.9162884893101
 30
0.0
  0
POINT
  5
109BC
  8
DEFPOINTS
 62
     0
 10
-2630.5724281474868
 20
1101.9162884893101
 30
0.0
  0
ENDBLK
  5
10628
  8
0
  0
BLOCK
  8
0
  2
*D17
 70
     1
 10
0.0
 20
0.0
 30
0.0
  3
*D17
  1

  0
LINE
  5
109BD
  8
KERA4
 10
-2314.144873177509
 20
991.91628898529143
 30
0.0
 11
-2542.404813752712
 21
991.91628898529143
 31
0.0
  0
LINE
  5
109BE
  8
KERA4
 10
-2276.5264631295281
 20
941.91628898529143
 30
0.0
 11
-2542.404813752712
 21
941.91628898529143
 31
0.0
  0
LINE
  5
109BF
  8
KERA4
 10
-2527.4048137527111
 20
1036.916288985291
 30
0.0
 11
-2527.4048137527111
 21
1081.916288985291
 31
0.0
  0
LINE
  5
109C0
  8
KERA4
 10
-2527.404813752712
 20
896.91628898529154
 30
0.0
 11
-2527.404813752712
 21
851.91628898529154
 31
0.0
  0
TEXT
  8
KERA4
  40
45
  5
109F6
  72
0
  71
0
 10
-2665.93
 20
889.861
 30
0.000000
  1
50
  0
SOLID
  5
109C2
  8
KERA4
 10
-2534.9048137527111
 20
1036.916288985291
 30
0.0
 11
-2519.9048137527111
 21
1036.916288985291
 31
0.0
 12
-2527.404813752712
 22
991.91628898529143
 32
0.0
 13
-2527.404813752712
 23
991.91628898529143
 33
0.0
  0
SOLID
  5
109C3
  8
KERA4
 10
-2534.904813752712
 20
896.91628898529154
 30
0.0
 11
-2519.904813752712
 21
896.91628898529154
 31
0.0
 12
-2527.404813752712
 22
941.91628898529143
 32
0.0
 13
-2527.404813752712
 23
941.91628898529143
 33
0.0
  0
POINT
  5
109C4
  8
DEFPOINTS
 62
     0
 10
-2299.144873177509
 20
991.91628898529143
 30
0.0
  0
POINT
  5
109C5
  8
DEFPOINTS
 62
     0
 10
-2261.5264631295272
 20
941.91628898529143
 30
0.0
  0
POINT
  5
109C6
  8
DEFPOINTS
 62
     0
 10
-2527.404813752712
 20
941.91628898529143
 30
0.0
  0
ENDBLK
  5
1064B
  8
0
  0
BLOCK
  8
0
  2
*D18
 70
     1
 10
0.0
 20
0.0
 30
0.0
  3
*D18
  1

  0
LINE
  5
109C7
  8
KERA4
 10
-2285.6206231707802
 20
963.39203897856248
 30
0.0
 11
-2285.6206231707802
 21
827.44510212655848
 31
0.0
  0
LINE
  5
109C8
  8
KERA4
 10
-2165.6206231707802
 20
963.39203897856237
 30
0.0
 11
-2165.6206231707802
 21
827.44510212655848
 31
0.0
  0
LINE
  5
109C9
  8
KERA4
 10
-2330.6206231707802
 20
842.4451021265586
 30
0.0
 11
-2375.6206231707802
 21
842.4451021265586
 31
0.0
  0
LINE
  5
109CA
  8
KERA4
 10
-2120.6206231707802
 20
842.4451021265586
 30
0.0
 11
-2075.6206231707802
 21
842.4451021265586
 31
0.0
  0
SOLID
  5
109CB
  8
KERA4
 10
-2330.6206231707802
 20
849.94510212655848
 30
0.0
 11
-2330.6206231707802
 21
834.9451021265586
 31
0.0
 12
-2285.6206231707802
 22
842.4451021265586
 32
0.0
 13
-2285.6206231707802
 23
842.4451021265586
 33
0.0
  0
SOLID
  5
109CC
  8
KERA4
 10
-2120.6206231707802
 20
849.94510212655848
 30
0.0
 11
-2120.6206231707802
 21
834.9451021265586
 31
0.0
 12
-2165.6206231707802
 22
842.4451021265586
 32
0.0
 13
-2165.6206231707802
 23
842.4451021265586
 33
0.0
  0
TEXT
  8
KERA4
  40
45
  5
109F7
  72
0
  71
0
 10
-2315.62
 20
762.795
 30
0.000000
  1
120
  0
POINT
  5
109CE
  8
DEFPOINTS
 62
     0
 10
-2285.6206231707802
 20
978.39203897856237
 30
0.0
  0
POINT
  5
109CF
  8
DEFPOINTS
 62
     0
 10
-2165.6206231707802
 20
978.39203897856237
 30
0.0
  0
POINT
  5
109D0
  8
DEFPOINTS
 62
     0
 10
-2165.6206231707802
 20
842.4451021265586
 30
0.0
  0
ENDBLK
  5
1066D
  8
0
  0
BLOCK
  8
0
  2
*D19
 70
     1
 10
0.0
 20
0.0
 30
0.0
  3
*D19
  1

  0
LINE
  5
109D1
  8
KERA4
 10
-2234.4817297835348
 20
115.70128623270639
 30
0.0
 11
-2645.5724281474868
 21
115.70128623270649
 31
0.0
  0
LINE
  5
109D2
  8
KERA4
 10
-2240.6143949176931
 20
-34.145026576610412
 30
0.0
 11
-2645.5724281474868
 21
-34.145026576610277
 31
0.0
  0
LINE
  5
109D3
  8
KERA4
 10
-2630.5724281474868
 20
160.70128623270651
 30
0.0
 11
-2630.5724281474868
 21
205.70128623270659
 31
0.0
  0
LINE
  5
109D4
  8
KERA4
 10
-2630.5724281474868
 20
-79.145026576610306
 30
0.0
 11
-2630.5724281474868
 21
-124.14502657661031
 31
0.0
  0
SOLID
  5
109D5
  8
KERA4
 10
-2638.0724281474868
 20
160.70128623270651
 30
0.0
 11
-2623.0724281474868
 21
160.70128623270651
 31
0.0
 12
-2630.5724281474868
 22
115.70128623270649
 32
0.0
 13
-2630.5724281474868
 23
115.70128623270649
 33
0.0
  0
SOLID
  5
109D6
  8
KERA4
 10
-2638.0724281474868
 20
-79.145026576610306
 30
0.0
 11
-2623.0724281474868
 21
-79.145026576610306
 31
0.0
 12
-2630.5724281474868
 22
-34.145026576610299
 32
0.0
 13
-2630.5724281474868
 23
-34.145026576610299
 33
0.0
  0
TEXT
  8
KERA4
  40
45
  5
109F8
  72
0
  71
0
 10
-2720.57
 20
-38.8719
 30
0.000000
  1
150
  0
POINT
  5
109D8
  8
DEFPOINTS
 62
     0
 10
-2219.4817297835348
 20
115.70128623270639
 30
0.0
  0
POINT
  5
109D9
  8
DEFPOINTS
 62
     0
 10
-2225.6143949176931
 20
-34.145026576610412
 30
-15.285128674915001
  0
POINT
  5
109DA
  8
DEFPOINTS
 62
     0
 10
-2630.5724281474868
 20
-34.145026576610299
 30
0.0
  0
ENDBLK
  5
10687
  8
0
  0
BLOCK
  8
0
  2
*D20
 70
     1
 10
0.0
 20
0.0
 30
0.0
  3
*D20
  1

  0
LINE
  5
109DB
  8
KERA4
 10
-2240.6143949176931
 20
115.85497336223369
 30
0.0
 11
-2542.404813752712
 21
115.85497336223381
 31
0.0
  0
LINE
  5
109DC
  8
KERA4
 10
-2263.2641259567922
 20
25.870676251296828
 30
0.0
 11
-2542.404813752712
 21
25.87067625129691
 31
0.0
  0
LINE
  5
109DD
  8
KERA4
 10
-2527.404813752712
 20
160.85497336223381
 30
0.0
 11
-2527.404813752712
 21
205.85497336223381
 31
0.0
  0
LINE
  5
109DE
  8
KERA4
 10
-2527.404813752712
 20
-19.12932374870309
 30
0.0
 11
-2527.404813752712
 21
-64.129323748703101
 31
0.0
  0
SOLID
  5
109DF
  8
KERA4
 10
-2534.904813752712
 20
160.85497336223381
 30
0.0
 11
-2519.904813752712
 21
160.85497336223381
 31
0.0
 12
-2527.404813752712
 22
115.85497336223381
 32
0.0
 13
-2527.404813752712
 23
115.85497336223381
 33
0.0
  0
SOLID
  5
109E0
  8
KERA4
 10
-2534.904813752712
 20
-19.12932374870309
 30
0.0
 11
-2519.904813752712
 21
-19.129323748703101
 31
0.0
 12
-2527.404813752712
 22
25.87067625129691
 32
0.0
 13
-2527.404813752712
 23
25.87067625129691
 33
0.0
  0
TEXT
  8
KERA4
  40
45
  5
109F9
  72
0
  71
0
 10
-2617.40
 20
-8.78718
 30
0.000000
  1
90
  0
POINT
  5
109E2
  8
DEFPOINTS
 62
     0
 10
-2225.6143949176931
 20
115.85497336223369
 30
0.0
  0
POINT
  5
109E3
  8
DEFPOINTS
 62
     0
 10
-2248.2641259567922
 20
25.870676251296828
 30
-0.000000198220303
  0
POINT
  5
109E4
  8
DEFPOINTS
 62
     0
 10
-2527.404813752712
 20
25.87067625129691
 30
0.0
  0
ENDBLK
  5
106B7
  8
0
  0
BLOCK
  8
0
  2
*U21
 70
     1
 10
0.0
 20
0.0
 30
0.0
  3
*U21
  1

  0
TEXT
  5
10956
  8
KERA4
 10
-2428.2384658674
 20
-723.54436120515811
 30
0.0
 40
40.0
  1
Preciosa
  0
TEXT
  5
10957
  8
KERA4
 10
-2428.3203212562121
 20
-791.68442487046036
 30
0.0
 40
40.0
  1
Unterbauwaschtisch Ø50 cm
  0
TEXT
  5
10958
  8
KERA4
 10
-2427.6109078864988
 20
-866.40020477041492
 30
0.0
 40
40.0
  1
mit Hahnloch, mit Überlauf
  0
TEXT
  5
10959
  8
KERA4
 10
-2428.0747550897731
 20
-933.23058221470785
 30
0.0
 40
40.0
  1
Mod.-Nr. 24 82 00
  0
TEXT
  5
1095A
  8
KERA4
 10
-2430.011999291683
 20
-1000.579377121483
 30
0.0
 40
40.0
  1
11.05.05/Re     Gewicht: 12,5 Kg
  0
ENDBLK
  5
1095C
  8
0
  0
BLOCK
  8
0
  2
*U22
 70
     1
 10
0.0
 20
0.0
 30
0.0
  3
*U22
  1

  0
TEXT
  5
10990
  8
KERA4
 10
-1686.405587535932
 20
1318.809060970164
 30
0.0
 40
50.0
  1
40
  0
ENDBLK
  5
10992
  8
0
  0
BLOCK
  8
0
  2
*U23
 70
     1
 10
0.0
 20
0.0
 30
0.0
  3
*U23
  1

  0
TEXT
  5
109E6
  8
KERA4
 10
-2568.6127167905561
 20
315.35483900674711
 30
0.000000198220303
 40
40.0
  1
Maße aufgrund der Plattenstärke variabel!
  0
ENDBLK
  5
109E8
  8
0
  0
ENDSEC
  0
SECTION
  2
ENTITIES
  0
INSERT
  5
563B
  8
ASHADE
 62
     1
  2
AVE_RENDER
 10
0.0
 20
0.0
 30
0.0
1001
AVE_RENDER
1002
{
1070
     7
1000
Pref
1070
    30
1070
    20
1070
     1
1070
     0
1000

1070
    10
1070
     1
1070
    10
1040
1.0
1070
     1
1040
0.3
1040
0.7
1040
0.0
1040
10.0
1010
-1.0
1020
-1.0
1030
-1.0
1040
0.3
1070
    49
1070
     0
1070
     0
1010
1.0
1020
1.0
1030
1.0
1040
45.0
1070
     1
1070
     0
1000
WCS
1040
0.0
1070
     0
1040
10.0
1002
}
  0
INSERT
  5
563C
  8
ASHADE
 62
     3
  2
AVE_RENDER
 10
0.0
 20
0.0
 30
0.0
1001
AVE_RENDER
1002
{
1070
     0
1000
Full Opt
1070
     0
1070
     1
1070
     1
1070
     1
1070
     0
1070
     0
1070
     0
1070
     1
1070
     1
1040
0.0001
1040
0.0001
1002
}
  0
INSERT
  5
563D
  8
ASHADE
 62
     4
  2
AVE_RENDER
 10
0.0
 20
0.0
 30
0.0
1001
AVE_RENDER
1002
{
1070
     0
1000
Quick Opt
1070
     0
1070
     1
1070
     1
1070
     1
1070
     0
1070
     0
1070
     1
1002
}
  0
INSERT
  5
563E
  8
ASHADE
 62
     5
  2
AVE_RENDER
 10
0.0
 20
0.0
 30
0.0
1001
AVE_RENDER
1002
{
1070
     1
1000
Scanl Opt
1070
     2
1070
     0
1070
     2
1040
2.0
1040
4.0
1070
     0
1070
     1
1070
     0
1040
0.03
1002
}
  0
INSERT
  5
563F
  8
ASHADE
 62
     6
  2
AVE_RENDER
 10
0.0
 20
0.0
 30
0.0
1001
AVE_RENDER
1002
{
1070
     2
1000
Raytr Opt
1070
     2
1070
     0
1070
     2
1040
2.0
1040
4.0
1070
     0
1070
     1
1070
     1
1040
0.03
1070
     3
1040
0.03
1002
}
  0
INSERT
  5
5640
  8
ASHADE
 62
     7
  2
AVE_RENDER
 10
0.0
 20
0.0
 30
0.0
1001
AVE_RENDER
1002
{
1070
     0
1000
RFile Opt
1070
     1
1070
   640
1070
   480
1070
 10000
1070
     1
1070
     8
1070
     8
1070
     0
1070
     0
1070
     0
1070
     0
1070
     0
1070
     0
1070
     0
1002
}
  0
INSERT
  5
5641
  8
ASHADE
 62
     8
  2
AVE_RENDER
 10
0.0
 20
0.0
 30
0.0
1001
AVE_RENDER
1002
{
1070
     0
1000
Fog Opt
1070
     0
1070
     0
1040
0.0
1040
1.0
1040
0.0
1040
1.0
1010
0.5
1020
0.5
1030
0.5
1002
}
  0
INSERT
  5
5642
  8
ASHADE
 62
     9
  2
AVE_RENDER
 10
0.0
 20
0.0
 30
0.0
1001
AVE_RENDER
1002
{
1070
     0
1000
BG Opt
1070
     0
1070
     1
1010
0.0
1020
0.0
1030
0.0
1010
1.0
1020
0.0
1030
0.0
1010
0.0
1020
1.0
1030
0.0
1010
0.0
1020
0.0
1030
1.0
1040
0.5
1040
0.33
1040
0.0
1000

1070
     1
1000

1070
     1
1070
     1
1040
1.0
1040
1.0
1040
0.0
1040
0.0
1070
     0
1002
}
  0
INSERT
  5
5649
  8
ASHADE
 62
     1
  2
AVE_GLOBAL
 10
0.0
 20
0.0
 30
0.0
1001
AVE_MATERIAL
1002
{
1000
*GLOBAL*
1000
1
1000
Globales Material.
1002
{
1002
}
1002
{
1070
    63
1002
{
1002
{
1010
-1.0
1020
-1.0
1030
-1.0
1002
}
1040
0.1000000014901161
1000

1040
0.0
1002
{
1002
}
1040
0.0
1002
{
1002
}
1040
0.0
1002
}
1002
{
1002
{
1010
-1.0
1020
-1.0
1030
-1.0
1002
}
1040
0.699999988079071
1000

1040
0.0
1002
{
1002
}
1040
0.0
1002
{
1002
}
1040
0.0
1002
}
1002
{
1002
{
1010
-1.0
1020
-1.0
1030
-1.0
1002
}
1040
0.2000000029802322
1000

1040
0.0
1002
{
1002
}
1040
0.0
1002
{
1002
}
1040
0.0
1002
}
1002
{
1070
     0
1002
{
1070
     1
1002
{
1040
1.0
1040
1.0
1000

1040
0.0
1002
{
1002
}
1040
0.0
1002
{
1002
}
1040
0.0
1002
}
1002
}
1040
1.0
1040
0.0
1040
0.0
1002
}
1002
{
1040
1.0
1040
1.0
1000

1040
0.0
1002
{
1002
}
1040
0.0
1002
{
1002
}
1040
0.0
1002
}
1002
{
1040
0.5
1040
1.0
1000

1040
0.0
1002
{
1002
}
1040
0.0
1002
{
1002
}
1040
0.0
1002
}
1002
{
1070
     0
1040
0.0
1002
{
1002
}
1040
1.0
1002
{
1002
}
1040
0.0
1002
}
1002
{
1040
0.0
1002
{
1002
{
1010
0.0
1020
0.0
1030
0.0
1002
}
1040
1.0
1000

1040
0.0
1002
{
1002
}
1040
0.0
1002
{
1002
}
1040
0.0
1002
}
1002
}
1002
{
1002
{
1070
     1
1002
{
1040
0.0
1040
1.0
1000

1040
0.0
1002
{
1002
}
1040
0.0
1002
{
1002
}
1040
0.0
1002
}
1002
}
1040
0.0
1002
{
1002
}
1010
1.0
1020
0.0
1030
0.0
1010
0.0
1020
1.0
1030
0.0
1010
0.0
1020
0.0
1030
1.0
1070
     0
1002
}
1002
{
1002
{
1040
1.0
1040
1.0
1002
{
1070
     1
1002
{
1040
1.0
1040
1.0
1000

1040
0.0
1002
{
1002
}
1040
0.0
1002
{
1002
}
1040
0.0
1002
}
1002
}
1002
}
1070
     0
1040
0.0
1002
{
1002
}
1002
}
1002
{
1002
}
1002
}
1002
{
1071
        3
1070
     3
1070
     0
1002
{
1070
     2
1070
     0
1070
     0
1040
0.0
1002
}
1070
     0
1070
     2
1002
{
1002
}
1002
}
1002
{
1040
8030.0
1040
190.30000305175781
1040
0.3050000071525574
1040
228.0
1040
545.0
1040
14.0
1040
17.39999961853027
1040
0.4560000002384186
1002
}
1002
}
  0
INSERT
  5
BD29
  8
KERA4
  2
*U21
 10
0.0
 20
0.0
 30
0.0
  0
INSERT
  5
D9DB
  8
KERA7
  2
A$C6F5579A8
 10
-2554.486244101794
 20
411.91628855962131
 30
0.0
  0
CIRCLE
  5
DA15
  8
KERA0
 10
-2225.6206231707802
 20
941.91628898529143
 30
0.0
 40
27.5
  0
LINE
  5
DA16
  8
KERA2
 10
-2225.6206231707802
 20
977.82212894403835
 30
0.0
 11
-2225.6206231707802
 21
906.01044902654428
 31
0.0
  0
LINE
  5
DA17
  8
KERA2
 10
-2261.5264631295272
 20
941.91628898529143
 30
0.0
 11
-2189.7147832120331
 21
941.91628898529143
 31
0.0
  0
DIMENSION
  5
DA88
  8
KERA4
  2
*D4
 10
-1602.0643297065851
 20
411.91628898529137
 30
0.0
 11
-1602.0643297065851
 21
892.5719255346105
 31
0.0
 70
   128
 13
-2000.6206617910179
 23
1261.9162885596211
 33
0.0
 14
-2000.6206617910179
 24
411.91628898529149
 34
0.0
 50
90.0
1001
ACAD
1000
DSTYLE
1002
{
1070
   287
1070
     5
1070
    41
1040
50.0
1070
    42
1040
20.0
1070
    43
1040
15.0
1070
    44
1040
15.0
1070
    78
1070
     8
1070
   140
1040
50.0
1070
   141
1040
20.0
1070
   143
1040
0.0394
1070
   147
1040
15.0
1070
   171
1070
     4
1070
   172
1070
     1
1070
   176
1070
   256
1070
   177
1070
   256
1070
   178
1070
   256
1070
   271
1070
     0
1070
   272
1070
     0
1070
   273
1070
     8
1070
   274
1070
     4
1070
   279
1070
     2
1002
}
  0
DIMENSION
  5
DAC0
  8
KERA4
  2
*D5
 10
-1883.8684736906889
 20
411.91628898529149
 30
0.0
 11
-1883.8684736906889
 21
676.91628898529109
 31
0.0
 70
     0
 13
-2169.7147832120331
 23
941.91628898529143
 33
0.0
 14
-1919.207271971439
 24
411.91628898529149
 34
0.0
 50
90.0
1001
ACAD
1000
DSTYLE
1002
{
1070
   287
1070
     5
1070
    41
1040
50.0
1070
    42
1040
20.0
1070
    43
1040
15.0
1070
    44
1040
15.0
1070
    78
1070
     8
1070
   140
1040
50.0
1070
   141
1040
20.0
1070
   143
1040
0.0394
1070
   147
1040
15.0
1070
   171
1070
     4
1070
   172
1070
     1
1070
   176
1070
   256
1070
   177
1070
   256
1070
   178
1070
   256
1070
   271
1070
     0
1070
   272
1070
     0
1070
   273
1070
     8
1070
   274
1070
     4
1070
   279
1070
     2
1002
}
  0
LINE
  5
DB36
  8
KERA2
 10
-1935.730696237212
 20
1261.916288559622
 30
0.0
 11
-2515.510550104349
 21
1261.916288559622
 31
0.0
  0
LINE
  5
DB38
  8
KERA2
 10
-1944.3076443945411
 20
1221.9162885596211
 30
0.0
 11
-2506.9336019470202
 21
1221.9162885596211
 31
0.0
  0
LINE
  5
DB39
  8
KERA2
 10
-1946.4845275493039
 20
1211.764038062905
 30
-0.0000000000000015
 11
-1932.9839809601831
 21
1274.726044321905
 31
-0.0000000000000015
  0
LINE
  5
DB48
  8
KERA2
 10
-2504.7567187922559
 20
1211.1655555289699
 30
0.000000198220251
 11
-2518.2572653813768
 21
1274.1275617879701
 31
0.000000198220251
  0
POLYLINE
  5
EE43
  8
KERA0
 66
     1
 10
0.0
 20
0.0
 30
0.0
 70
    12
 75
     6
  0
VERTEX
  5
EE44
  8
KERA0
 10
-2407.8173111614169
 20
-70.359299266541996
 30
-15.283855124996
 70
    48
  0
VERTEX
  5
1027F
  8
KERA0
 10
-2407.8173111614169
 20
-70.359299266541996
 30
-15.283855124996
 70
    40
  0
VERTEX
  5
10280
  8
KERA0
 10
-2386.1166433189892
 20
-62.01692154643974
 30
-15.28414850199036
 70
    40
  0
VERTEX
  5
10281
  8
KERA0
 10
-2363.9860968013459
 20
-54.729119368681282
 30
-15.28440479265109
 70
    40
  0
VERTEX
  5
10282
  8
KERA0
 10
-2341.4870828478051
 20
-48.513689766931968
 30
-15.284623371108649
 70
    40
  0
VERTEX
  5
10283
  8
KERA0
 10
-2318.6810126976811
 20
-43.388429774857173
 30
-15.2848036114935
 70
    40
  0
VERTEX
  5
10284
  8
KERA0
 10
-2295.6292975902911
 20
-39.371136426122263
 30
-15.28494488793609
 70
    40
  0
VERTEX
  5
10285
  8
KERA0
 10
-2272.3933487649529
 20
-36.479606754392577
 30
-15.2850465745669
 70
    40
  0
VERTEX
  5
10286
  8
KERA0
 10
-2249.0345774609809
 20
-34.731637793333512
 30
-15.285108045516379
 70
    40
  0
VERTEX
  5
10287
  8
KERA0
 10
-2225.6143949176931
 20
-34.145026576610412
 30
-15.285128674915001
 70
    40
  0
VERTEX
  5
10288
  8
KERA0
 10
-2202.1942123744052
 20
-34.731637793333512
 30
-15.28510804551639
 70
    40
  0
VERTEX
  5
10289
  8
KERA0
 10
-2178.8354410704342
 20
-36.479606754392577
 30
-15.2850465745669
 70
    40
  0
VERTEX
  5
1028A
  8
KERA0
 10
-2155.599492245095
 20
-39.371136426122263
 30
-15.284944887936099
 70
    40
  0
VERTEX
  5
1028B
  8
KERA0
 10
-2132.547777137705
 20
-43.388429774857173
 30
-15.2848036114935
 70
    40
  0
VERTEX
  5
1028C
  8
KERA0
 10
-2109.7417069875819
 20
-48.513689766931968
 30
-15.284623371108649
 70
    40
  0
VERTEX
  5
1028D
  8
KERA0
 10
-2087.2426930340412
 20
-54.729119368681282
 30
-15.28440479265109
 70
    40
  0
VERTEX
  5
1028E
  8
KERA0
 10
-2065.1121465163992
 20
-62.016921546439747
 30
-15.28414850199036
 70
    40
  0
VERTEX
  5
1028F
  8
KERA0
 10
-2043.4114786739719
 20
-70.359299266541996
 30
-15.283855124996
 70
    40
  0
VERTEX
  5
EE45
  8
KERA0
 10
-2350.5766229168448
 20
-46.722677541957921
 30
-15.284686355764
 70
    48
  0
VERTEX
  5
EE46
  8
KERA0
 10
-2225.6143949176931
 20
-21.567375611262889
 30
-15.285570994065999
 70
    48
  0
VERTEX
  5
EE47
  8
KERA0
 10
-2100.6521669185422
 20
-46.722677541957921
 30
-15.284686355764
 70
    48
  0
VERTEX
  5
EE48
  8
KERA0
 10
-2043.4114786739719
 20
-70.359299266541996
 30
-15.283855124996
 70
    48
  0
SEQEND
  5
EE52
  8
KERA0
  0
POLYLINE
  5
EE53
  8
KERA0
 66
     1
 10
0.0
 20
0.0
 30
0.0
 70
    13
 75
     6
  0
VERTEX
  5
EE54
  8
KERA0
 10
-2026.548701885464
 20
-216.60073649491491
 30
0.0
 70
    48
  0
VERTEX
  5
101E6
  8
KERA0
 10
-2015.614394917694
 20
-134.14502663776659
 30
0.0
 70
    40
  0
VERTEX
  5
101E7
  8
KERA0
 10
-2015.8698549203
 20
-123.8454044207151
 30
0.0
 70
    40
  0
VERTEX
  5
101E8
  8
KERA0
 10
-2016.6329836603129
 20
-113.5898312942162
 30
0.0
 70
    40
  0
VERTEX
  5
101E9
  8
KERA0
 10
-2017.8989042360249
 20
-103.42235634882211
 30
0.0
 70
    40
  0
VERTEX
  5
101EA
  8
KERA0
 10
-2019.6627397457289
 20
-93.387028675085674
 30
0.0
 70
    40
  0
VERTEX
  5
101EB
  8
KERA0
 10
-2021.9196132877189
 20
-83.527897363559163
 30
0.0
 70
    40
  0
VERTEX
  5
101EC
  8
KERA0
 10
-2024.6646479602859
 20
-73.889011504795135
 30
0.0
 70
    40
  0
VERTEX
  5
101ED
  8
KERA0
 10
-2027.8929668617229
 20
-64.514420189346126
 30
0.0
 70
    40
  0
VERTEX
  5
101EE
  8
KERA0
 10
-2031.5996930903229
 20
-55.448172507764582
 30
0.0
 70
    40
  0
VERTEX
  5
101EF
  8
KERA0
 10
-2035.7784478544891
 20
-46.723929822441477
 30
0.0
 70
    40
  0
VERTEX
  5
101F0
  8
KERA0
 10
-2040.4168448030639
 20
-38.33380258312156
 30
0.0
 70
    40
  0
VERTEX
  5
101F1
  8
KERA0
 10
-2045.5009956950021
 20
-30.25951351138794
 30
0.0
 70
    40
  0
VERTEX
  5
101F2
  8
KERA0
 10
-2051.0170122892569
 20
-22.48278532882378
 30
0.0
 70
    40
  0
VERTEX
  5
101F3
  8
KERA0
 10
-2056.9510063447829
 20
-14.98534075701226
 30
0.0
 70
    40
  0
VERTEX
  5
101F4
  8
KERA0
 10
-2063.2890896205322
 20
-7.74890251753654
 30
0.0
 70
    40
  0
VERTEX
  5
101F5
  8
KERA0
 10
-2070.0173738754588
 20
-0.755193331979759
 30
0.0
 70
    40
  0
VERTEX
  5
101F6
  8
KERA0
 10
-2077.121970868518
 20
6.0140640780749086
 30
0.0
 70
    40
  0
VERTEX
  5
101F7
  8
KERA0
 10
-2084.5878428619071
 20
12.57178607113379
 30
0.0
 70
    40
  0
VERTEX
  5
101F8
  8
KERA0
 10
-2092.3953541307969
 20
18.90944532606111
 30
0.0
 70
    40
  0
VERTEX
  5
101F9
  8
KERA0
 10
-2100.5237194536048
 20
25.01315360181059
 30
0.0
 70
    40
  0
VERTEX
  5
101FA
  8
KERA0
 10
-2108.95215360875
 20
30.86902265733594
 30
0.0
 70
    40
  0
VERTEX
  5
101FB
  8
KERA0
 10
-2117.659871374648
 20
36.463164251590861
 30
0.0
 70
    40
  0
VERTEX
  5
101FC
  8
KERA0
 10
-2126.6260875297139
 20
41.781690143529062
 30
0.0
 70
    40
  0
VERTEX
  5
101FD
  8
KERA0
 10
-2135.8300168523679
 20
46.810712092104268
 30
0.0
 70
    40
  0
VERTEX
  5
101FE
  8
KERA0
 10
-2145.250874121024
 20
51.536341856270212
 30
0.0
 70
    40
  0
VERTEX
  5
101FF
  8
KERA0
 10
-2154.867252010939
 20
55.936427459870401
 30
0.0
 70
    40
  0
VERTEX
  5
10200
  8
KERA0
 10
-2164.6552547847209
 20
59.955761986307657
 30
0.0
 70
    40
  0
VERTEX
  5
10201
  8
KERA0
 10
-2174.5903646018191
 20
63.530874783874708
 30
0.0
 70
    40
  0
VERTEX
  5
10202
  8
KERA0
 10
-2184.6480636216788
 20
66.598295200864172
 30
0.0
 70
    40
  0
VERTEX
  5
10203
  8
KERA0
 10
-2194.8038340037492
 20
69.094552585568735
 30
0.0
 70
    40
  0
VERTEX
  5
10204
  8
KERA0
 10
-2205.0331579074759
 20
70.956176286281092
 30
0.0
 70
    40
  0
VERTEX
  5
10205
  8
KERA0
 10
-2215.3115174923082
 20
72.119695651293867
 30
0.0
 70
    40
  0
VERTEX
  5
10206
  8
KERA0
 10
-2225.6143949176931
 20
72.521640028899753
 30
0.0
 70
    40
  0
VERTEX
  5
10207
  8
KERA0
 10
-2235.9172723430779
 20
72.119695651293895
 30
0.0
 70
    40
  0
VERTEX
  5
10208
  8
KERA0
 10
-2246.1956319279111
 20
70.956176286281121
 30
0.0
 70
    40
  0
VERTEX
  5
10209
  8
KERA0
 10
-2256.4249558316369
 20
69.094552585568792
 30
0.0
 70
    40
  0
VERTEX
  5
1020A
  8
KERA0
 10
-2266.5807262137068
 20
66.598295200864229
 30
0.0
 70
    40
  0
VERTEX
  5
1020B
  8
KERA0
 10
-2276.6384252335679
 20
63.530874783874758
 30
0.0
 70
    40
  0
VERTEX
  5
1020C
  8
KERA0
 10
-2286.5735350506652
 20
59.955761986307742
 30
0.0
 70
    40
  0
VERTEX
  5
1020D
  8
KERA0
 10
-2296.3615378244472
 20
55.936427459870458
 30
0.0
 70
    40
  0
VERTEX
  5
1020E
  8
KERA0
 10
-2305.9779157143621
 20
51.53634185627029
 30
0.0
 70
    40
  0
VERTEX
  5
1020F
  8
KERA0
 10
-2315.3987729830192
 20
46.807456883771032
 30
0.0
 70
    40
  0
VERTEX
  5
10210
  8
KERA0
 10
-2324.6027023056722
 20
41.755648476862468
 30
0.0
 70
    40
  0
VERTEX
  5
10211
  8
KERA0
 10
-2333.568918460739
 20
36.375273626590918
 30
0.0
 70
    40
  0
VERTEX
  5
10212
  8
KERA0
 10
-2342.276636226637
 20
30.660689324002661
 30
0.0
 70
    40
  0
VERTEX
  5
10213
  8
KERA0
 10
-2350.7050703817808
 20
24.606252560143972
 30
0.0
 70
    40
  0
VERTEX
  5
10214
  8
KERA0
 10
-2358.833435704591
 20
18.206320326061139
 30
0.0
 70
    40
  0
VERTEX
  5
10215
  8
KERA0
 10
-2366.6409469734808
 20
11.455249612800481
 30
0.0
 70
    40
  0
VERTEX
  5
10216
  8
KERA0
 10
-2374.1068189668681
 20
4.3473974114082621
 30
0.0
 70
    40
  0
VERTEX
  5
10217
  8
KERA0
 10
-2381.2114159599269
 20
-3.1152193736464122
 30
0.0
 70
    40
  0
VERTEX
  5
10218
  8
KERA0
 10
-2387.9397002148548
 20
-10.899944184203189
 30
0.0
 70
    40
  0
VERTEX
  5
10219
  8
KERA0
 10
-2394.2777834906042
 20
-18.966460548678921
 30
0.0
 70
    40
  0
VERTEX
  5
1021A
  8
KERA0
 10
-2400.2117775461302
 20
-27.274451995490448
 30
0.0
 70
    40
  0
VERTEX
  5
1021B
  8
KERA0
 10
-2405.727794140384
 20
-35.783602053054601
 30
0.0
 70
    40
  0
VERTEX
  5
1021C
  8
KERA0
 10
-2410.8119450323229
 20
-44.45359424978821
 30
0.0
 70
    40
  0
VERTEX
  5
1021D
  8
KERA0
 10
-2415.450341980898
 20
-53.244112114108148
 30
0.0
 70
    40
  0
VERTEX
  5
1021E
  8
KERA0
 10
-2419.6290967450641
 20
-62.114839174431253
 30
0.0
 70
    40
  0
VERTEX
  5
1021F
  8
KERA0
 10
-2423.3358229736641
 20
-71.034602481012783
 30
0.0
 70
    40
  0
VERTEX
  5
10220
  8
KERA0
 10
-2426.5641418751011
 20
-80.008803171461807
 30
0.0
 70
    40
  0
VERTEX
  5
10221
  8
KERA0
 10
-2429.3091765476679
 20
-89.05198590522582
 30
0.0
 70
    40
  0
VERTEX
  5
10222
  8
KERA0
 10
-2431.566050089657
 20
-98.178695341752345
 30
0.0
 70
    40
  0
VERTEX
  5
10223
  8
KERA0
 10
-2433.3298855993621
 20
-107.40347614048881
 30
0.0
 70
    40
  0
VERTEX
  5
10224
  8
KERA0
 10
-2434.5958061750739
 20
-116.7408729608828
 30
0.0
 70
    40
  0
VERTEX
  5
10225
  8
KERA0
 10
-2435.358934915087
 20
-126.2054304623818
 30
0.0
 70
    40
  0
VERTEX
  5
10226
  8
KERA0
 10
-2435.6143949176931
 20
-135.81169330443331
 30
0.0
 70
    40
  0
VERTEX
  5
10227
  8
KERA0
 10
-2435.358934915088
 20
-145.56444052148481
 30
0.0
 70
    40
  0
VERTEX
  5
10228
  8
KERA0
 10
-2434.5958061750739
 20
-155.4293886479837
 30
0.0
 70
    40
  0
VERTEX
  5
10229
  8
KERA0
 10
-2433.3298855993621
 20
-165.36248859337769
 30
0.0
 70
    40
  0
VERTEX
  5
1022A
  8
KERA0
 10
-2431.5660500896579
 20
-175.31969126711419
 30
0.0
 70
    40
  0
VERTEX
  5
1022B
  8
KERA0
 10
-2429.3091765476688
 20
-185.25694757864059
 30
0.0
 70
    40
  0
VERTEX
  5
1022C
  8
KERA0
 10
-2426.564141875102
 20
-195.13020843740469
 30
0.0
 70
    40
  0
VERTEX
  5
1022D
  8
KERA0
 10
-2423.3358229736641
 20
-204.8954247528537
 30
0.0
 70
    40
  0
VERTEX
  5
1022E
  8
KERA0
 10
-2419.6290967450641
 20
-214.5085474344352
 30
0.0
 70
    40
  0
VERTEX
  5
1022F
  8
KERA0
 10
-2415.4503419808989
 20
-223.92940470309171
 30
0.0
 70
    40
  0
VERTEX
  5
10230
  8
KERA0
 10
-2410.8119450323229
 20
-233.133334025745
 30
0.0
 70
    40
  0
VERTEX
  5
10231
  8
KERA0
 10
-2405.727794140385
 20
-242.099550180812
 30
0.0
 70
    40
  0
VERTEX
  5
10232
  8
KERA0
 10
-2400.2117775461302
 20
-250.80726794670949
 30
0.0
 70
    40
  0
VERTEX
  5
10233
  8
KERA0
 10
-2394.2777834906051
 20
-259.23570210185437
 30
0.0
 70
    40
  0
VERTEX
  5
10234
  8
KERA0
 10
-2387.9397002148548
 20
-267.36406742466357
 30
0.0
 70
    40
  0
VERTEX
  5
10235
  8
KERA0
 10
-2381.2114159599282
 20
-275.17157869355373
 30
0.0
 70
    40
  0
VERTEX
  5
10236
  8
KERA0
 10
-2374.106818966869
 20
-282.63745068694169
 30
0.0
 70
    40
  0
VERTEX
  5
10237
  8
KERA0
 10
-2366.6409469734808
 20
-289.74204768000061
 30
0.0
 70
    40
  0
VERTEX
  5
10238
  8
KERA0
 10
-2358.833435704591
 20
-296.47033193492791
 30
0.0
 70
    40
  0
VERTEX
  5
10239
  8
KERA0
 10
-2350.7050703817822
 20
-302.80841521067731
 30
0.0
 70
    40
  0
VERTEX
  5
1023A
  8
KERA0
 10
-2342.276636226637
 20
-308.74240926620251
 30
0.0
 70
    40
  0
VERTEX
  5
1023B
  8
KERA0
 10
-2333.568918460739
 20
-314.25842586045741
 30
0.0
 70
    40
  0
VERTEX
  5
1023C
  8
KERA0
 10
-2324.6027023056722
 20
-319.34257675239559
 30
0.0
 70
    40
  0
VERTEX
  5
1023D
  8
KERA0
 10
-2315.3987729830192
 20
-323.98097370097082
 30
0.0
 70
    40
  0
VERTEX
  5
1023E
  8
KERA0
 10
-2305.9779157143621
 20
-328.15972846513671
 30
0.0
 70
    40
  0
VERTEX
  5
1023F
  8
KERA0
 10
-2296.3615378244472
 20
-331.8664546937369
 30
0.0
 70
    40
  0
VERTEX
  5
10240
  8
KERA0
 10
-2286.5735350506652
 20
-335.09477359517422
 30
0.0
 70
    40
  0
VERTEX
  5
10241
  8
KERA0
 10
-2276.6384252335679
 20
-337.83980826774132
 30
0.0
 70
    40
  0
VERTEX
  5
10242
  8
KERA0
 10
-2266.5807262137068
 20
-340.0966818097308
 30
0.0
 70
    40
  0
VERTEX
  5
10243
  8
KERA0
 10
-2256.4249558316369
 20
-341.86051731943542
 30
0.0
 70
    40
  0
VERTEX
  5
10244
  8
KERA0
 10
-2246.1956319279111
 20
-343.12643789514777
 30
0.0
 70
    40
  0
VERTEX
  5
10245
  8
KERA0
 10
-2235.9172723430779
 20
-343.88956663516058
 30
0.0
 70
    40
  0
VERTEX
  5
10246
  8
KERA0
 10
-2225.6143949176931
 20
-344.14502663776648
 30
0.0
 70
    40
  0
VERTEX
  5
10247
  8
KERA0
 10
-2215.3115174923082
 20
-343.88956663516058
 30
0.0
 70
    40
  0
VERTEX
  5
10248
  8
KERA0
 10
-2205.0331579074759
 20
-343.12643789514777
 30
0.0
 70
    40
  0
VERTEX
  5
10249
  8
KERA0
 10
-2194.8038340037492
 20
-341.86051731943547
 30
0.0
 70
    40
  0
VERTEX
  5
1024A
  8
KERA0
 10
-2184.6480636216788
 20
-340.0966818097308
 30
0.0
 70
    40
  0
VERTEX
  5
1024B
  8
KERA0
 10
-2174.5903646018191
 20
-337.83980826774132
 30
0.0
 70
    40
  0
VERTEX
  5
1024C
  8
KERA0
 10
-2164.6552547847209
 20
-335.09477359517422
 30
0.0
 70
    40
  0
VERTEX
  5
1024D
  8
KERA0
 10
-2154.867252010939
 20
-331.8664546937369
 30
0.0
 70
    40
  0
VERTEX
  5
1024E
  8
KERA0
 10
-2145.250874121024
 20
-328.15972846513671
 30
0.0
 70
    40
  0
VERTEX
  5
1024F
  8
KERA0
 10
-2135.8300168523679
 20
-323.98097370097082
 30
0.0
 70
    40
  0
VERTEX
  5
10250
  8
KERA0
 10
-2126.6260875297139
 20
-319.34257675239559
 30
0.0
 70
    40
  0
VERTEX
  5
10251
  8
KERA0
 10
-2117.659871374648
 20
-314.25842586045741
 30
0.0
 70
    40
  0
VERTEX
  5
10252
  8
KERA0
 10
-2108.95215360875
 20
-308.74240926620251
 30
0.0
 70
    40
  0
VERTEX
  5
10253
  8
KERA0
 10
-2100.5237194536048
 20
-302.80841521067731
 30
0.0
 70
    40
  0
VERTEX
  5
10254
  8
KERA0
 10
-2092.395354130796
 20
-296.47033193492791
 30
0.0
 70
    40
  0
VERTEX
  5
10255
  8
KERA0
 10
-2084.5878428619062
 20
-289.74204768000061
 30
0.0
 70
    40
  0
VERTEX
  5
10256
  8
KERA0
 10
-2077.121970868518
 20
-282.63745068694169
 30
0.0
 70
    40
  0
VERTEX
  5
10257
  8
KERA0
 10
-2070.0173738754602
 20
-275.17157869355373
 30
0.0
 70
    40
  0
VERTEX
  5
10258
  8
KERA0
 10
-2063.2890896205322
 20
-267.36406742466352
 30
0.0
 70
    40
  0
VERTEX
  5
10259
  8
KERA0
 10
-2056.9510063447829
 20
-259.23570210185437
 30
0.0
 70
    40
  0
VERTEX
  5
1025A
  8
KERA0
 10
-2051.0170122892582
 20
-250.80726794670949
 30
0.0
 70
    40
  0
VERTEX
  5
1025B
  8
KERA0
 10
-2045.500995695003
 20
-242.099550180812
 30
0.0
 70
    40
  0
VERTEX
  5
1025C
  8
KERA0
 10
-2040.416844803065
 20
-233.133334025745
 30
0.0
 70
    40
  0
VERTEX
  5
1025D
  8
KERA0
 10
-2035.77844785449
 20
-223.92940470309159
 30
0.0
 70
    40
  0
VERTEX
  5
1025E
  8
KERA0
 10
-2031.5996930903229
 20
-214.5085474344352
 30
0.0
 70
    40
  0
VERTEX
  5
1025F
  8
KERA0
 10
-2027.8929668617229
 20
-204.89216954452041
 30
0.0
 70
    40
  0
VERTEX
  5
10260
  8
KERA0
 10
-2024.6646479602859
 20
-195.104166770738
 30
0.0
 70
    40
  0
VERTEX
  5
10261
  8
KERA0
 10
-2021.9196132877189
 20
-185.16905695364059
 30
0.0
 70
    40
  0
VERTEX
  5
10262
  8
KERA0
 10
-2019.6627397457289
 20
-175.11135793378079
 30
0.0
 70
    40
  0
VERTEX
  5
10263
  8
KERA0
 10
-2017.8989042360249
 20
-164.95558755171101
 30
0.0
 70
    40
  0
VERTEX
  5
10264
  8
KERA0
 10
-2016.632983660312
 20
-154.7262636479837
 30
0.0
 70
    40
  0
VERTEX
  5
10265
  8
KERA0
 10
-2015.8698549202991
 20
-144.44790406315141
 30
0.0
 70
    40
  0
VERTEX
  5
EE55
  8
KERA0
 10
-2010.1472414338079
 20
-134.1450266377667
 30
0.0
 70
    48
  0
VERTEX
  5
EE56
  8
KERA0
 10
-2026.548701885464
 20
-51.689316780617951
 30
0.0
 70
    48
  0
VERTEX
  5
EE57
  8
KERA0
 10
-2073.2561095662759
 20
8.2132587136511006
 30
0.0
 70
    48
  0
VERTEX
  5
EE58
  8
KERA0
 10
-2143.158685060544
 20
54.920666394463012
 30
0.0
 70
    48
  0
VERTEX
  5
EE59
  8
KERA0
 10
-2225.6143949176931
 20
81.322126846118124
 30
0.0
 70
    48
  0
VERTEX
  5
EE5A
  8
KERA0
 10
-2308.0701047748421
 20
54.920666394463133
 30
0.0
 70
    48
  0
VERTEX
  5
EE5B
  8
KERA0
 10
-2377.9726802691112
 20
8.2132587136511006
 30
0.0
 70
    48
  0
VERTEX
  5
EE5C
  8
KERA0
 10
-2424.6800879499228
 20
-61.689316780617951
 30
0.0
 70
    48
  0
VERTEX
  5
EE5D
  8
KERA0
 10
-2441.0815484015779
 20
-134.1450266377667
 30
0.0
 70
    48
  0
VERTEX
  5
EE5E
  8
KERA0
 10
-2424.6800879499242
 20
-216.60073649491491
 30
0.0
 70
    48
  0
VERTEX
  5
EE5F
  8
KERA0
 10
-2377.9726802691112
 20
-286.50331198918479
 30
0.0
 70
    48
  0
VERTEX
  5
EE60
  8
KERA0
 10
-2308.0701047748421
 20
-333.21071966999591
 30
0.0
 70
    48
  0
VERTEX
  5
EE61
  8
KERA0
 10
-2225.6143949176931
 20
-349.61218012165187
 30
0.0
 70
    48
  0
VERTEX
  5
EE62
  8
KERA0
 10
-2143.158685060544
 20
-333.21071966999591
 30
0.0
 70
    48
  0
VERTEX
  5
EE63
  8
KERA0
 10
-2073.2561095662759
 20
-286.50331198918479
 30
0.0
 70
    48
  0
SEQEND
  5
EE89
  8
KERA0
  0
POLYLINE
  5
EE8A
  8
KERA0
 66
     1
 10
0.0
 20
0.0
 30
0.0
 70
    13
 75
     6
  0
VERTEX
  5
EE8B
  8
KERA0
 10
-1988.6314270221819
 20
-232.30658599151491
 30
0.0
 70
    48
  0
VERTEX
  5
10166
  8
KERA0
 10
-1975.614394917694
 20
-134.14502663776659
 30
0.0
 70
    40
  0
VERTEX
  5
10167
  8
KERA0
 10
-1975.918513968415
 20
-121.8829515777846
 30
0.0
 70
    40
  0
VERTEX
  5
10168
  8
KERA0
 10
-1976.827000563668
 20
-109.6695956732223
 30
0.0
 70
    40
  0
VERTEX
  5
10169
  8
KERA0
 10
-1978.3340488680881
 20
-97.55367807949925
 30
0.0
 70
    40
  0
VERTEX
  5
1016A
  8
KERA0
 10
-1980.4338530463081
 20
-85.583917952035094
 30
0.0
 70
    40
  0
VERTEX
  5
1016B
  8
KERA0
 10
-1983.120607262962
 20
-73.809034446249527
 30
0.0
 70
    40
  0
VERTEX
  5
1016C
  8
KERA0
 10
-1986.3885056826839
 20
-62.277746717562167
 30
0.0
 70
    40
  0
VERTEX
  5
1016D
  8
KERA0
 10
-1990.23174247011
 20
-51.038773921392639
 30
0.0
 70
    40
  0
VERTEX
  5
1016E
  8
KERA0
 10
-1994.644511789872
 20
-40.140835213160621
 30
0.0
 70
    40
  0
VERTEX
  5
1016F
  8
KERA0
 10
-1999.6192198424501
 20
-29.61888831595056
 30
0.0
 70
    40
  0
VERTEX
  5
10170
  8
KERA0
 10
-2005.1411209717071
 20
-19.45284522350617
 30
0.0
 70
    40
  0
VERTEX
  5
10171
  8
KERA0
 10
-2011.193681557347
 20
-9.608856497235962
 30
0.0
 70
    40
  0
VERTEX
  5
10172
  8
KERA0
 10
-2017.7603679790791
 20
-0.0530726985484715
 30
0.0
 70
    40
  0
VERTEX
  5
10173
  8
KERA0
 10
-2024.824646616609
 20
9.2483556111477867
 30
0.0
 70
    40
  0
VERTEX
  5
10174
  8
KERA0
 10
-2032.369983849645
 20
18.32927787044429
 30
0.0
 70
    40
  0
VERTEX
  5
10175
  8
KERA0
 10
-2040.379846057891
 20
27.223543517932502
 30
0.0
 70
    40
  0
VERTEX
  5
10176
  8
KERA0
 10
-2048.8376996210559
 20
35.965001992203923
 30
0.0
 70
    40
  0
VERTEX
  5
10177
  8
KERA0
 10
-2057.7256424703278
 20
44.569339930369217
 30
0.0
 70
    40
  0
VERTEX
  5
10178
  8
KERA0
 10
-2067.0202987428161
 20
52.979592763615997
 30
0.0
 70
    40
  0
VERTEX
  5
10179
  8
KERA0
 10
-2076.6969241271122
 20
61.120633121651061
 30
0.0
 70
    40
  0
VERTEX
  5
1017A
  8
KERA0
 10
-2086.730774311809
 20
68.917333634181205
 30
0.0
 70
    40
  0
VERTEX
  5
1017B
  8
KERA0
 10
-2097.0971049854961
 20
76.294566930913234
 30
0.0
 70
    40
  0
VERTEX
  5
1017C
  8
KERA0
 10
-2107.7711718367659
 20
83.177205641553954
 30
0.0
 70
    40
  0
VERTEX
  5
1017D
  8
KERA0
 10
-2118.7282305542112
 20
89.490122395810161
 30
0.0
 70
    40
  0
VERTEX
  5
1017E
  8
KERA0
 10
-2129.9435368264199
 20
95.158189823388668
 30
0.0
 70
    40
  0
VERTEX
  5
1017F
  8
KERA0
 10
-2141.391605742986
 20
100.1210893514841
 30
0.0
 70
    40
  0
VERTEX
  5
10180
  8
KERA0
 10
-2153.043989997489
 20
104.3777375972428
 30
0.0
 70
    40
  0
VERTEX
  5
10181
  8
KERA0
 10
-2164.871501684509
 20
107.9418599752989
 30
0.0
 70
    40
  0
VERTEX
  5
10182
  8
KERA0
 10
-2176.844952898628
 20
110.8271819002864
 30
0.0
 70
    40
  0
VERTEX
  5
10183
  8
KERA0
 10
-2188.9351557344262
 20
113.0474287868395
 30
0.0
 70
    40
  0
VERTEX
  5
10184
  8
KERA0
 10
-2201.112922286482
 20
114.6163260495924
 30
0.0
 70
    40
  0
VERTEX
  5
10185
  8
KERA0
 10
-2213.3490646493779
 20
115.5475991031791
 30
0.0
 70
    40
  0
VERTEX
  5
10186
  8
KERA0
 10
-2225.6143949176931
 20
115.85497336223369
 30
0.0
 70
    40
  0
VERTEX
  5
10187
  8
KERA0
 10
-2237.8797251860078
 20
115.5475991031791
 30
0.0
 70
    40
  0
VERTEX
  5
10188
  8
KERA0
 10
-2250.1158675489041
 20
114.6163260495924
 30
0.0
 70
    40
  0
VERTEX
  5
10189
  8
KERA0
 10
-2262.2936341009608
 20
113.0474287868396
 30
0.0
 70
    40
  0
VERTEX
  5
1018A
  8
KERA0
 10
-2274.3838369367581
 20
110.8271819002865
 30
0.0
 70
    40
  0
VERTEX
  5
1018B
  8
KERA0
 10
-2286.3572881508771
 20
107.941859975299
 30
0.0
 70
    40
  0
VERTEX
  5
1018C
  8
KERA0
 10
-2298.184799837898
 20
104.3777375972429
 30
0.0
 70
    40
  0
VERTEX
  5
1018D
  8
KERA0
 10
-2309.837184092401
 20
100.1210893514842
 30
0.0
 70
    40
  0
VERTEX
  5
1018E
  8
KERA0
 10
-2321.2852530089658
 20
95.158189823388767
 30
0.0
 70
    40
  0
VERTEX
  5
1018F
  8
KERA0
 10
-2332.5005592811758
 20
89.486867187476918
 30
0.0
 70
    40
  0
VERTEX
  5
10190
  8
KERA0
 10
-2343.4576179986202
 20
83.151163974887382
 30
0.0
 70
    40
  0
VERTEX
  5
10191
  8
KERA0
 10
-2354.1316848498909
 20
76.206676305913334
 30
0.0
 70
    40
  0
VERTEX
  5
10192
  8
KERA0
 10
-2364.498015523578
 20
68.70900030084799
 30
0.0
 70
    40
  0
VERTEX
  5
10193
  8
KERA0
 10
-2374.5318657082739
 20
60.713732079984503
 30
0.0
 70
    40
  0
VERTEX
  5
10194
  8
KERA0
 10
-2384.208491092571
 20
52.276467763616097
 30
0.0
 70
    40
  0
VERTEX
  5
10195
  8
KERA0
 10
-2393.5031473650588
 20
43.452803472035988
 30
0.0
 70
    40
  0
VERTEX
  5
10196
  8
KERA0
 10
-2402.3910902143298
 20
34.298335325537352
 30
0.0
 70
    40
  0
VERTEX
  5
10197
  8
KERA0
 10
-2410.8489437774961
 20
24.86351747626593
 30
0.0
 70
    40
  0
VERTEX
  5
10198
  8
KERA0
 10
-2418.858805985742
 20
15.17823620377769
 30
0.0
 70
    40
  0
VERTEX
  5
10199
  8
KERA0
 10
-2426.4041432187769
 20
5.2672358194811864
 30
0.0
 70
    40
  0
VERTEX
  5
1019A
  8
KERA0
 10
-2433.4684218563079
 20
-4.8447393652150801
 30
0.0
 70
    40
  0
VERTEX
  5
1019B
  8
KERA0
 10
-2440.0351082780389
 20
-15.13294503890258
 30
0.0
 70
    40
  0
VERTEX
  5
1019C
  8
KERA0
 10
-2446.0876688636808
 20
-25.572636890172799
 30
0.0
 70
    40
  0
VERTEX
  5
1019D
  8
KERA0
 10
-2451.6095699929369
 20
-36.139070607617207
 30
0.0
 70
    40
  0
VERTEX
  5
1019E
  8
KERA0
 10
-2456.584278045515
 20
-46.807501879827257
 30
0.0
 70
    40
  0
VERTEX
  5
1019F
  8
KERA0
 10
-2460.997047365277
 20
-57.558956213059297
 30
0.0
 70
    40
  0
VERTEX
  5
101A0
  8
KERA0
 10
-2464.8402841527031
 20
-68.39753838422881
 30
0.0
 70
    40
  0
VERTEX
  5
101A1
  8
KERA0
 10
-2468.1081825724259
 20
-79.333122987916184
 30
0.0
 70
    40
  0
VERTEX
  5
101A2
  8
KERA0
 10
-2470.7949367890792
 20
-90.37558461870178
 30
0.0
 70
    40
  0
VERTEX
  5
101A3
  8
KERA0
 10
-2472.8947409673001
 20
-101.53479787116591
 30
0.0
 70
    40
  0
VERTEX
  5
101A4
  8
KERA0
 10
-2474.4017892717188
 20
-112.8206373398889
 30
0.0
 70
    40
  0
VERTEX
  5
101A5
  8
KERA0
 10
-2475.310275866972
 20
-124.2429776194513
 30
0.0
 70
    40
  0
VERTEX
  5
101A6
  8
KERA0
 10
-2475.6143949176931
 20
-135.81169330443331
 30
0.0
 70
    40
  0
VERTEX
  5
101A7
  8
KERA0
 10
-2475.310275866972
 20
-147.5268933644152
 30
0.0
 70
    40
  0
VERTEX
  5
101A8
  8
KERA0
 10
-2474.4017892717179
 20
-159.34962426897749
 30
0.0
 70
    40
  0
VERTEX
  5
101A9
  8
KERA0
 10
-2472.8947409672992
 20
-171.23116686270049
 30
0.0
 70
    40
  0
VERTEX
  5
101AA
  8
KERA0
 10
-2470.7949367890792
 20
-183.12280199016459
 30
0.0
 70
    40
  0
VERTEX
  5
101AB
  8
KERA0
 10
-2468.108182572425
 20
-194.9758104959501
 30
0.0
 70
    40
  0
VERTEX
  5
101AC
  8
KERA0
 10
-2464.8402841527022
 20
-206.74147322463739
 30
0.0
 70
    40
  0
VERTEX
  5
101AD
  8
KERA0
 10
-2460.997047365277
 20
-218.37107102080691
 30
0.0
 70
    40
  0
VERTEX
  5
101AE
  8
KERA0
 10
-2456.584278045515
 20
-229.8158847290388
 30
0.0
 70
    40
  0
VERTEX
  5
101AF
  8
KERA0
 10
-2451.6095699929369
 20
-241.03119100124891
 30
0.0
 70
    40
  0
VERTEX
  5
101B0
  8
KERA0
 10
-2446.0876688636808
 20
-251.9882497186932
 30
0.0
 70
    40
  0
VERTEX
  5
101B1
  8
KERA0
 10
-2440.0351082780389
 20
-262.66231656996342
 30
0.0
 70
    40
  0
VERTEX
  5
101B2
  8
KERA0
 10
-2433.4684218563079
 20
-273.02864724365088
 30
0.0
 70
    40
  0
VERTEX
  5
101B3
  8
KERA0
 10
-2426.4041432187769
 20
-283.06249742834723
 30
0.0
 70
    40
  0
VERTEX
  5
101B4
  8
KERA0
 10
-2418.858805985742
 20
-292.7391228126437
 30
0.0
 70
    40
  0
VERTEX
  5
101B5
  8
KERA0
 10
-2410.8489437774961
 20
-302.03377908513193
 30
0.0
 70
    40
  0
VERTEX
  5
101B6
  8
KERA0
 10
-2402.3910902143298
 20
-310.92172193440342
 30
0.0
 70
    40
  0
VERTEX
  5
101B7
  8
KERA0
 10
-2393.5031473650588
 20
-319.37957549756868
 30
0.0
 70
    40
  0
VERTEX
  5
101B8
  8
KERA0
 10
-2384.208491092571
 20
-327.38943770581551
 30
0.0
 70
    40
  0
VERTEX
  5
101B9
  8
KERA0
 10
-2374.5318657082739
 20
-334.93477493885058
 30
0.0
 70
    40
  0
VERTEX
  5
101BA
  8
KERA0
 10
-2364.498015523578
 20
-341.99905357638067
 30
0.0
 70
    40
  0
VERTEX
  5
101BB
  8
KERA0
 10
-2354.1316848498909
 20
-348.5657399981128
 30
0.0
 70
    40
  0
VERTEX
  5
101BC
  8
KERA0
 10
-2343.4576179986202
 20
-354.61830058375352
 30
0.0
 70
    40
  0
VERTEX
  5
101BD
  8
KERA0
 10
-2332.5005592811758
 20
-360.14020171300967
 30
0.0
 70
    40
  0
VERTEX
  5
101BE
  8
KERA0
 10
-2321.2852530089658
 20
-365.11490976558821
 30
0.0
 70
    40
  0
VERTEX
  5
101BF
  8
KERA0
 10
-2309.837184092401
 20
-369.52767908535043
 30
0.0
 70
    40
  0
VERTEX
  5
101C0
  8
KERA0
 10
-2298.184799837898
 20
-373.3709158727757
 30
0.0
 70
    40
  0
VERTEX
  5
101C1
  8
KERA0
 10
-2286.357288150878
 20
-376.63881429249841
 30
0.0
 70
    40
  0
VERTEX
  5
101C2
  8
KERA0
 10
-2274.3838369367581
 20
-379.32556850915262
 30
0.0
 70
    40
  0
VERTEX
  5
101C3
  8
KERA0
 10
-2262.2936341009608
 20
-381.42537268737237
 30
0.0
 70
    40
  0
VERTEX
  5
101C4
  8
KERA0
 10
-2250.115867548905
 20
-382.93242099179179
 30
0.0
 70
    40
  0
VERTEX
  5
101C5
  8
KERA0
 10
-2237.8797251860092
 20
-383.84090758704519
 30
0.0
 70
    40
  0
VERTEX
  5
101C6
  8
KERA0
 10
-2225.6143949176931
 20
-384.14502663776648
 30
0.0
 70
    40
  0
VERTEX
  5
101C7
  8
KERA0
 10
-2213.3490646493779
 20
-383.84090758704519
 30
0.0
 70
    40
  0
VERTEX
  5
101C8
  8
KERA0
 10
-2201.112922286482
 20
-382.93242099179179
 30
0.0
 70
    40
  0
VERTEX
  5
101C9
  8
KERA0
 10
-2188.9351557344262
 20
-381.42537268737237
 30
0.0
 70
    40
  0
VERTEX
  5
101CA
  8
KERA0
 10
-2176.844952898628
 20
-379.32556850915262
 30
0.0
 70
    40
  0
VERTEX
  5
101CB
  8
KERA0
 10
-2164.8715016845099
 20
-376.63881429249841
 30
0.0
 70
    40
  0
VERTEX
  5
101CC
  8
KERA0
 10
-2153.043989997489
 20
-373.3709158727757
 30
0.0
 70
    40
  0
VERTEX
  5
101CD
  8
KERA0
 10
-2141.391605742986
 20
-369.52767908535043
 30
0.0
 70
    40
  0
VERTEX
  5
101CE
  8
KERA0
 10
-2129.9435368264212
 20
-365.11490976558821
 30
0.0
 70
    40
  0
VERTEX
  5
101CF
  8
KERA0
 10
-2118.7282305542112
 20
-360.14020171300967
 30
0.0
 70
    40
  0
VERTEX
  5
101D0
  8
KERA0
 10
-2107.7711718367659
 20
-354.61830058375352
 30
0.0
 70
    40
  0
VERTEX
  5
101D1
  8
KERA0
 10
-2097.0971049854961
 20
-348.5657399981128
 30
0.0
 70
    40
  0
VERTEX
  5
101D2
  8
KERA0
 10
-2086.730774311809
 20
-341.99905357638067
 30
0.0
 70
    40
  0
VERTEX
  5
101D3
  8
KERA0
 10
-2076.6969241271131
 20
-334.93477493885058
 30
0.0
 70
    40
  0
VERTEX
  5
101D4
  8
KERA0
 10
-2067.0202987428161
 20
-327.38943770581551
 30
0.0
 70
    40
  0
VERTEX
  5
101D5
  8
KERA0
 10
-2057.7256424703278
 20
-319.37957549756868
 30
0.0
 70
    40
  0
VERTEX
  5
101D6
  8
KERA0
 10
-2048.8376996210568
 20
-310.92172193440342
 30
0.0
 70
    40
  0
VERTEX
  5
101D7
  8
KERA0
 10
-2040.379846057891
 20
-302.03377908513193
 30
0.0
 70
    40
  0
VERTEX
  5
101D8
  8
KERA0
 10
-2032.369983849645
 20
-292.7391228126437
 30
0.0
 70
    40
  0
VERTEX
  5
101D9
  8
KERA0
 10
-2024.824646616609
 20
-283.06249742834723
 30
0.0
 70
    40
  0
VERTEX
  5
101DA
  8
KERA0
 10
-2017.7603679790791
 20
-273.02864724365088
 30
0.0
 70
    40
  0
VERTEX
  5
101DB
  8
KERA0
 10
-2011.193681557347
 20
-262.66231656996342
 30
0.0
 70
    40
  0
VERTEX
  5
101DC
  8
KERA0
 10
-2005.1411209717071
 20
-251.9882497186932
 30
0.0
 70
    40
  0
VERTEX
  5
101DD
  8
KERA0
 10
-1999.6192198424501
 20
-241.03119100124891
 30
0.0
 70
    40
  0
VERTEX
  5
101DE
  8
KERA0
 10
-1994.644511789872
 20
-229.8158847290388
 30
0.0
 70
    40
  0
VERTEX
  5
101DF
  8
KERA0
 10
-1990.23174247011
 20
-218.36781581247351
 30
0.0
 70
    40
  0
VERTEX
  5
101E0
  8
KERA0
 10
-1986.3885056826839
 20
-206.71543155797079
 30
0.0
 70
    40
  0
VERTEX
  5
101E1
  8
KERA0
 10
-1983.120607262962
 20
-194.8879198709501
 30
0.0
 70
    40
  0
VERTEX
  5
101E2
  8
KERA0
 10
-1980.4338530463081
 20
-182.9144686568313
 30
0.0
 70
    40
  0
VERTEX
  5
101E3
  8
KERA0
 10
-1978.3340488680881
 20
-170.82426582103389
 30
0.0
 70
    40
  0
VERTEX
  5
101E4
  8
KERA0
 10
-1976.827000563668
 20
-158.64649926897749
 30
0.0
 70
    40
  0
VERTEX
  5
101E5
  8
KERA0
 10
-1975.918513968415
 20
-146.41035690608189
 30
0.0
 70
    40
  0
VERTEX
  5
EE8C
  8
KERA0
 10
-1969.1058788654491
 20
-134.1450266377667
 30
0.0
 70
    48
  0
VERTEX
  5
EE8D
  8
KERA0
 10
-1988.6314270221819
 20
-35.983467284017763
 30
0.0
 70
    48
  0
VERTEX
  5
EE8E
  8
KERA0
 10
-2044.235483785053
 20
37.233884494874083
 30
0.0
 70
    48
  0
VERTEX
  5
EE8F
  8
KERA0
 10
-2127.4528355639441
 20
102.8379412577449
 30
0.0
 70
    48
  0
VERTEX
  5
EE90
  8
KERA0
 10
-2225.6143949176931
 20
122.3634894144781
 30
0.0
 70
    48
  0
VERTEX
  5
EE91
  8
KERA0
 10
-2323.775954271443
 20
102.837941257745
 30
0.0
 70
    48
  0
VERTEX
  5
EE92
  8
KERA0
 10
-2406.9933060503331
 20
37.233884494874189
 30
0.0
 70
    48
  0
VERTEX
  5
EE93
  8
KERA0
 10
-2462.5973628132051
 20
-45.983467284017763
 30
0.0
 70
    48
  0
VERTEX
  5
EE94
  8
KERA0
 10
-2482.1229109699379
 20
-134.1450266377667
 30
0.0
 70
    48
  0
VERTEX
  5
EE95
  8
KERA0
 10
-2462.5973628132051
 20
-232.30658599151491
 30
0.0
 70
    48
  0
VERTEX
  5
EE96
  8
KERA0
 10
-2406.9933060503331
 20
-315.5239377704068
 30
0.0
 70
    48
  0
VERTEX
  5
EE97
  8
KERA0
 10
-2323.775954271443
 20
-371.1279945332779
 30
0.0
 70
    48
  0
VERTEX
  5
EE98
  8
KERA0
 10
-2225.6143949176931
 20
-390.6535426900108
 30
0.0
 70
    48
  0
VERTEX
  5
EE99
  8
KERA0
 10
-2127.452835563945
 20
-371.1279945332779
 30
0.0
 70
    48
  0
VERTEX
  5
EE9A
  8
KERA0
 10
-2044.235483785053
 20
-315.5239377704068
 30
0.0
 70
    48
  0
SEQEND
  5
EEC0
  8
KERA0
  0
POLYLINE
  5
EEC1
  8
KERA0
 66
     1
 10
0.0
 20
0.0
 30
0.0
 70
    13
 75
     6
  0
VERTEX
  5
EEC2
  8
KERA0
 10
-2203.8119697689208
 20
-143.1758816106499
 30
0.0
 70
    48
  0
VERTEX
  5
EEC3
  8
KERA0
 10
-2202.0156193385019
 20
-134.14501815010479
 30
0.0
 70
    48
  0
VERTEX
  5
EEC4
  8
KERA0
 10
-2203.8119697689208
 20
-125.1141546895599
 30
0.0
 70
    48
  0
VERTEX
  5
EEC5
  8
KERA0
 10
-2208.9275429911058
 20
-117.45815832590171
 30
0.0
 70
    48
  0
VERTEX
  5
EEC6
  8
KERA0
 10
-2216.5835393547641
 20
-112.34258510371799
 30
0.0
 70
    48
  0
VERTEX
  5
EEC7
  8
KERA0
 10
-2225.6144028153099
 20
-110.5462346732989
 30
0.0
 70
    48
  0
VERTEX
  5
EEC8
  8
KERA0
 10
-2234.6452662758529
 20
-112.34258510371799
 30
0.0
 70
    48
  0
VERTEX
  5
EEC9
  8
KERA0
 10
-2242.3012626395121
 20
-117.45815832590171
 30
0.0
 70
    48
  0
VERTEX
  5
EECA
  8
KERA0
 10
-2247.4168358616948
 20
-125.1141546895599
 30
0.0
 70
    48
  0
VERTEX
  5
EECB
  8
KERA0
 10
-2249.213186292116
 20
-134.14501815010479
 30
0.0
 70
    48
  0
VERTEX
  5
EECC
  8
KERA0
 10
-2247.4168358616948
 20
-143.1758816106499
 30
0.0
 70
    48
  0
VERTEX
  5
EECD
  8
KERA0
 10
-2242.3012626395121
 20
-150.8318779743079
 30
0.0
 70
    48
  0
VERTEX
  5
EECE
  8
KERA0
 10
-2234.6452662758529
 20
-155.94745119649181
 30
0.0
 70
    48
  0
VERTEX
  5
EECF
  8
KERA0
 10
-2225.6144028153099
 20
-157.7438016269119
 30
0.0
 70
    48
  0
VERTEX
  5
EED0
  8
KERA0
 10
-2216.5835393547641
 20
-155.94745119649181
 30
0.0
 70
    48
  0
VERTEX
  5
EED1
  8
KERA0
 10
-2208.9275429911058
 20
-150.8318779743079
 30
0.0
 70
    48
  0
VERTEX
  5
EED2
  8
KERA0
 10
-2202.6144028153099
 20
-134.14501815010479
 30
0.0
 70
    40
  0
VERTEX
  5
EED3
  8
KERA0
 10
-2202.9544186619478
 20
-130.21320400160471
 30
0.0
 70
    40
  0
VERTEX
  5
EED4
  8
KERA0
 10
-2203.9591987901322
 20
-126.39652154603191
 30
0.0
 70
    40
  0
VERTEX
  5
EED5
  8
KERA0
 10
-2205.603271883786
 20
-122.80903786524991
 30
0.0
 70
    40
  0
VERTEX
  5
EED6
  8
KERA0
 10
-2207.8359169970481
 20
-119.554361302017
 30
0.0
 70
    40
  0
VERTEX
  5
EED7
  8
KERA0
 10
-2210.5916568541088
 20
-116.729739024526
 30
0.0
 70
    40
  0
VERTEX
  5
EED8
  8
KERA0
 10
-2213.7908121415462
 20
-114.4183125209538
 30
0.0
 70
    40
  0
VERTEX
  5
EED9
  8
KERA0
 10
-2217.3367775842312
 20
-112.6862852730678
 30
0.0
 70
    40
  0
VERTEX
  5
EEDA
  8
KERA0
 10
-2221.1276141495541
 20
-111.5884082979378
 30
0.0
 70
    40
  0
VERTEX
  5
EEDB
  8
KERA0
 10
-2225.0500297925109
 20
-111.15202401612279
 30
0.0
 70
    40
  0
VERTEX
  5
EEDC
  8
KERA0
 10
-2228.988892820169
 20
-111.3952263135418
 30
0.0
 70
    40
  0
VERTEX
  5
EEDD
  8
KERA0
 10
-2232.8290715396051
 20
-112.30644222503091
 30
0.0
 70
    40
  0
VERTEX
  5
EEDE
  8
KERA0
 10
-2236.4559793387539
 20
-113.861476947074
 30
0.0
 70
    40
  0
VERTEX
  5
EEDF
  8
KERA0
 10
-2239.7641852607162
 20
-116.01400971359389
 30
0.0
 70
    40
  0
VERTEX
  5
EEE0
  8
KERA0
 10
-2242.65598131041
 20
-118.6992529249478
 30
0.0
 70
    40
  0
VERTEX
  5
EEE1
  8
KERA0
 10
-2245.0448582478589
 20
-121.840895019521
 30
0.0
 70
    40
  0
VERTEX
  5
EEE2
  8
KERA0
 10
-2246.8636320630681
 20
-125.34329920570779
 30
0.0
 70
    40
  0
VERTEX
  5
EEE3
  8
KERA0
 10
-2248.0541385153979
 20
-129.1059402543959
 30
0.0
 70
    40
  0
VERTEX
  5
EEE4
  8
KERA0
 10
-2248.5864238626418
 20
-133.01660776541991
 30
0.0
 70
    40
  0
VERTEX
  5
EEE5
  8
KERA0
 10
-2248.4403689499782
 20
-136.96017004585181
 30
0.0
 70
    40
  0
VERTEX
  5
EEE6
  8
KERA0
 10
-2247.6231846249289
 20
-140.82149540276379
 30
0.0
 70
    40
  0
VERTEX
  5
EEE7
  8
KERA0
 10
-2246.1581491223501
 20
-144.48568209921891
 30
0.0
 70
    40
  0
VERTEX
  5
EEE8
  8
KERA0
 10
-2244.087059659008
 20
-147.8454254628389
 30
0.0
 70
    40
  0
VERTEX
  5
EEE9
  8
KERA0
 10
-2241.473832895691
 20
-150.80259221356599
 30
0.0
 70
    40
  0
VERTEX
  5
EEEA
  8
KERA0
 10
-2238.3916959110511
 20
-153.2675886284579
 30
0.0
 70
    40
  0
VERTEX
  5
EEEB
  8
KERA0
 10
-2234.9348534153169
 20
-155.1717986161448
 30
0.0
 70
    40
  0
VERTEX
  5
EEEC
  8
KERA0
 10
-2231.2027489927618
 20
-156.4544466143409
 30
0.0
 70
    40
  0
VERTEX
  5
EEED
  8
KERA0
 10
-2227.3061792400558
 20
-157.0821656572659
 30
0.0
 70
    40
  0
VERTEX
  5
EEEE
  8
KERA0
 10
-2223.3602673332371
 20
-157.03345843067589
 30
0.0
 70
    40
  0
VERTEX
  5
EEEF
  8
KERA0
 10
-2219.4801449652359
 20
-156.3107730618149
 30
0.0
 70
    40
  0
VERTEX
  5
EEF0
  8
KERA0
 10
-2215.7808756938689
 20
-154.93657425702779
 30
0.0
 70
    40
  0
VERTEX
  5
EEF1
  8
KERA0
 10
-2212.371586805657
 20
-152.948259053296
 30
0.0
 70
    40
  0
VERTEX
  5
EEF2
  8
KERA0
 10
-2209.3509468480188
 20
-150.40847411739591
 30
0.0
 70
    40
  0
VERTEX
  5
EEF3
  8
KERA0
 10
-2206.8111619121169
 20
-147.38783415975681
 30
0.0
 70
    40
  0
VERTEX
  5
EEF4
  8
KERA0
 10
-2204.8228467083868
 20
-143.97854527154581
 30
0.0
 70
    40
  0
VERTEX
  5
EEF5
  8
KERA0
 10
-2203.4486479035991
 20
-140.2792760001787
 30
0.0
 70
    40
  0
VERTEX
  5
EEF6
  8
KERA0
 10
-2202.7259625347392
 20
-136.3991536321769
 30
0.0
 70
    40
  0
SEQEND
  5
EEF7
  8
KERA0
  0
POLYLINE
  5
EEF8
  8
KERA4
 66
     1
 10
0.0
 20
0.0
 30
0.0
 70
    13
 75
     6
  0
VERTEX
  5
EEF9
  8
KERA4
 10
-2191.4888554383551
 20
-148.2802826970449
 30
0.0
 70
    48
  0
VERTEX
  5
EEFA
  8
KERA4
 10
-2188.6771765037861
 20
-134.1450181501059
 30
0.0
 70
    48
  0
VERTEX
  5
EEFB
  8
KERA4
 10
-2191.4888554383551
 20
-120.00975360316581
 30
0.0
 70
    48
  0
VERTEX
  5
EEFC
  8
KERA4
 10
-2199.4958396122079
 20
-108.02645494700489
 30
0.0
 70
    48
  0
VERTEX
  5
EEFD
  8
KERA4
 10
-2211.4791382683688
 20
-100.01947077315189
 30
0.0
 70
    48
  0
VERTEX
  5
EEFE
  8
KERA4
 10
-2225.6144028153099
 20
-97.207791838581954
 30
0.0
 70
    48
  0
VERTEX
  5
EEFF
  8
KERA4
 10
-2239.7496673622481
 20
-100.01947077315189
 30
0.0
 70
    48
  0
VERTEX
  5
EF00
  8
KERA4
 10
-2251.7329660184091
 20
-108.02645494700489
 30
0.0
 70
    48
  0
VERTEX
  5
EF01
  8
KERA4
 10
-2259.7399501922619
 20
-120.00975360316581
 30
0.0
 70
    48
  0
VERTEX
  5
EF02
  8
KERA4
 10
-2262.5516291268332
 20
-134.1450181501059
 30
0.0
 70
    48
  0
VERTEX
  5
EF03
  8
KERA4
 10
-2259.7399501922619
 20
-148.2802826970449
 30
0.0
 70
    48
  0
VERTEX
  5
EF04
  8
KERA4
 10
-2251.7329660184091
 20
-160.26358135320589
 30
0.0
 70
    48
  0
VERTEX
  5
EF05
  8
KERA4
 10
-2239.7496673622481
 20
-168.27056552705881
 30
0.0
 70
    48
  0
VERTEX
  5
EF06
  8
KERA4
 10
-2225.6144028153099
 20
-171.08224446162899
 30
0.0
 70
    48
  0
VERTEX
  5
EF07
  8
KERA4
 10
-2211.4791382683688
 20
-168.27056552705881
 30
0.0
 70
    48
  0
VERTEX
  5
EF08
  8
KERA4
 10
-2199.4958396122079
 20
-160.26358135320589
 30
0.0
 70
    48
  0
VERTEX
  5
EF09
  8
KERA4
 10
-2189.6144028153099
 20
-134.1450181501059
 30
0.0
 70
    40
  0
VERTEX
  5
EF0A
  8
KERA4
 10
-2190.1466015317878
 20
-127.9908742654959
 30
0.0
 70
    40
  0
VERTEX
  5
EF0B
  8
KERA4
 10
-2191.7193008628569
 20
-122.01693650894801
 30
0.0
 70
    40
  0
VERTEX
  5
EF0C
  8
KERA4
 10
-2194.2926326616198
 20
-116.40174466076699
 30
0.0
 70
    40
  0
VERTEX
  5
EF0D
  8
KERA4
 10
-2197.7872076215108
 20
-111.30746830092291
 30
0.0
 70
    40
  0
VERTEX
  5
EF0E
  8
KERA4
 10
-2202.1005395716929
 20
-106.8863203883289
 30
0.0
 70
    40
  0
VERTEX
  5
EF0F
  8
KERA4
 10
-2207.1079130650728
 20
-103.2684354262158
 30
0.0
 70
    40
  0
VERTEX
  5
EF10
  8
KERA4
 10
-2212.6581198449262
 20
-100.557436255612
 30
0.0
 70
    40
  0
VERTEX
  5
EF11
  8
KERA4
 10
-2218.5916031645629
 20
-98.839020120626003
 30
0.0
 70
    40
  0
VERTEX
  5
EF12
  8
KERA4
 10
-2224.7310363448419
 20
-98.155983853437036
 30
0.0
 70
    40
  0
VERTEX
  5
EF13
  8
KERA4
 10
-2230.8962132576989
 20
-98.536648318961909
 30
0.0
 70
    40
  0
VERTEX
  5
EF14
  8
KERA4
 10
-2236.9069277750768
 20
-99.962899310857949
 30
0.0
 70
    40
  0
VERTEX
  5
EF15
  8
KERA4
 10
-2242.5838269389619
 20
-102.3968667018828
 30
0.0
 70
    40
  0
VERTEX
  5
EF16
  8
KERA4
 10
-2247.761888382031
 20
-105.76604842339179
 30
0.0
 70
    40
  0
VERTEX
  5
EF17
  8
KERA4
 10
-2252.288177851121
 20
-109.96903779768471
 30
0.0
 70
    40
  0
VERTEX
  5
EF18
  8
KERA4
 10
-2256.0272895793009
 20
-114.8863906413638
 30
0.0
 70
    40
  0
VERTEX
  5
EF19
  8
KERA4
 10
-2258.8740659857158
 20
-120.3684145849618
 30
0.0
 70
    40
  0
VERTEX
  5
EF1A
  8
KERA4
 10
-2260.7374673893619
 20
-126.2577657916047
 30
0.0
 70
    40
  0
VERTEX
  5
EF1B
  8
KERA4
 10
-2261.570609672006
 20
-132.37881059146801
 30
0.0
 70
    40
  0
VERTEX
  5
EF1C
  8
KERA4
 10
-2261.3420019826181
 20
-138.55134285649191
 30
0.0
 70
    40
  0
VERTEX
  5
EF1D
  8
KERA4
 10
-2260.0629308651501
 20
-144.59515645861489
 30
0.0
 70
    40
  0
VERTEX
  5
EF1E
  8
KERA4
 10
-2257.7698318176349
 20
-150.33040520089099
 30
0.0
 70
    40
  0
VERTEX
  5
EF1F
  8
KERA4
 10
-2254.5281265706649
 20
-155.58913394394881
 30
0.0
 70
    40
  0
VERTEX
  5
EF20
  8
KERA4
 10
-2250.4378585932982
 20
-160.2177427711747
 30
0.0
 70
    40
  0
VERTEX
  5
EF21
  8
KERA4
 10
-2245.6136441825561
 20
-164.0759980292658
 30
0.0
 70
    40
  0
VERTEX
  5
EF22
  8
KERA4
 10
-2240.2029341892339
 20
-167.05650061868869
 30
0.0
 70
    40
  0
VERTEX
  5
EF23
  8
KERA4
 10
-2234.361379440887
 20
-169.06412357238679
 30
0.0
 70
    40
  0
VERTEX
  5
EF24
  8
KERA4
 10
-2228.2624006975211
 20
-170.04664033522681
 30
0.0
 70
    40
  0
VERTEX
  5
EF25
  8
KERA4
 10
-2222.0861907564149
 20
-169.97040293708491
 30
0.0
 70
    40
  0
VERTEX
  5
EF26
  8
KERA4
 10
-2216.012955745628
 20
-168.8392432293038
 30
0.0
 70
    40
  0
VERTEX
  5
EF27
  8
KERA4
 10
-2210.2227951469672
 20
-166.68832336094081
 30
0.0
 70
    40
  0
VERTEX
  5
EF28
  8
KERA4
 10
-2204.886516887158
 20
-163.57617782466579
 30
0.0
 70
    40
  0
VERTEX
  5
EF29
  8
KERA4
 10
-2200.1585586925939
 20
-159.60086227282071
 30
0.0
 70
    40
  0
VERTEX
  5
EF2A
  8
KERA4
 10
-2196.1832431407479
 20
-154.87290407825481
 30
0.0
 70
    40
  0
VERTEX
  5
EF2B
  8
KERA4
 10
-2193.0710976044738
 20
-149.53662581844699
 30
0.0
 70
    40
  0
VERTEX
  5
EF2C
  8
KERA4
 10
-2190.92017773611
 20
-143.7464652197857
 30
0.0
 70
    40
  0
VERTEX
  5
EF2D
  8
KERA4
 10
-2189.7890180283298
 20
-137.67323020899971
 30
0.0
 70
    40
  0
SEQEND
  5
EF2E
  8
KERA4
  0
LINE
  5
F84D
  8
KERA2
 10
-2225.6206231707802
 20
-93.628483026016383
 30
-0.000000198220303
 11
-2225.6206231707802
 21
-174.59645871013149
 31
-0.000000198220303
  0
LINE
  5
F855
  8
KERA2
 10
-2185.1366353287222
 20
-134.11247086807401
 30
-0.000000198220303
 11
-2266.1046110128382
 21
-134.11247086807401
 31
-0.000000198220303
  0
INSERT
  5
FA33
  8
KERA1
  2
248100
 10
-2225.6206231707802
 20
1221.9162885596211
 30
0.0
  0
DIMENSION
  5
FAD4
  8
KERA4
  2
*D7
 10
-1975.6882466732079
 20
1347.6170270085111
 30
0.0
 11
-2225.651315619396
 21
1347.6170270085111
 31
0.0
 70
     0
  1
%%c<>
 13
-2475.6143845655838
 23
1256.9162885596211
 33
-0.000000198220303
 14
-1975.6882466732079
 24
1254.095608469014
 34
-0.000000198220303
1001
ACAD
1000
DSTYLE
1002
{
1070
   287
1070
     5
1070
    41
1040
50.0
1070
    42
1040
20.0
1070
    43
1040
15.0
1070
    44
1040
15.0
1070
    78
1070
     8
1070
   140
1040
50.0
1070
   141
1040
20.0
1070
   143
1040
0.0394
1070
   147
1040
15.0
1070
   171
1070
     4
1070
   172
1070
     1
1070
   176
1070
   256
1070
   177
1070
   256
1070
   178
1070
   256
1070
   271
1070
     0
1070
   272
1070
     0
1070
   273
1070
     8
1070
   274
1070
     4
1070
   279
1070
     2
1002
}
  0
LINE
  5
FAFC
  8
KERA2
 10
-2299.144873177509
 20
991.91628898529143
 30
0.0
 11
-2272.0963731640509
 21
991.91628898529143
 31
0.0
  0
LINE
  5
FAFD
  8
KERA2
 10
-2285.6206231707802
 20
1005.44053899202
 30
0.0
 11
-2285.6206231707802
 21
978.39203897856237
 31
0.0
  0
CIRCLE
  5
FAFE
  8
KERA0
 10
-2285.6206231707802
 20
991.91628898529143
 30
0.0
 40
10.5
  0
LINE
  5
FB02
  8
KERA2
 10
-2152.0963731640509
 20
991.91628898529143
 30
0.0
 11
-2179.144873177509
 21
991.91628898529143
 31
0.0
  0
LINE
  5
FB03
  8
KERA2
 10
-2165.6206231707802
 20
1005.44053899202
 30
0.0
 11
-2165.6206231707802
 21
978.39203897856237
 31
0.0
  0
CIRCLE
  5
FB04
  8
KERA0
 10
-2165.6206231707802
 20
991.91628898529143
 30
0.0
 40
10.5
  0
LINE
  5
FB78
  8
KERA1
 10
-2017.1696744878091
 20
1209.9162885596211
 30
0.0
 11
-2434.0590946433599
 21
1209.9162885596211
 31
0.0
  0
LINE
  5
FFDA
  8
KERA2
 10
-2225.6206231707802
 20
3.8825124962245918
 30
-0.000000198220303
 11
-2225.6206231707802
 21
47.858840006369057
 31
-0.000000198220303
  0
LINE
  5
FFDB
  8
KERA2
 10
-2203.6324594157081
 20
25.870676251296828
 30
-0.000000198220303
 11
-2248.2641259567922
 21
25.870676251296828
 31
-0.000000198220303
  0
CIRCLE
  5
FFDC
  8
KERA0
 10
-2225.6206231707802
 20
25.870676251296828
 30
-0.000000198220303
 40
17.452068123661061
  0
DIMENSION
  5
100D4
  8
KERA4
  2
*D8
 10
-1787.3363172529371
 20
411.91628898529149
 30
0.0
 11
-1787.3363172529371
 21
731.91629313104545
 31
0.0
 70
     0
 13
-2058.5520767561452
 23
1051.9162972767999
 33
0.000000000000052
 14
-1883.8684736906889
 24
411.91628898529149
 34
0.0
 50
90.0
1001
ACAD
1000
DSTYLE
1002
{
1070
   287
1070
     5
1070
    41
1040
50.0
1070
    42
1040
20.0
1070
    43
1040
15.0
1070
    44
1040
15.0
1070
    78
1070
     8
1070
   140
1040
50.0
1070
   141
1040
20.0
1070
   143
1040
0.0394
1070
   147
1040
15.0
1070
   171
1070
     4
1070
   172
1070
     1
1070
   176
1070
   256
1070
   177
1070
   256
1070
   178
1070
   256
1070
   271
1070
     0
1070
   272
1070
     0
1070
   273
1070
     8
1070
   274
1070
     4
1070
   279
1070
     2
1002
}
  0
DIMENSION
  5
100E2
  8
KERA4
  2
*D9
 10
-1694.557442108138
 20
411.91628898529149
 30
0.0
 11
-1694.557442108138
 21
816.91628877245626
 31
0.0
 70
     0
 13
-1944.3076443945411
 23
1221.9162885596211
 33
0.0
 14
-1787.3363172529371
 24
411.91628898529149
 34
0.0
 50
90.0
1001
ACAD
1000
DSTYLE
1002
{
1070
   287
1070
     5
1070
    41
1040
50.0
1070
    42
1040
20.0
1070
    43
1040
15.0
1070
    44
1040
15.0
1070
    78
1070
     8
1070
   140
1040
50.0
1070
   141
1040
20.0
1070
   143
1040
0.0394
1070
   147
1040
15.0
1070
   171
1070
     4
1070
   172
1070
     1
1070
   176
1070
   256
1070
   177
1070
   256
1070
   178
1070
   256
1070
   271
1070
     0
1070
   272
1070
     0
1070
   273
1070
     8
1070
   274
1070
     4
1070
   279
1070
     2
1002
}
  0
LINE
  5
10111
  8
KERA1
 10
-2014.305885859874
 20
1221.9162885596211
 30
-0.0000000064529734
 11
-2002.674185845121
 21
1261.916288559622
 31
0.0
  0
LINE
  5
10112
  8
KERA1
 10
-2436.935360481687
 20
1221.9162885596211
 30
-0.0000000064529734
 11
-2448.5670604964398
 21
1261.916288559622
 31
0.0
  0
INSERT
  5
10148
  8
KERA1
  2
A$C698A7CBD
 10
-1601.1062508851101
 20
1341.7146118774131
 30
0.0
  0
LINE
  5
10149
  8
KERA4
 10
-1714.5891516791939
 20
1221.7260311332859
 30
0.0
 11
-1709.5891516791939
 21
1221.7260311332859
 31
0.0
  0
LINE
  5
1014A
  8
KERA4
 10
-1714.5891516791939
 20
1261.9162885596211
 30
0.0
 11
-1709.5891516791939
 21
1261.9162885596211
 31
0.0
  0
LINE
  5
1014B
  8
KERA4
 10
-1694.5891516791939
 20
1171.726031133285
 30
0.0
 11
-1694.5891516791939
 21
1121.726031133285
 31
0.0
  0
LINE
  5
1014C
  8
KERA4
 10
-1694.5891516791939
 20
1311.9162885596211
 30
0.0
 11
-1694.5891516791939
 21
1361.9162885596211
 31
0.0
  0
INSERT
  5
1014D
  8
KERA4
  2
*U22
 10
0.0
 20
0.0
 30
0.0
  0
LINE
  5
1014E
  8
KERA4
 10
-1694.5891516791939
 20
1221.7260311332859
 30
0.0
 11
-1694.5891516791939
 21
1261.9162885596211
 31
0.0
  0
LINE
  5
1014F
  8
KERA4
 10
-1694.5891516791939
 20
1221.7260311332859
 30
0.0
 11
-1694.5891516791939
 21
1261.9162885596211
 31
0.0
  0
SOLID
  5
10150
  8
KERA4
 10
-1702.922485012527
 20
1171.726031133285
 30
0.0
 11
-1686.2558183458609
 21
1171.726031133285
 31
0.0
 12
-1694.5891516791939
 22
1221.7260311332859
 32
0.0
 13
-1694.5891516791939
 23
1221.7260311332859
 33
0.0
  0
SOLID
  5
10151
  8
KERA4
 10
-1702.922485012527
 20
1311.9162885596211
 30
0.0
 11
-1686.2558183458609
 21
1311.9162885596211
 31
0.0
 12
-1694.5891516791939
 22
1261.9162885596211
 32
0.0
 13
-1694.5891516791939
 23
1261.9162885596211
 33
0.0
  0
POINT
  5
10152
  8
KERA4
 10
-1694.5891516791939
 20
1221.7260311332859
 30
0.0
  0
POINT
  5
10153
  8
KERA4
 10
-1694.5891516791939
 20
1261.9162885596211
 30
0.0
  0
POINT
  5
10154
  8
KERA4
 10
-1694.5891516791939
 20
1261.9162885596211
 30
0.0
  0
INSERT
  5
10156
  8
KERA1
  2
A$C698A7CBD
 10
-1832.583383626323
 20
674.60527455559065
 30
0.0
  0
INSERT
  5
10157
  8
KERA1
  2
A$C698A7CBD
 10
-1732.228708355047
 20
731.43632509287727
 30
0.0
  0
INSERT
  5
1015A
  8
KERA1
  2
A$C698A7CBD
 10
-1646.9272315757769
 20
815.01140054794439
 30
0.0
  0
INSERT
  5
1015E
  8
KERA1
  2
A$C698A7CBD
 10
-2608.2933330046649
 20
332.25884178248089
 30
0.0
  0
LINE
  5
102C1
  8
KERA4
 10
-1807.3363172529371
 20
1051.9162972767999
 30
0.0
 11
-1802.3363172529371
 21
1051.9162972767999
 31
0.0
  0
LINE
  5
102C2
  8
KERA4
 10
-1807.3363172529371
 20
1221.9162885596211
 30
0.0
 11
-1802.3363172529371
 21
1221.9162885596211
 31
0.0
  0
DIMENSION
  5
102C8
  8
KERA4
  2
*D13
 10
-2015.742124918997
 20
-493.04152298082312
 30
0.0
 11
-2225.6782599183448
 21
-493.04152298082312
 31
0.0
 70
     0
  1
415
 13
-2435.6143949176931
 23
-135.81169330443331
 33
0.0
 14
-2015.742124918997
 24
-139.29646535045899
 34
0.0
1001
ACAD
1000
DSTYLE
1002
{
1070
   287
1070
     5
1070
    41
1040
50.0
1070
    42
1040
20.0
1070
    43
1040
15.0
1070
    44
1040
15.0
1070
    78
1070
     8
1070
   140
1040
50.0
1070
   141
1040
20.0
1070
   143
1040
0.0394
1070
   147
1040
15.0
1070
   171
1070
     4
1070
   172
1070
     1
1070
   176
1070
   256
1070
   177
1070
   256
1070
   178
1070
   256
1070
   271
1070
     0
1070
   272
1070
     0
1070
   273
1070
     8
1070
   274
1070
     4
1070
   279
1070
     2
1002
}
  0
DIMENSION
  5
102EA
  8
KERA4
  2
*D14
 10
-1787.3363172529371
 20
-344.1450266377667
 30
0.0
 11
-1787.3363172529371
 21
-189.14502660718881
 31
0.0
 70
     0
  1
305
 13
-2225.6143949176931
 23
-34.145026576610412
 33
-15.285128674915001
 14
-2225.6143949176931
 24
-344.14502663776648
 34
0.0
 50
90.0
1001
ACAD
1000
DSTYLE
1002
{
1070
   287
1070
     5
1070
    41
1040
50.0
1070
    42
1040
20.0
1070
    43
1040
15.0
1070
    44
1040
15.0
1070
    78
1070
     8
1070
   140
1040
50.0
1070
   141
1040
20.0
1070
   143
1040
0.0394
1070
   147
1040
15.0
1070
   171
1070
     4
1070
   172
1070
     1
1070
   176
1070
   256
1070
   177
1070
   256
1070
   178
1070
   256
1070
   271
1070
     0
1070
   272
1070
     0
1070
   273
1070
     8
1070
   274
1070
     4
1070
   279
1070
     2
1002
}
  0
DIMENSION
  5
1060F
  8
KERA4
  2
*D15
 10
-1787.3363172529371
 20
1221.9162885596211
 30
0.0
 11
-1787.3363172529371
 21
1136.91629291821
 31
0.0
 70
     0
 13
-1787.3363172529371
 23
1051.9162972767999
 33
0.0
 14
-1787.3363172529371
 24
1221.9162885596211
 34
0.0
 50
90.0
1001
ACAD
1000
DSTYLE
1002
{
1070
   287
1070
     5
1070
    41
1040
45.0
1070
    42
1040
15.0
1070
    43
1040
15.0
1070
    44
1040
15.0
1070
    78
1070
     8
1070
   140
1040
50.0
1070
   141
1040
20.0
1070
   143
1040
0.0394
1070
   147
1040
15.0
1070
   171
1070
     4
1070
   174
1070
     1
1070
   176
1070
   256
1070
   177
1070
   256
1070
   178
1070
   256
1070
   271
1070
     0
1070
   272
1070
     0
1070
   273
1070
     8
1070
   274
1070
     4
1070
   279
1070
     2
1002
}
  0
DIMENSION
  5
1061B
  8
KERA4
  2
*D16
 10
-2630.5724281474868
 20
1101.9162884893101
 30
0.0
 11
-2630.5724281474882
 21
1161.9162885244659
 31
0.0
 70
     0
  1
125
 13
-2470.6143845655852
 23
1221.9162885596211
 33
0.0
 14
-2243.5685238210831
 24
1101.9162884893101
 34
0.0
 50
90.0
1001
ACAD
1000
DSTYLE
1002
{
1070
   287
1070
     5
1070
    41
1040
45.0
1070
    42
1040
15.0
1070
    43
1040
15.0
1070
    44
1040
15.0
1070
    78
1070
     8
1070
   140
1040
50.0
1070
   141
1040
20.0
1070
   143
1040
0.0394
1070
   147
1040
15.0
1070
   171
1070
     4
1070
   174
1070
     1
1070
   176
1070
   256
1070
   177
1070
   256
1070
   178
1070
   256
1070
   271
1070
     0
1070
   272
1070
     0
1070
   273
1070
     8
1070
   274
1070
     4
1070
   279
1070
     2
1002
}
  0
DIMENSION
  5
1063E
  8
KERA4
  2
*D17
 10
-2527.404813752712
 20
941.91628898529143
 30
0.0
 11
-2575.9279422837849
 21
969.51098888423905
 31
0.0
 70
   128
 13
-2299.144873177509
 23
991.91628898529143
 33
0.0
 14
-2261.5264631295272
 24
941.91628898529143
 34
0.0
 50
90.0
1001
ACAD
1000
DSTYLE
1002
{
1070
   287
1070
     5
1070
    41
1040
45.0
1070
    42
1040
15.0
1070
    43
1040
15.0
1070
    44
1040
15.0
1070
    78
1070
     8
1070
   140
1040
50.0
1070
   141
1040
20.0
1070
   143
1040
0.0394
1070
   147
1040
15.0
1070
   171
1070
     4
1070
   174
1070
     1
1070
   176
1070
   256
1070
   177
1070
   256
1070
   178
1070
   256
1070
   271
1070
     0
1070
   272
1070
     0
1070
   273
1070
     8
1070
   274
1070
     4
1070
   279
1070
     2
1002
}
  0
DIMENSION
  5
10660
  8
KERA4
  2
*D18
 10
-2165.6206231707802
 20
842.4451021265586
 30
0.0
 11
-2225.6206231707802
 21
842.4451021265586
 31
0.0
 70
     0
 13
-2285.6206231707802
 23
978.39203897856237
 33
0.0
 14
-2165.6206231707802
 24
978.39203897856237
 34
0.0
1001
ACAD
1000
DSTYLE
1002
{
1070
   287
1070
     5
1070
    41
1040
45.0
1070
    42
1040
15.0
1070
    43
1040
15.0
1070
    44
1040
15.0
1070
    78
1070
     8
1070
   140
1040
50.0
1070
   141
1040
20.0
1070
   143
1040
0.0394
1070
   147
1040
15.0
1070
   171
1070
     4
1070
   174
1070
     1
1070
   176
1070
   256
1070
   177
1070
   256
1070
   178
1070
   256
1070
   271
1070
     0
1070
   272
1070
     0
1070
   273
1070
     8
1070
   274
1070
     4
1070
   279
1070
     2
1002
}
  0
DIMENSION
  5
1067A
  8
KERA4
  2
*D19
 10
-2630.5724281474868
 20
-34.145026576610299
 30
0.0
 11
-2630.5724281474868
 21
40.778129828047703
 31
0.0
 70
     0
 13
-2219.4817297835348
 23
115.70128623270639
 33
0.0
 14
-2225.6143949176931
 24
-34.145026576610412
 34
-15.285128674915001
 50
90.0
1001
ACAD
1000
DSTYLE
1002
{
1070
   287
1070
     5
1070
    41
1040
45.0
1070
    42
1040
15.0
1070
    43
1040
15.0
1070
    44
1040
15.0
1070
    78
1070
     8
1070
   140
1040
50.0
1070
   141
1040
20.0
1070
   143
1040
0.0394
1070
   147
1040
15.0
1070
   171
1070
     4
1070
   174
1070
     1
1070
   176
1070
   256
1070
   177
1070
   256
1070
   178
1070
   256
1070
   271
1070
     0
1070
   272
1070
     0
1070
   273
1070
     8
1070
   274
1070
     4
1070
   279
1070
     2
1002
}
  0
DIMENSION
  5
106AA
  8
KERA4
  2
*D20
 10
-2527.404813752712
 20
25.87067625129691
 30
0.0
 11
-2527.404813752712
 21
70.862824806764962
 31
0.0
 70
     0
 13
-2225.6143949176931
 23
115.85497336223369
 33
0.0
 14
-2248.2641259567922
 24
25.870676251296828
 34
-0.000000198220303
 50
90.0
1001
ACAD
1000
DSTYLE
1002
{
1070
   287
1070
     5
1070
    41
1040
45.0
1070
    42
1040
15.0
1070
    43
1040
15.0
1070
    44
1040
15.0
1070
    78
1070
     8
1070
   140
1040
50.0
1070
   141
1040
20.0
1070
   143
1040
0.0394
1070
   147
1040
15.0
1070
   171
1070
     4
1070
   174
1070
     1
1070
   176
1070
   256
1070
   177
1070
   256
1070
   178
1070
   256
1070
   271
1070
     0
1070
   272
1070
     0
1070
   273
1070
     8
1070
   274
1070
     4
1070
   279
1070
     2
1002
}
  0
INSERT
  5
108DC
  8
KERA4
  2
*U23
 10
0.0
 20
0.0
 30
0.0
  0
ENDSEC
  0
EOF
