  0
SECTION
  2
HEADER
  9
$ACADVER
  1
AC1009
  9
$INSBASE
 10
10.44
 20
4.5949999999999989
 30
0.0
  9
$EXTMIN
 10
-2370.60194974668
 20
999.78545351830871
 30
-0.0151324239532187
  9
$EXTMAX
 10
1204.612489412619
 20
3228.9145427225039
 30
495.91223620232807
  9
$LIMMIN
 10
-2137.7953124205542
 20
2095.9359210089142
  9
$LIMMAX
 10
-652.62632784529137
 20
3145.8095118911101
  9
$ORTHOMODE
 70
     1
  9
$REGENMODE
 70
     1
  9
$FILLMODE
 70
     1
  9
$QTEXTMODE
 70
     0
  9
$MIRRTEXT
 70
     1
  9
$DRAGMODE
 70
     2
  9
$LTSCALE
 40
2.0
  9
$OSMODE
 70
    39
  9
$ATTMODE
 70
     1
  9
$TEXTSIZE
 40
0.2000000029802322
  9
$TRACEWID
 40
0.05
  9
$TEXTSTYLE
  7
STANDARD
  9
$CLAYER
  8
0
  9
$CELTYPE
  6
CONTINUOUS
  9
$CECOLOR
 62
     7
  9
$DIMSCALE
 40
1.0
  9
$DIMASZ
 40
50.0
  9
$DIMEXO
 40
15.0
  9
$DIMDLI
 40
15.0
  9
$DIMRND
 40
0.0000001
  9
$DIMDLE
 40
0.0
  9
$DIMEXE
 40
15.0
  9
$DIMTP
 40
0.0
  9
$DIMTM
 40
0.0
  9
$DIMTXT
 40
50.0
  9
$DIMCEN
 40
0.09
  9
$DIMTSZ
 40
0.0
  9
$DIMTOL
 70
     0
  9
$DIMLIM
 70
     0
  9
$DIMTIH
 70
     1
  9
$DIMTOH
 70
     1
  9
$DIMSE1
 70
     0
  9
$DIMSE2
 70
     0
  9
$DIMTAD
 70
     0
  9
$DIMZIN
 70
     0
  9
$DIMBLK
  1

  9
$DIMASO
 70
     0
  9
$DIMSHO
 70
     1
  9
$DIMPOST
  1

  9
$DIMAPOST
  1

  9
$DIMALT
 70
     0
  9
$DIMALTD
 70
     2
  9
$DIMALTF
 40
25.399999999999999
  9
$DIMLFAC
 40
1.0
  9
$DIMTOFL
 70
     0
  9
$DIMTVP
 40
0.0
  9
$DIMTIX
 70
     1
  9
$DIMSOXD
 70
     0
  9
$DIMSAH
 70
     0
  9
$DIMBLK1
  1

  9
$DIMBLK2
  1

  9
$DIMSTYLE
  2
STANDARD
  9
$DIMCLRD
 70
   256
  9
$DIMCLRE
 70
   256
  9
$DIMCLRT
 70
   256
  9
$DIMTFAC
 40
1.0
  9
$DIMGAP
 40
8.0
  9
$LUNITS
 70
     2
  9
$LUPREC
 70
     3
  9
$SKETCHINC
 40
0.1
  9
$FILLETRAD
 40
5.0
  9
$AUNITS
 70
     0
  9
$AUPREC
 70
     0
  9
$MENU
  1
acad
  9
$ELEVATION
 40
0.0
  9
$PELEVATION
 40
0.0
  9
$THICKNESS
 40
0.0
  9
$LIMCHECK
 70
     0
  9
$BLIPMODE
 70
     0
  9
$CHAMFERA
 40
0.0
  9
$CHAMFERB
 40
0.0
  9
$SKPOLY
 70
     0
  9
$TDCREATE
 40
2444972.083333333
  9
$TDUPDATE
 40
2457596.3107577092
  9
$TDINDWG
 40
1.1166406134
  9
$TDUSRTIMER
 40
1.1166406134
  9
$USRTIMER
 70
     1
  9
$ANGBASE
 50
0.0
  9
$ANGDIR
 70
     1
  9
$PDMODE
 70
     0
  9
$PDSIZE
 40
0.0
  9
$PLINEWID
 40
0.0
  9
$COORDS
 70
     1
  9
$SPLFRAME
 70
     0
  9
$SPLINETYPE
 70
     6
  9
$SPLINESEGS
 70
     8
  9
$ATTDIA
 70
     0
  9
$ATTREQ
 70
     1
  9
$HANDLING
 70
     1
  9
$HANDSEED
  5
936
  9
$SURFTAB1
 70
     2
  9
$SURFTAB2
 70
     2
  9
$SURFTYPE
 70
     6
  9
$SURFU
 70
     6
  9
$SURFV
 70
     6
  9
$UCSNAME
  2

  9
$UCSORG
 10
0.0
 20
0.0
 30
0.0
  9
$UCSXDIR
 10
1.0
 20
0.0
 30
0.0
  9
$UCSYDIR
 10
0.0
 20
1.0
 30
0.0
  9
$PUCSNAME
  2

  9
$PUCSORG
 10
0.0
 20
0.0
 30
0.0
  9
$PUCSXDIR
 10
1.0
 20
0.0
 30
0.0
  9
$PUCSYDIR
 10
0.0
 20
1.0
 30
0.0
  9
$USERI1
 70
     0
  9
$USERI2
 70
     0
  9
$USERI3
 70
     0
  9
$USERI4
 70
     0
  9
$USERI5
 70
     0
  9
$USERR1
 40
0.0
  9
$USERR2
 40
0.0
  9
$USERR3
 40
0.0
  9
$USERR4
 40
0.0
  9
$USERR5
 40
0.0
  9
$WORLDVIEW
 70
     1
  9
$SHADEDGE
 70
     3
  9
$SHADEDIF
 70
    70
  9
$TILEMODE
 70
     1
  9
$MAXACTVP
 70
    16
  9
$PLIMCHECK
 70
     0
  9
$PEXTMIN
 10
1.1363636363636400E+020
 20
1.1022727272727290E+020
 30
0.0
  9
$PEXTMAX
 10
-1.1363636363636400E+020
 20
-6.0227272727272702E+019
 30
0.0
  9
$PLIMMIN
 10
1.1363636363636400E+020
 20
1.1022727272727290E+020
  9
$PLIMMAX
 10
-1.1363636363636400E+020
 20
-6.0227272727272702E+019
  9
$UNITMODE
 70
     0
  9
$VISRETAIN
 70
     0
  9
$PLINEGEN
 70
     1
  9
$PSLTSCALE
 70
     1
  0
ENDSEC
  0
SECTION
  2
TABLES
  0
TABLE
  2
VPORT
 70
     1
  0
VPORT
  2
*ACTIVE
 70
     0
 10
0.0
 20
0.0
 11
1.0
 21
1.0
 12
1182.4313704018559
 22
-932.63043978284065
 13
0.0
 23
0.0
 14
100.0
 24
100.0
 15
100.0
 25
100.0
 16
0.0
 26
0.0
 36
1.0
 17
-1086.7769853951911
 27
2582.9876095717959
 37
0.0
 40
3988.1482488015431
 41
1.4396082698585411
 42
50.0
 43
0.0
 44
0.0
 50
0.0
 51
0.0
 71
     0
 72
   100
 73
     1
 74
     1
 75
     0
 76
     1
 77
     0
 78
     0
  0
ENDTAB
  0
TABLE
  2
LTYPE
 70
    38
  0
LTYPE
  2
CONTINUOUS
 70
     0
  3
Solid line
 72
    65
 73
     0
 40
0.0
  0
LTYPE
  2
DURCHGEHEND
 70
     0
  3
Durchgehend
 72
    65
 73
     0
 40
0.0
  0
LTYPE
  2
RAND
 70
     0
  3
Rand
 72
    65
 73
     6
 40
0.875
 49
0.25
 49
-0.125
 49
0.25
 49
-0.125
 49
0.0
 49
-0.125
  0
LTYPE
  2
MITTE
 70
     0
  3
Mitte
 72
    65
 73
     4
 40
1.0
 49
0.625
 49
-0.125
 49
0.125
 49
-0.125
  0
LTYPE
  2
STRICHPUNKT
 70
     0
  3
Strichpunkt
 72
    65
 73
     4
 40
25.399999999999999
 49
12.699999999999999
 49
-6.3499999999999988
 49
0.0
 49
-6.3499999999999988
  0
LTYPE
  2
GESTRICHELT
 70
     0
  3
Gestrichelt
 72
    65
 73
     2
 40
0.375
 49
0.25
 49
-0.125
  0
LTYPE
  2
GETEILT
 70
     0
  3
Geteilt
 72
    65
 73
     6
 40
0.625
 49
0.25
 49
-0.125
 49
0.0
 49
-0.125
 49
0.0
 49
-0.125
  0
LTYPE
  2
PUNKT
 70
     0
  3
Punkt
 72
    65
 73
     2
 40
0.125
 49
0.0
 49
-0.125
  0
LTYPE
  2
VERDECKT
 70
     0
  3
Verdeckt
 72
    65
 73
     2
 40
0.1875
 49
0.125
 49
-0.0625
  0
LTYPE
  2
$INVISIBLE
 70
     0
  3
$INVISIBLE
 72
    65
 73
     2
 40
100.0
 49
-50.0
 49
-50.0
  0
LTYPE
  2
ACAD_ISO10W100
 70
     0
  3
ACAD_ISO10W100
 72
    65
 73
     4
 40
18.0
 49
12.0
 49
-3.0
 49
0.0
 49
-3.0
  0
LTYPE
  2
HIDDEN
 70
     0
  3
HIDDEN
 72
    65
 73
     2
 40
0.375
 49
0.25
 49
-0.125
  0
LTYPE
  2
PHANTOM2
 70
     0
  3
PHANTOM2
 72
    65
 73
     6
 40
1.25
 49
0.625
 49
-0.125
 49
0.125
 49
-0.125
 49
0.125
 49
-0.125
  0
LTYPE
  2
CENTER
 70
     0
  3
CENTER
 72
    65
 73
     4
 40
2.0
 49
1.25
 49
-0.25
 49
0.25
 49
-0.25
  0
LTYPE
  2
AM_ISO02W050
 70
     0
  3
AM_ISO02W050
 72
    65
 73
     2
 40
7.5
 49
6.0
 49
-1.5
  0
LTYPE
  2
AM_ISO08W050
 70
     0
  3
AM_ISO08W050
 72
    65
 73
     4
 40
18.0
 49
12.0
 49
-1.5
 49
3.0
 49
-1.5
  0
LTYPE
  2
AM_ISO09W050
 70
     0
  3
AM_ISO09W050
 72
    65
 73
     6
 40
22.5
 49
12.0
 49
-1.5
 49
3.0
 49
-1.5
 49
3.0
 49
-1.5
  0
LTYPE
  2
AMCONSTR
 70
     0
  3
Amconstr
 72
    65
 73
     2
 40
9999.0
 49
9999.0
 49
0.0
  0
LTYPE
  2
AM_ISO08W050X2
 70
     0
  3
AM_ISO08W050x2
 72
    65
 73
     4
 40
9.0
 49
6.0
 49
-0.75
 49
1.5
 49
-0.75
  0
LTYPE
  2
AM_ISO02W050X2
 70
     0
  3
AM_ISO02W050x2
 72
    65
 73
     2
 40
3.75
 49
3.0
 49
-0.75
  0
LTYPE
  2
AMZIGZAG
 70
     0
  3
Amzigzag
 72
    65
 73
     2
 40
11.0001
 49
0.0001
 49
-11.0
  0
LTYPE
  2
CENTER2
 70
     0
  3
CENTER2
 72
    65
 73
     4
 40
1.125
 49
0.75
 49
-0.125
 49
0.125
 49
-0.125
  0
LTYPE
  2
HIDDEN2
 70
     0
  3
HIDDEN2
 72
    65
 73
     2
 40
0.1875
 49
0.125
 49
-0.0625
  0
LTYPE
  2
AMZIGZAG2
 70
     0
  3
Amzigzag2
 72
    65
 73
     2
 40
0.4401
 49
0.0001
 49
-0.4400000000000001
  0
LTYPE
  2
ACANSTGB
 70
     0
  3
ACANSTGB
 72
    65
 73
     6
 40
0.35433070866
 49
0.15748031496
 49
-0.03937007874
 49
0.03937007874
 49
-0.03937007874
 49
0.03937007874
 49
-0.03937007874
  0
LTYPE
  2
ACANSTGL
 70
     0
  3
ACANSTGL
 72
    65
 73
     2
 40
0.11811023622
 49
0.07874015748
 49
-0.03937007874
  0
LTYPE
  2
AM_DIN_F_W050
 70
     0
  3
AM_DIN_F_W050
 72
    65
 73
     2
 40
6.25
 49
4.75
 49
-1.5
  0
LTYPE
  2
AM_DIN_G_W050
 70
     0
  3
AM_DIN_G_W050
 72
    65
 73
     4
 40
13.75
 49
9.75
 49
-1.5
 49
1.0
 49
-1.5
  0
LTYPE
  2
AM_DIN_K_W050
 70
     0
  3
AM_DIN_K_W050
 72
    65
 73
     6
 40
16.25
 49
9.75
 49
-1.5
 49
1.0
 49
-1.5
 49
1.0
 49
-1.5
  0
LTYPE
  2
AM_DIN_G_W050X2
 70
     0
  3
AM_DIN_G_W050x2
 72
    65
 73
     4
 40
6.875
 49
4.75
 49
-0.875
 49
0.375
 49
-0.875
  0
LTYPE
  2
AM_DIN_F_W050X2
 70
     0
  3
AM_DIN_F_W050x2
 72
    65
 73
     2
 40
3.125
 49
2.25
 49
-0.875
  0
LTYPE
  2
ACDINWELD
 70
     0
  3
ACDINWELD
 72
    65
 73
     2
 40
3.0
 49
2.0
 49
-1.0
  0
LTYPE
  2
ACDINTGB
 70
     0
  3
ACDINTGB
 72
    65
 73
     6
 40
9.0
 49
4.0
 49
-1.0
 49
1.0
 49
-1.0
 49
1.0
 49
-1.0
  0
LTYPE
  2
ACDINTGL
 70
     0
  3
ACDINTGL
 72
    65
 73
     2
 40
3.0
 49
2.0
 49
-1.0
  0
LTYPE
  2
ACAD_ISO02W100
 70
     0
  3
ACAD_ISO02W100
 72
    65
 73
     2
 40
15.0
 49
12.0
 49
-3.0
  0
LTYPE
  2
$SNAPEXT
 70
     0
  3
$SNAPEXT
 72
    65
 73
     2
 40
0.02
 49
0.01
 49
-0.01
  0
LTYPE
  2
$AUXILIARY
 70
     0
  3
$AUXILIARY
 72
    65
 73
     2
 40
0.05
 49
0.025
 49
-0.025
  0
ENDTAB
  0
TABLE
  2
LAYER
 70
    16
  0
LAYER
  2
0
 70
     0
 62
     7
  6
CONTINUOUS
  0
LAYER
  2
KERA0
 70
     0
 62
   250
  6
CONTINUOUS
  0
LAYER
  2
KERA2
 70
     0
 62
     7
  6
ACAD_ISO10W100
  0
LAYER
  2
KERA4
 70
     0
 62
     1
  6
CONTINUOUS
  0
LAYER
  2
DEFPOINTS
 70
     0
 62
     7
  6
CONTINUOUS
  0
LAYER
  2
KERA5
 70
     0
 62
   252
  6
CONTINUOUS
  0
LAYER
  2
AM_5
 70
     0
 62
    92
  6
CONTINUOUS
  0
LAYER
  2
AM_0
 70
     0
 62
     7
  6
CONTINUOUS
  0
LAYER
  2
AM_4
 70
     0
 62
    92
  6
CONTINUOUS
  0
LAYER
  2
AM_8
 70
     0
 62
     1
  6
CONTINUOUS
  0
LAYER
  2
KERA7
 70
     0
 62
    22
  6
CONTINUOUS
  0
LAYER
  2
KERA1
 70
     0
 62
     1
  6
ACAD_ISO02W100
  0
LAYER
  2
WAND
 70
     0
 62
     1
  6
CONTINUOUS
  0
LAYER
  2
S
 70
     0
 62
     1
  6
CONTINUOUS
  0
LAYER
  2
LAYER01
 70
     0
 62
     7
  6
CONTINUOUS
  0
LAYER
  2
KERA4___1
 70
     0
 62
     1
  6
CONTINUOUS
  0
ENDTAB
  0
TABLE
  2
STYLE
 70
     8
  0
STYLE
  2
STANDARD
 70
     0
 40
50.0
 41
1.0
 50
0.0
 71
     0
 42
0.2000000029802322
  3
txt
  4

  0
STYLE
  2
ACANSTS
 70
     0
 40
1.0
 41
1.0
 50
0.0
 71
     0
 42
0.2000000029802322
  3
ROMANS.SHX
  4

  0
STYLE
  2
ACANSGDT
 70
     0
 40
0.0
 41
1.0
 50
0.0
 71
     0
 42
0.2000000029802322
  3
AMGDT.SHX
  4

  0
STYLE
  2
ACDINGDT
 70
     0
 40
0.0
 41
1.0
 50
0.0
 71
     0
 42
50.0
  3
AMGDT.SHX
  4

  0
STYLE
  2
BOXER
 70
     0
 40
45.0
 41
1.0
 50
0.0
 71
     0
 42
0.2000000029802322
  3
txt
  4

  0
STYLE
  2
ROMANS
 70
     0
 40
0.0
 41
1.0
 50
0.0
 71
     0
 42
0.2000000029802322
  3
ROMANS.SHX
  4

  0
STYLE
  2
SPIRITTXTSTYLE1
 70
     0
 40
0.0
 41
1.0
 50
0.0
 71
     0
 42
0.2000000029802322
  3
ORIG.SHX
  4

  0
STYLE
  2
SIMPLEX
 70
     0
 40
0.0
 41
1.0
 50
0.0
 71
     0
 42
0.0
  3
simplex
  4

  0
ENDTAB
  0
TABLE
  2
VIEW
 70
     1
  0
VIEW
  2
ANSICHT_0
 70
     0
 40
210.0
 10
148.5
 20
105.0
 41
297.0
 11
0.0
 21
0.0
 31
1.0
 12
0.0
 22
0.0
 32
0.0
 42
45.247172312670777
 43
0.0
 44
0.0
 50
0.0
 71
     0
  0
ENDTAB
  0
TABLE
  2
UCS
 70
     0
  0
ENDTAB
  0
TABLE
  2
APPID
 70
     9
  0
APPID
  2
ACAD
 70
     0
  0
APPID
  2
TCAD
 70
     0
  0
APPID
  2
ACAD_MLEADERVER
 70
     0
  0
APPID
  2
GENIUS_GENODEF_13
 70
     0
  0
APPID
  2
GENIUS_GENFIL_13
 70
     0
  0
APPID
  2
GENIUS_GENOBJ-N-CHA_13
 70
     0
  0
APPID
  2
GENIUS_GENOBJ-N-FIL_13
 70
     0
  0
APPID
  2
DCO15
 70
     0
  0
APPID
  2
ACAD_EXEMPT_FROM_CAD_STANDARDS
 70
     0
  0
ENDTAB
  0
TABLE
  2
DIMSTYLE
 70
    16
  0
DIMSTYLE
  2
STANDARD
 70
     0
  3

  4

  5

  6

  7

 40
1.0
 41
50.0
 42
15.0
 43
15.0
 44
15.0
 45
0.0000001
 46
0.0
 47
0.0
 48
0.0
140
50.0
141
0.09
142
0.0
143
25.399999999999999
144
1.0
145
0.0
146
1.0
147
8.0
 71
     0
 72
     0
 73
     1
 74
     1
 75
     0
 76
     0
 77
     0
 78
     0
170
     0
171
     2
172
     0
173
     0
174
     1
175
     0
176
   256
177
   256
178
   256
  0
DIMSTYLE
  2
AM_ANSI
 70
     0
  3

  4
<>mm
  5

  6

  7

 40
1.0
 41
0.12
 42
0.05
 43
0.5
 44
0.1
 45
0.0000001
 46
0.0
 47
0.1
 48
0.1
140
50.0
141
0.09
142
0.0
143
25.399999999999999
144
1.0
145
0.0
146
0.71
147
0.06
 71
     0
 72
     0
 73
     1
 74
     1
 75
     0
 76
     0
 77
     0
 78
     7
170
     0
171
     2
172
     0
173
     0
174
     0
175
     0
176
   256
177
   256
178
   140
  0
DIMSTYLE
  2
AM_ANSI$3
 70
     0
  3

  4
<>mm
  5

  6

  7

 40
1.0
 41
0.12
 42
0.05
 43
0.5
 44
0.1
 45
0.0000001
 46
0.0
 47
0.1
 48
0.1
140
50.0
141
0.09
142
0.0
143
25.399999999999999
144
1.0
145
0.0
146
0.71
147
0.06
 71
     0
 72
     0
 73
     1
 74
     1
 75
     0
 76
     0
 77
     0
 78
     7
170
     0
171
     2
172
     0
173
     0
174
     0
175
     0
176
   256
177
   256
178
   140
  0
DIMSTYLE
  2
AM_ANSI$4
 70
     0
  3

  4
<>mm
  5

  6

  7

 40
1.0
 41
0.12
 42
0.05
 43
0.5
 44
0.1
 45
0.0000001
 46
0.0
 47
0.1
 48
0.1
140
50.0
141
0.09
142
0.0
143
25.399999999999999
144
1.0
145
0.0
146
0.71
147
0.06
 71
     0
 72
     0
 73
     1
 74
     1
 75
     0
 76
     0
 77
     0
 78
     7
170
     0
171
     2
172
     0
173
     0
174
     0
175
     0
176
   256
177
   256
178
   140
  0
DIMSTYLE
  2
AM_ANSI$7
 70
     0
  3

  4
<>mm
  5

  6

  7

 40
1.0
 41
0.12
 42
0.05
 43
0.5
 44
0.1
 45
0.0000001
 46
0.0
 47
0.1
 48
0.1
140
50.0
141
0.09
142
0.0
143
25.399999999999999
144
1.0
145
0.0
146
0.71
147
0.06
 71
     0
 72
     0
 73
     1
 74
     1
 75
     0
 76
     0
 77
     0
 78
     7
170
     0
171
     2
172
     0
173
     0
174
     0
175
     0
176
   256
177
   256
178
   140
  0
DIMSTYLE
  2
AM_ANSI$SF
 70
     0
  3

  4
<>mm
  5

  6

  7

 40
1.0
 41
0.12
 42
0.05
 43
0.5
 44
0.1
 45
0.0000001
 46
0.0
 47
0.1
 48
0.1
140
50.0
141
0.09
142
0.0
143
25.399999999999999
144
1.0
145
0.0
146
0.71
147
0.06
 71
     0
 72
     0
 73
     1
 74
     1
 75
     1
 76
     1
 77
     0
 78
     7
170
     0
171
     2
172
     0
173
     0
174
     0
175
     0
176
   256
177
   256
178
   140
  0
DIMSTYLE
  2
AM_ANSI$SH
 70
     0
  3

  4
<>mm
  5

  6

  7

 40
1.0
 41
0.12
 42
0.05
 43
0.5
 44
0.1
 45
0.0000001
 46
0.0
 47
0.1
 48
0.1
140
50.0
141
0.09
142
0.0
143
25.399999999999999
144
1.0
145
0.0
146
0.71
147
0.06
 71
     0
 72
     0
 73
     1
 74
     1
 75
     1
 76
     1
 77
     0
 78
     7
170
     0
171
     2
172
     0
173
     0
174
     0
175
     0
176
   256
177
   256
178
   140
  0
DIMSTYLE
  2
STANDARD0$0
 70
     0
  3

  4

  5

  6

  7

 40
1.0
 41
50.0
 42
15.0
 43
15.0
 44
15.0
 45
0.0000001
 46
0.0
 47
0.0
 48
0.0
140
50.0
141
0.09
142
0.0
143
25.399999999999999
144
1.0
145
0.0
146
1.0
147
8.0
 71
     0
 72
     0
 73
     1
 74
     1
 75
     0
 76
     0
 77
     0
 78
     0
170
     0
171
     2
172
     0
173
     0
174
     1
175
     0
176
   256
177
   256
178
   256
  0
DIMSTYLE
  2
AM_DIN
 70
     0
  3

  4
<>"
  5

  6

  7

 40
1.0
 41
3.5
 42
1.0
 43
10.0
 44
1.0
 45
0.0000001
 46
0.0
 47
0.1
 48
0.1
140
50.0
141
0.09
142
0.0
143
0.0393701
144
1.0
145
0.0
146
0.71
147
1.5
 71
     0
 72
     0
 73
     0
 74
     0
 75
     0
 76
     0
 77
     1
 78
     8
170
     0
171
     2
172
     1
173
     0
174
     0
175
     0
176
   256
177
   256
178
   140
  0
DIMSTYLE
  2
AM_DIN$3
 70
     0
  3

  4
<>"
  5

  6

  7

 40
1.0
 41
3.5
 42
1.0
 43
10.0
 44
1.0
 45
0.0000001
 46
0.0
 47
0.1
 48
0.1
140
50.0
141
0.09
142
0.0
143
0.0393701
144
1.0
145
0.0
146
0.71
147
1.5
 71
     0
 72
     0
 73
     0
 74
     1
 75
     0
 76
     0
 77
     1
 78
     8
170
     0
171
     2
172
     0
173
     0
174
     0
175
     0
176
   256
177
   256
178
   140
  0
DIMSTYLE
  2
AM_DIN$4
 70
     0
  3

  4
<>"
  5

  6

  7

 40
1.0
 41
3.5
 42
1.0
 43
10.0
 44
1.0
 45
0.0000001
 46
0.0
 47
0.1
 48
0.1
140
50.0
141
0.09
142
0.0
143
0.0393701
144
1.0
145
0.0
146
0.71
147
1.5
 71
     0
 72
     0
 73
     0
 74
     1
 75
     0
 76
     0
 77
     1
 78
     8
170
     0
171
     2
172
     0
173
     0
174
     0
175
     0
176
   256
177
   256
178
   140
  0
DIMSTYLE
  2
AM_DIN$6
 70
     0
  3

  4
<>"
  5

  6

  7

 40
1.0
 41
3.5
 42
1.0
 43
10.0
 44
1.0
 45
0.0000001
 46
0.0
 47
0.1
 48
0.1
140
50.0
141
0.09
142
0.0
143
0.0393701
144
1.0
145
0.0
146
0.71
147
1.5
 71
     0
 72
     0
 73
     0
 74
     0
 75
     0
 76
     0
 77
     0
 78
     8
170
     0
171
     2
172
     1
173
     0
174
     0
175
     0
176
   256
177
   256
178
   140
  0
DIMSTYLE
  2
AM_DIN$7
 70
     0
  3

  4
<>"
  5

  6

  7

 40
1.0
 41
3.5
 42
1.0
 43
10.0
 44
1.0
 45
0.0000001
 46
0.0
 47
0.1
 48
0.1
140
50.0
141
0.09
142
0.0
143
0.0393701
144
1.0
145
0.0
146
0.71
147
1.5
 71
     0
 72
     0
 73
     0
 74
     0
 75
     0
 76
     0
 77
     1
 78
     8
170
     0
171
     2
172
     1
173
     0
174
     0
175
     0
176
   256
177
   256
178
   140
  0
DIMSTYLE
  2
AM_DIN$SF
 70
     0
  3

  4
<>"
  5

  6

  7

 40
1.0
 41
3.5
 42
1.0
 43
10.0
 44
1.0
 45
0.0000001
 46
0.0
 47
0.1
 48
0.1
140
50.0
141
0.09
142
0.0
143
0.0393701
144
1.0
145
0.0
146
0.71
147
1.5
 71
     0
 72
     0
 73
     0
 74
     0
 75
     1
 76
     1
 77
     1
 78
     8
170
     0
171
     2
172
     1
173
     0
174
     0
175
     0
176
   256
177
   256
178
   140
  0
DIMSTYLE
  2
AM_DIN$SH
 70
     0
  3

  4
<>"
  5

  6

  7

 40
1.0
 41
3.5
 42
1.0
 43
10.0
 44
1.0
 45
0.0000001
 46
0.0
 47
0.1
 48
0.1
140
50.0
141
0.09
142
0.0
143
0.0393701
144
2.0
145
0.0
146
0.71
147
1.5
 71
     0
 72
     0
 73
     0
 74
     0
 75
     1
 76
     1
 77
     1
 78
     8
170
     0
171
     2
172
     1
173
     0
174
     0
175
     0
176
   256
177
   256
178
   140
  0
DIMSTYLE
  2
BOXER
 70
     0
  3

  4

  5

  6

  7

 40
1.0
 41
50.0
 42
15.0
 43
10.0
 44
10.0
 45
0.0000001
 46
0.0
 47
0.0
 48
0.0
140
45.0
141
0.09
142
0.0
143
25.399999999999999
144
1.0
145
0.0
146
1.0
147
10.0
 71
     0
 72
     0
 73
     1
 74
     1
 75
     0
 76
     0
 77
     0
 78
     0
170
     0
171
     2
172
     0
173
     0
174
     1
175
     0
176
     0
177
     0
178
     1
  0
ENDTAB
  0
ENDSEC
  0
SECTION
  2
BLOCKS
  0
BLOCK
  8
0
  2
$MODEL_SPACE
 70
     0
 10
0.0
 20
0.0
 30
0.0
  3
$MODEL_SPACE
  1

  0
ENDBLK
  5
E
  8
0
  0
BLOCK
 67
     1
  8
0
  2
$PAPER_SPACE
 70
     0
 10
0.0
 20
0.0
 30
0.0
  3
$PAPER_SPACE
  1

  0
ENDBLK
  5
10
 67
     1
  8
0
  0
BLOCK
  8
0
  2
2
 70
     0
 10
0.0
 20
0.0
 30
0.0
  3
2
  1

  0
LINE
  5
67
  8
KERA0
 10
1375.7221137830909
 20
1000.669273047896
 30
0.0
 11
1365.911761938482
 21
992.81489342198597
 31
0.0
1001
ACAD
1000
TCW40_DEV_WIDTH
1002
{
1040
-3.0
1002
}
  0
ARC
  5
68
  8
KERA0
 10
1288.773115604256
 20
1093.395269336178
 30
0.0
 40
111.4984529728566
 50
-65.256063477597763
 51
0.3285385761880554
1001
ACAD
1000
TCW40_DEV_WIDTH
1002
{
1040
-3.0
1002
}
  0
LINE
  5
69
  8
KERA0
 10
1365.911761938482
 20
992.81489342198597
 30
0.0
 11
1355.0113803393069
 21
982.99691084819892
 31
0.0
1001
ACAD
1000
TCW40_DEV_WIDTH
1002
{
1040
-3.0
1002
}
  0
LINE
  5
6A
  8
KERA0
 10
1324.2331718583559
 20
967.16084733919797
 30
0.0
 11
1355.0113803393069
 21
967.16084733919797
 31
0.0
1001
ACAD
1000
TCW40_DEV_WIDTH
1002
{
1040
-3.0
1002
}
  0
LINE
  5
6B
  8
KERA0
 10
1355.0113803393069
 20
982.99691084819892
 30
0.0
 11
1355.0113803393069
 21
967.16084733919797
 31
0.0
1001
ACAD
1000
TCW40_DEV_WIDTH
1002
{
1040
-3.0
1002
}
  0
LINE
  5
6C
  8
KERA0
 10
1324.2331718583559
 20
978.20128723504718
 30
0.0
 11
1324.2331718583559
 21
967.16084733919797
 31
0.0
1001
ACAD
1000
TCW40_DEV_WIDTH
1002
{
1040
-3.0
1002
}
  0
LINE
  5
6D
  8
KERA0
 10
1324.2331718583559
 20
978.20128723504718
 30
0.0
 11
1335.4423126568261
 21
992.13377091842494
 31
0.0
1001
ACAD
1000
TCW40_DEV_WIDTH
1002
{
1040
-3.0
1002
}
  0
LINE
  5
6E
  8
KERA0
 10
1412.783419625637
 20
1109.848820716601
 30
0.0
 11
1412.347404121517
 21
1096.3218222655651
 31
0.0
1001
ACAD
1000
TCW40_DEV_WIDTH
1002
{
1040
-3.0
1002
}
  0
ARC
  5
6F
  8
KERA0
 10
5563.0650826171368
 20
1069.195446651127
 30
0.0
 40
4162.8694533112721
 50
178.79361836512871
 51
179.65812343910781
1001
ACAD
1000
TCW40_DEV_WIDTH
1002
{
1040
-3.0
1002
}
  0
LINE
  5
70
  8
KERA0
 10
1402.5370582807309
 20
1051.068229531058
 30
0.0
 11
1397.086867481142
 21
1037.54124180189
 31
0.0
1001
ACAD
1000
TCW40_DEV_WIDTH
1002
{
1040
-3.0
1002
}
  0
LINE
  5
71
  8
KERA0
 10
1384.2244131115169
 20
1011.7963206796441
 30
0.0
 11
1375.7221137830909
 21
1000.669273047896
 31
0.0
1001
ACAD
1000
TCW40_DEV_WIDTH
1002
{
1040
-3.0
1002
}
  0
LINE
  5
72
  8
KERA0
 10
1390.546634919345
 20
1023.359716182804
 30
0.0
 11
1384.2244131115169
 21
1011.7963206796441
 31
0.0
1001
ACAD
1000
TCW40_DEV_WIDTH
1002
{
1040
-3.0
1002
}
  0
LINE
  5
73
  8
KERA0
 10
1397.086867481142
 20
1037.54124180189
 30
0.0
 11
1390.546634919345
 21
1023.359716182804
 31
0.0
1001
ACAD
1000
TCW40_DEV_WIDTH
1002
{
1040
-3.0
1002
}
  0
LINE
  5
74
  8
KERA0
 10
1407.987249080318
 20
1066.431537394662
 30
0.0
 11
1402.5370582807309
 21
1051.068229531058
 31
0.0
1001
ACAD
1000
TCW40_DEV_WIDTH
1002
{
1040
-3.0
1002
}
  0
LINE
  5
75
  8
KERA0
 10
1409.9493218507689
 20
1081.4857694784321
 30
0.0
 11
1407.987249080318
 21
1066.431537394662
 31
0.0
1001
ACAD
1000
TCW40_DEV_WIDTH
1002
{
1040
-3.0
1002
}
  0
LINE
  5
76
  8
KERA0
 10
1412.347404121517
 20
1096.3218222655651
 30
0.0
 11
1409.9493218507689
 21
1081.4857694784321
 31
0.0
1001
ACAD
1000
TCW40_DEV_WIDTH
1002
{
1040
-3.0
1002
}
  0
LINE
  5
77
  8
KERA0
 10
1439.1123766330791
 20
1156.9504095251921
 30
0.0
 11
1439.1123766330791
 21
1144.8635616931131
 31
0.0
1001
ACAD
1000
TCW40_DEV_WIDTH
1002
{
1040
-3.0
1002
}
  0
LINE
  5
78
  8
KERA0
 10
1413.2194351297569
 20
1124.3758191676411
 30
0.0
 11
1412.783419625637
 21
1109.848820716601
 31
0.0
1001
ACAD
1000
TCW40_DEV_WIDTH
1002
{
1040
-3.0
1002
}
  0
LINE
  5
79
  8
KERA0
 10
1413.4294808123
 20
1139.9310715382351
 30
0.0
 11
1413.2194351297569
 21
1124.3758191676411
 31
0.0
1001
ACAD
1000
TCW40_DEV_WIDTH
1002
{
1040
-3.0
1002
}
  0
ARC
  5
7A
  8
KERA0
 10
1418.4290250336071
 20
1139.8635616931131
 30
0.0
 40
5.0
 50
90.0
 51
179.2263706527271
1001
ACAD
1000
TCW40_DEV_WIDTH
1002
{
1040
-3.0
1002
}
  0
LINE
  5
7B
  8
KERA0
 10
1525.9092437172101
 20
1156.9504095251921
 30
0.0
 11
948.9874954360663
 21
1156.9504095251921
 31
0.0
1001
ACAD
1000
TCW40_DEV_WIDTH
1002
{
1040
-3.0
1002
}
  0
ENDBLK
  5
7C
  8
0
  0
BLOCK
  8
0
  2
GENAXEH
 70
     0
 10
0.0
 20
0.0
 30
0.0
  3
GENAXEH
  1

  0
LINE
  5
7F
  8
0
 10
-1.0
 20
0.0
 30
0.0
 11
1.0
 21
0.0
 31
0.0
1001
ACAD
1000
TCW40_DEV_WIDTH
1002
{
1040
-3.0
1002
}
  0
ENDBLK
  5
80
  8
0
  0
BLOCK
  8
0
  2
_-0
 70
     0
 10
0.0
 20
0.0
 30
0.0
  3
_-0
  1

  0
INSERT
  5
83
  8
0
  6
CONTINUOUS
 62
     7
  2
*U27
 10
0.0
 20
0.0
 30
0.0
  0
LINE
  5
84
  8
KERA4
 10
1310.9615714138679
 20
-288.25103732301147
 30
0.0
 11
1559.823159051459
 21
-288.25103732301147
 31
0.0
1001
ACAD
1000
TCW40_DEV_WIDTH
1002
{
1040
-3.0
1002
}
  0
INSERT
  5
85
  8
0
  6
CONTINUOUS
 62
     7
  2
*U28
 10
0.0
 20
0.0
 30
0.0
  0
INSERT
  5
86
  8
0
  6
CONTINUOUS
 62
     7
  2
*U29
 10
0.0
 20
0.0
 30
0.0
  0
SOLID
  5
87
  8
KERA4
 10
1243.0915838730521
 20
-356.1200248632075
 30
0.0
 11
1283.221571413869
 21
-315.98803732301133
 31
0.0
 12
1243.0915714138721
 22
-315.9880497815779
 32
0.0
 13
1243.0915714138721
 23
-315.9880497815779
 33
0.0
  0
LINE
  5
88
  8
KERA4
 10
1202.9615714138679
 20
-315.98803732301133
 30
0.0
 11
1283.2215714138681
 21
-315.98803732301133
 31
0.0
1001
ACAD
1000
TCW40_DEV_WIDTH
1002
{
1040
-3.0
1002
}
  0
LINE
  5
89
  8
KERA4
 10
1283.221571413869
 20
-315.98803732301133
 30
0.0
 11
1243.0915714138689
 21
-356.12003732301127
 31
0.0
1001
ACAD
1000
TCW40_DEV_WIDTH
1002
{
1040
-3.0
1002
}
  0
LINE
  5
8A
  8
KERA4
 10
1243.0915838730521
 20
-356.1200248632075
 30
0.0
 11
1243.091571413868
 21
-315.98803732301133
 31
0.0
1001
ACAD
1000
TCW40_DEV_WIDTH
1002
{
1040
-3.0
1002
}
  0
LINE
  5
8B
  8
KERA4
 10
1202.9615714138679
 20
-315.98803732301133
 30
0.0
 11
1243.0915714138689
 21
-356.12003732301127
 31
0.0
1001
ACAD
1000
TCW40_DEV_WIDTH
1002
{
1040
-3.0
1002
}
  0
LINE
  5
8C
  8
KERA4
 10
1283.221571413869
 20
-315.98803732301133
 30
0.0
 11
1310.9615714138679
 21
-288.25103732301147
 31
0.0
1001
ACAD
1000
TCW40_DEV_WIDTH
1002
{
1040
-3.0
1002
}
  0
ENDBLK
  5
8D
  8
0
  0
BLOCK
  8
0
  2
_U4
 70
     0
 10
0.0
 20
0.0
 30
0.0
  3
_U4
  1

  0
ENDBLK
  5
90
  8
0
  0
BLOCK
  8
0
  2
*D4
 70
     1
 10
0.0
 20
0.0
 30
0.0
  3
*D4
  1

  0
LINE
  5
D3
  8
KERA4
  6
DURCHGEHEND
 10
-1111.265385258029
 20
2924.681024708761
 30
0.0
 11
-857.07485761427949
 21
2924.681024708761
 31
0.0
1001
ACAD
1000
TCW40_DEV_WIDTH
1002
{
1040
-3.0
1002
}
  0
LINE
  5
D4
  8
KERA4
  6
DURCHGEHEND
 10
-1116.2653852580211
 20
2374.6810247086901
 30
0.0
 11
-857.07485761427949
 21
2374.6810247086901
 31
0.0
1001
ACAD
1000
TCW40_DEV_WIDTH
1002
{
1040
-3.0
1002
}
  0
POLYLINE
  5
D5
  8
KERA4
  6
DURCHGEHEND
 66
     1
 10
0.0
 20
0.0
 30
0.0
 70
   128
1001
ACAD
1000
TCW40_DEV_WIDTH
1002
{
1040
-3.0
1002
}
  0
VERTEX
  5
639
  8
KERA4
  6
DURCHGEHEND
 10
-872.07485761427961
 20
2874.681024708761
 30
0.0
  0
VERTEX
  5
63A
  8
KERA4
  6
DURCHGEHEND
 10
-872.07485761427961
 20
2874.681024708761
 30
0.0
  0
VERTEX
  5
63B
  8
KERA4
  6
DURCHGEHEND
 10
-872.07485761427961
 20
2874.681024708761
 30
0.0
  0
VERTEX
  5
63C
  8
KERA4
  6
DURCHGEHEND
 10
-872.07485761427961
 20
2682.281025450472
 30
0.0
  0
SEQEND
  5
63D
  8
KERA4
  6
DURCHGEHEND
  0
POLYLINE
  5
D6
  8
KERA4
  6
DURCHGEHEND
 66
     1
 10
0.0
 20
0.0
 30
0.0
 70
   128
1001
ACAD
1000
TCW40_DEV_WIDTH
1002
{
1040
-3.0
1002
}
  0
VERTEX
  5
63E
  8
KERA4
  6
DURCHGEHEND
 10
-872.07485761427961
 20
2424.681024708691
 30
0.0
  0
VERTEX
  5
63F
  8
KERA4
  6
DURCHGEHEND
 10
-872.07485761427961
 20
2424.681024708691
 30
0.0
  0
VERTEX
  5
640
  8
KERA4
  6
DURCHGEHEND
 10
-872.07485761427961
 20
2424.681024708691
 30
0.0
  0
VERTEX
  5
641
  8
KERA4
  6
DURCHGEHEND
 10
-872.07485761427961
 20
2617.081023966979
 30
0.0
  0
SEQEND
  5
642
  8
KERA4
  6
DURCHGEHEND
  0
POLYLINE
  5
D8
  8
KERA4
  6
DURCHGEHEND
 66
     1
 10
0.0
 20
0.0
 30
0.0
 70
   129
1001
ACAD
1000
TCW40_DEV_WIDTH
1002
{
1040
-3.0
1002
}
  0
VERTEX
  5
649
  8
KERA4
  6
DURCHGEHEND
 10
-872.07485761427961
 20
2924.681024708761
 30
0.0
  0
VERTEX
  5
64A
  8
KERA4
  6
DURCHGEHEND
 10
-878.57485761427949
 20
2874.681024708761
 30
0.0
  0
VERTEX
  5
64B
  8
KERA4
  6
DURCHGEHEND
 10
-865.57485761427961
 20
2874.681024708761
 30
0.0
  0
SEQEND
  5
64C
  8
KERA4
  6
DURCHGEHEND
  0
INSERT
  5
D7
  8
KERA4
  6
CONTINUOUS
  2
*U31
 10
0.0
 20
0.0
 30
0.0
1001
ACAD
1002
{
1000
R14_HATCH_DATA
1000
D7
1011
1.0
1021
0.0
1031
0.0
1021
0.0
1031
0.0
1011
0.0
1021
0.0
1031
0.0
1021
1.0
1031
0.0
1011
0.0
1021
0.0
1031
0.0
1021
0.0
1031
1.0
1040
0.0
1010
0.0
1020
0.0
1030
1.0
1000
SOLID
1070
     1
1070
     1
1071
        1
1071
        3
1070
     0
1070
     1
1071
        3
1040
-872.07485761427961
1040
2924.681024708761
1040
-878.57485761427949
1040
2874.681024708761
1040
-865.57485761427961
1040
2874.681024708761
1071
        1
1005
D8
1070
     0
1070
     0
1071
        0
1002
}
  0
POLYLINE
  5
DA
  8
KERA4
  6
DURCHGEHEND
 66
     1
 10
0.0
 20
0.0
 30
0.0
 70
   129
1001
ACAD
1000
TCW40_DEV_WIDTH
1002
{
1040
-3.0
1002
}
  0
VERTEX
  5
653
  8
KERA4
  6
DURCHGEHEND
 10
-872.07485761427961
 20
2374.6810247086901
 30
0.0
  0
VERTEX
  5
654
  8
KERA4
  6
DURCHGEHEND
 10
-865.57485761427961
 20
2424.681024708691
 30
0.0
  0
VERTEX
  5
655
  8
KERA4
  6
DURCHGEHEND
 10
-878.57485761427949
 20
2424.681024708691
 30
0.0
  0
SEQEND
  5
656
  8
KERA4
  6
DURCHGEHEND
  0
INSERT
  5
D9
  8
KERA4
  6
CONTINUOUS
  2
*U32
 10
0.0
 20
0.0
 30
0.0
1001
ACAD
1002
{
1000
R14_HATCH_DATA
1000
D9
1011
1.0
1021
0.0
1031
0.0
1021
0.0
1031
0.0
1011
0.0
1021
0.0
1031
0.0
1021
1.0
1031
0.0
1011
0.0
1021
0.0
1031
0.0
1021
0.0
1031
1.0
1040
0.0
1010
0.0
1020
0.0
1030
1.0
1000
SOLID
1070
     1
1070
     1
1071
        1
1071
        3
1070
     0
1070
     1
1071
        3
1040
-872.07485761427961
1040
2374.6810247086901
1040
-865.57485761427961
1040
2424.681024708691
1040
-878.57485761427949
1040
2424.681024708691
1071
        1
1005
DA
1070
     0
1070
     0
1071
        0
1002
}
  0
INSERT
  5
DB
  8
0
  6
CONTINUOUS
 62
     7
  2
*U33
 10
0.0
 20
0.0
 30
0.0
  0
ENDBLK
  5
DC
  8
0
  0
BLOCK
  8
0
  2
*D5
 70
     1
 10
0.0
 20
0.0
 30
0.0
  3
*D5
  1

  0
LINE
  5
E0
  8
KERA4
  6
DURCHGEHEND
 10
-1715.2653852580261
 20
2779.6810247087319
 30
0.0
 11
-1988.8077835578799
 21
2779.6810247087319
 31
0.0
1001
ACAD
1000
TCW40_DEV_WIDTH
1002
{
1040
-3.0
1002
}
  0
LINE
  5
E1
  8
KERA4
  6
DURCHGEHEND
 10
-1715.2653852580261
 20
2429.6810247087142
 30
0.0
 11
-1988.8077835578799
 21
2429.6810247087142
 31
0.0
1001
ACAD
1000
TCW40_DEV_WIDTH
1002
{
1040
-3.0
1002
}
  0
POLYLINE
  5
E2
  8
KERA4
  6
DURCHGEHEND
 66
     1
 10
0.0
 20
0.0
 30
0.0
 70
   128
1001
ACAD
1000
TCW40_DEV_WIDTH
1002
{
1040
-3.0
1002
}
  0
VERTEX
  5
65B
  8
KERA4
  6
DURCHGEHEND
 10
-1973.8077835578799
 20
2729.6810247087319
 30
0.0
  0
VERTEX
  5
65C
  8
KERA4
  6
DURCHGEHEND
 10
-1973.8077835578799
 20
2729.6810247087319
 30
0.0
  0
VERTEX
  5
65D
  8
KERA4
  6
DURCHGEHEND
 10
-1973.8077835578799
 20
2729.6810247087319
 30
0.0
  0
VERTEX
  5
65E
  8
KERA4
  6
DURCHGEHEND
 10
-1973.8077835578799
 20
2637.2810254504689
 30
0.0
  0
SEQEND
  5
65F
  8
KERA4
  6
DURCHGEHEND
  0
POLYLINE
  5
E3
  8
KERA4
  6
DURCHGEHEND
 66
     1
 10
0.0
 20
0.0
 30
0.0
 70
   128
1001
ACAD
1000
TCW40_DEV_WIDTH
1002
{
1040
-3.0
1002
}
  0
VERTEX
  5
660
  8
KERA4
  6
DURCHGEHEND
 10
-1973.8077835578799
 20
2479.6810247087128
 30
0.0
  0
VERTEX
  5
661
  8
KERA4
  6
DURCHGEHEND
 10
-1973.8077835578799
 20
2479.6810247087128
 30
0.0
  0
VERTEX
  5
662
  8
KERA4
  6
DURCHGEHEND
 10
-1973.8077835578799
 20
2479.6810247087128
 30
0.0
  0
VERTEX
  5
663
  8
KERA4
  6
DURCHGEHEND
 10
-1973.8077835578799
 20
2572.0810239669759
 30
0.0
  0
SEQEND
  5
664
  8
KERA4
  6
DURCHGEHEND
  0
POLYLINE
  5
E5
  8
KERA4
  6
DURCHGEHEND
 66
     1
 10
0.0
 20
0.0
 30
0.0
 70
   129
1001
ACAD
1000
TCW40_DEV_WIDTH
1002
{
1040
-3.0
1002
}
  0
VERTEX
  5
66B
  8
KERA4
  6
DURCHGEHEND
 10
-1973.8077835578799
 20
2779.6810247087319
 30
0.0
  0
VERTEX
  5
66C
  8
KERA4
  6
DURCHGEHEND
 10
-1980.3077835578811
 20
2729.6810247087319
 30
0.0
  0
VERTEX
  5
66D
  8
KERA4
  6
DURCHGEHEND
 10
-1967.3077835578799
 20
2729.6810247087319
 30
0.0
  0
SEQEND
  5
66E
  8
KERA4
  6
DURCHGEHEND
  0
INSERT
  5
E4
  8
KERA4
  6
CONTINUOUS
  2
*U34
 10
0.0
 20
0.0
 30
0.0
1001
ACAD
1002
{
1000
R14_HATCH_DATA
1000
E4
1011
1.0
1021
0.0
1031
0.0
1021
0.0
1031
0.0
1011
0.0
1021
0.0
1031
0.0
1021
1.0
1031
0.0
1011
0.0
1021
0.0
1031
0.0
1021
0.0
1031
1.0
1040
0.0
1010
0.0
1020
0.0
1030
1.0
1000
SOLID
1070
     1
1070
     1
1071
        1
1071
        3
1070
     0
1070
     1
1071
        3
1040
-1973.8077835578799
1040
2779.6810247087319
1040
-1980.3077835578811
1040
2729.6810247087319
1040
-1967.3077835578799
1040
2729.6810247087319
1071
        1
1005
E5
1070
     0
1070
     0
1071
        0
1002
}
  0
POLYLINE
  5
E7
  8
KERA4
  6
DURCHGEHEND
 66
     1
 10
0.0
 20
0.0
 30
0.0
 70
   129
1001
ACAD
1000
TCW40_DEV_WIDTH
1002
{
1040
-3.0
1002
}
  0
VERTEX
  5
675
  8
KERA4
  6
DURCHGEHEND
 10
-1973.8077835578799
 20
2429.6810247087142
 30
0.0
  0
VERTEX
  5
676
  8
KERA4
  6
DURCHGEHEND
 10
-1967.3077835578799
 20
2479.6810247087128
 30
0.0
  0
VERTEX
  5
677
  8
KERA4
  6
DURCHGEHEND
 10
-1980.3077835578811
 20
2479.6810247087128
 30
0.0
  0
SEQEND
  5
678
  8
KERA4
  6
DURCHGEHEND
  0
INSERT
  5
E6
  8
KERA4
  6
CONTINUOUS
  2
*U35
 10
0.0
 20
0.0
 30
0.0
1001
ACAD
1002
{
1000
R14_HATCH_DATA
1000
E6
1011
1.0
1021
0.0
1031
0.0
1021
0.0
1031
0.0
1011
0.0
1021
0.0
1031
0.0
1021
1.0
1031
0.0
1011
0.0
1021
0.0
1031
0.0
1021
0.0
1031
1.0
1040
0.0
1010
0.0
1020
0.0
1030
1.0
1000
SOLID
1070
     1
1070
     1
1071
        1
1071
        3
1070
     0
1070
     1
1071
        3
1040
-1973.8077835578799
1040
2429.6810247087142
1040
-1967.3077835578799
1040
2479.6810247087128
1040
-1980.3077835578811
1040
2479.6810247087128
1071
        1
1005
E7
1070
     0
1070
     0
1071
        0
1002
}
  0
INSERT
  5
E8
  8
0
  6
CONTINUOUS
 62
     7
  2
*U36
 10
0.0
 20
0.0
 30
0.0
  0
ENDBLK
  5
E9
  8
0
  0
BLOCK
  8
0
  2
*D6
 70
     1
 10
0.0
 20
0.0
 30
0.0
  3
*D6
  1

  0
LINE
  5
ED
  8
KERA4
  6
DURCHGEHEND
 10
-1841.2653852580199
 20
2924.681024708761
 30
0.0
 11
-1988.8077835578799
 21
2924.681024708761
 31
0.0
1001
ACAD
1000
TCW40_DEV_WIDTH
1002
{
1040
-3.0
1002
}
  0
LINE
  5
EE
  8
KERA4
  6
DURCHGEHEND
 10
-1715.2653852580261
 20
2779.6810247087319
 30
0.0
 11
-1988.8077835578799
 21
2779.6810247087319
 31
0.0
1001
ACAD
1000
TCW40_DEV_WIDTH
1002
{
1040
-3.0
1002
}
  0
POLYLINE
  5
EF
  8
KERA4
  6
DURCHGEHEND
 66
     1
 10
0.0
 20
0.0
 30
0.0
 70
   128
1001
ACAD
1000
TCW40_DEV_WIDTH
1002
{
1040
-3.0
1002
}
  0
VERTEX
  5
67D
  8
KERA4
  6
DURCHGEHEND
 10
-1973.8077835578799
 20
3024.6810247087601
 30
0.0
  0
VERTEX
  5
67E
  8
KERA4
  6
DURCHGEHEND
 10
-1973.8077835578799
 20
2974.681024708761
 30
0.0
  0
SEQEND
  5
67F
  8
KERA4
  6
DURCHGEHEND
  0
POLYLINE
  5
F0
  8
KERA4
  6
DURCHGEHEND
 66
     1
 10
0.0
 20
0.0
 30
0.0
1001
ACAD
1000
TCW40_DEV_WIDTH
1002
{
1040
-3.0
1002
}
  0
VERTEX
  5
680
  8
KERA4
  6
DURCHGEHEND
 10
-1973.8077835578799
 20
2924.681024708761
 30
0.0
  0
VERTEX
  5
681
  8
KERA4
  6
DURCHGEHEND
 10
-1973.8077835578799
 20
2924.681024708761
 30
0.0
  0
SEQEND
  5
682
  8
KERA4
  6
DURCHGEHEND
  0
POLYLINE
  5
F1
  8
KERA4
  6
DURCHGEHEND
 66
     1
 10
0.0
 20
0.0
 30
0.0
 70
   128
1001
ACAD
1000
TCW40_DEV_WIDTH
1002
{
1040
-3.0
1002
}
  0
VERTEX
  5
683
  8
KERA4
  6
DURCHGEHEND
 10
-1973.8077835578799
 20
2679.681024708731
 30
0.0
  0
VERTEX
  5
684
  8
KERA4
  6
DURCHGEHEND
 10
-1973.8077835578799
 20
2729.6810247087319
 30
0.0
  0
SEQEND
  5
685
  8
KERA4
  6
DURCHGEHEND
  0
POLYLINE
  5
F2
  8
KERA4
  6
DURCHGEHEND
 66
     1
 10
0.0
 20
0.0
 30
0.0
1001
ACAD
1000
TCW40_DEV_WIDTH
1002
{
1040
-3.0
1002
}
  0
VERTEX
  5
686
  8
KERA4
  6
DURCHGEHEND
 10
-1973.8077835578799
 20
2779.6810247087319
 30
0.0
  0
VERTEX
  5
687
  8
KERA4
  6
DURCHGEHEND
 10
-1973.8077835578799
 20
2779.6810247087319
 30
0.0
  0
SEQEND
  5
688
  8
KERA4
  6
DURCHGEHEND
  0
POLYLINE
  5
F4
  8
KERA4
  6
DURCHGEHEND
 66
     1
 10
0.0
 20
0.0
 30
0.0
 70
   129
1001
ACAD
1000
TCW40_DEV_WIDTH
1002
{
1040
-3.0
1002
}
  0
VERTEX
  5
68F
  8
KERA4
  6
DURCHGEHEND
 10
-1973.8077835578799
 20
2779.6810247087319
 30
0.0
  0
VERTEX
  5
690
  8
KERA4
  6
DURCHGEHEND
 10
-1980.3077835578811
 20
2729.6810247087319
 30
0.0
  0
VERTEX
  5
691
  8
KERA4
  6
DURCHGEHEND
 10
-1967.3077835578799
 20
2729.6810247087319
 30
0.0
  0
SEQEND
  5
692
  8
KERA4
  6
DURCHGEHEND
  0
INSERT
  5
F3
  8
KERA4
  6
CONTINUOUS
  2
*U37
 10
0.0
 20
0.0
 30
0.0
1001
ACAD
1002
{
1000
R14_HATCH_DATA
1000
F3
1011
1.0
1021
0.0
1031
0.0
1021
0.0
1031
0.0
1011
0.0
1021
0.0
1031
0.0
1021
1.0
1031
0.0
1011
0.0
1021
0.0
1031
0.0
1021
0.0
1031
1.0
1040
0.0
1010
0.0
1020
0.0
1030
1.0
1000
SOLID
1070
     1
1070
     1
1071
        1
1071
        3
1070
     0
1070
     1
1071
        3
1040
-1973.8077835578799
1040
2779.6810247087319
1040
-1980.3077835578811
1040
2729.6810247087319
1040
-1967.3077835578799
1040
2729.6810247087319
1071
        1
1005
F4
1070
     0
1070
     0
1071
        0
1002
}
  0
POLYLINE
  5
F6
  8
KERA4
  6
DURCHGEHEND
 66
     1
 10
0.0
 20
0.0
 30
0.0
 70
   129
1001
ACAD
1000
TCW40_DEV_WIDTH
1002
{
1040
-3.0
1002
}
  0
VERTEX
  5
699
  8
KERA4
  6
DURCHGEHEND
 10
-1973.8077835578799
 20
2924.681024708761
 30
0.0
  0
VERTEX
  5
69A
  8
KERA4
  6
DURCHGEHEND
 10
-1967.3077835578799
 20
2974.681024708761
 30
0.0
  0
VERTEX
  5
69B
  8
KERA4
  6
DURCHGEHEND
 10
-1980.3077835578811
 20
2974.681024708761
 30
0.0
  0
SEQEND
  5
69C
  8
KERA4
  6
DURCHGEHEND
  0
INSERT
  5
F5
  8
KERA4
  6
CONTINUOUS
  2
*U38
 10
0.0
 20
0.0
 30
0.0
1001
ACAD
1002
{
1000
R14_HATCH_DATA
1000
F5
1011
1.0
1021
0.0
1031
0.0
1021
0.0
1031
0.0
1011
0.0
1021
0.0
1031
0.0
1021
1.0
1031
0.0
1011
0.0
1021
0.0
1031
0.0
1021
0.0
1031
1.0
1040
0.0
1010
0.0
1020
0.0
1030
1.0
1000
SOLID
1070
     1
1070
     1
1071
        1
1071
        3
1070
     0
1070
     1
1071
        3
1040
-1973.8077835578799
1040
2924.681024708761
1040
-1967.3077835578799
1040
2974.681024708761
1040
-1980.3077835578811
1040
2974.681024708761
1071
        1
1005
F6
1070
     0
1070
     0
1071
        0
1002
}
  0
INSERT
  5
F7
  8
0
  6
CONTINUOUS
 62
     7
  2
*U39
 10
0.0
 20
0.0
 30
0.0
  0
ENDBLK
  5
F8
  8
0
  0
BLOCK
  8
0
  2
*D7
 70
     1
 10
0.0
 20
0.0
 30
0.0
  3
*D7
  1

  0
LINE
  5
FC
  8
KERA4
  6
DURCHGEHEND
 10
-1710.265385258024
 20
2424.681024708791
 30
0.0
 11
-1710.265385258024
 21
2230.2056265972592
 31
0.0
1001
ACAD
1000
TCW40_DEV_WIDTH
1002
{
1040
-3.0
1002
}
  0
LINE
  5
FD
  8
KERA4
  6
DURCHGEHEND
 10
-1242.265385258024
 20
2424.681024708791
 30
0.0
 11
-1242.265385258024
 21
2230.2056265972592
 31
0.0
1001
ACAD
1000
TCW40_DEV_WIDTH
1002
{
1040
-3.0
1002
}
  0
POLYLINE
  5
FE
  8
KERA4
  6
DURCHGEHEND
 66
     1
 10
0.0
 20
0.0
 30
0.0
 70
   128
1001
ACAD
1000
TCW40_DEV_WIDTH
1002
{
1040
-3.0
1002
}
  0
VERTEX
  5
6A1
  8
KERA4
  6
DURCHGEHEND
 10
-1660.265385258024
 20
2245.2056265972592
 30
0.0
  0
VERTEX
  5
6A2
  8
KERA4
  6
DURCHGEHEND
 10
-1660.265385258024
 20
2245.2056265972592
 30
0.0
  0
VERTEX
  5
6A3
  8
KERA4
  6
DURCHGEHEND
 10
-1660.265385258024
 20
2245.2056265972592
 30
0.0
  0
VERTEX
  5
6A4
  8
KERA4
  6
DURCHGEHEND
 10
-1534.674439300795
 20
2245.2056265972592
 30
0.0
  0
SEQEND
  5
6A5
  8
KERA4
  6
DURCHGEHEND
  0
POLYLINE
  5
FF
  8
KERA4
  6
DURCHGEHEND
 66
     1
 10
0.0
 20
0.0
 30
0.0
 70
   128
1001
ACAD
1000
TCW40_DEV_WIDTH
1002
{
1040
-3.0
1002
}
  0
VERTEX
  5
6A6
  8
KERA4
  6
DURCHGEHEND
 10
-1292.265385258024
 20
2245.2056265972592
 30
0.0
  0
VERTEX
  5
6A7
  8
KERA4
  6
DURCHGEHEND
 10
-1292.265385258024
 20
2245.2056265972592
 30
0.0
  0
VERTEX
  5
6A8
  8
KERA4
  6
DURCHGEHEND
 10
-1292.265385258024
 20
2245.2056265972592
 30
0.0
  0
VERTEX
  5
6A9
  8
KERA4
  6
DURCHGEHEND
 10
-1417.856331215253
 20
2245.2056265972592
 30
0.0
  0
SEQEND
  5
6AA
  8
KERA4
  6
DURCHGEHEND
  0
POLYLINE
  5
101
  8
KERA4
  6
DURCHGEHEND
 66
     1
 10
0.0
 20
0.0
 30
0.0
 70
   129
1001
ACAD
1000
TCW40_DEV_WIDTH
1002
{
1040
-3.0
1002
}
  0
VERTEX
  5
6B4
  8
KERA4
  6
DURCHGEHEND
 10
-1710.265385258024
 20
2245.2056265972592
 30
0.0
  0
VERTEX
  5
6B5
  8
KERA4
  6
DURCHGEHEND
 10
-1660.265385258024
 20
2238.7056265972592
 30
0.0
  0
VERTEX
  5
6B6
  8
KERA4
  6
DURCHGEHEND
 10
-1660.265385258024
 20
2251.7056265972592
 30
0.0
  0
SEQEND
  5
6B7
  8
KERA4
  6
DURCHGEHEND
  0
INSERT
  5
100
  8
KERA4
  6
CONTINUOUS
  2
*U40
 10
0.0
 20
0.0
 30
0.0
1001
ACAD
1002
{
1000
R14_HATCH_DATA
1000
100
1011
1.0
1021
0.0
1031
0.0
1021
0.0
1031
0.0
1011
0.0
1021
0.0
1031
0.0
1021
1.0
1031
0.0
1011
0.0
1021
0.0
1031
0.0
1021
0.0
1031
1.0
1040
0.0
1010
0.0
1020
0.0
1030
1.0
1000
SOLID
1070
     1
1070
     1
1071
        1
1071
        3
1070
     0
1070
     1
1071
        3
1040
-1710.265385258024
1040
2245.2056265972592
1040
-1660.265385258024
1040
2238.7056265972592
1040
-1660.265385258024
1040
2251.7056265972592
1071
        1
1005
101
1070
     0
1070
     0
1071
        0
1002
}
  0
POLYLINE
  5
103
  8
KERA4
  6
DURCHGEHEND
 66
     1
 10
0.0
 20
0.0
 30
0.0
 70
   129
1001
ACAD
1000
TCW40_DEV_WIDTH
1002
{
1040
-3.0
1002
}
  0
VERTEX
  5
6C1
  8
KERA4
  6
DURCHGEHEND
 10
-1242.265385258024
 20
2245.2056265972592
 30
0.0
  0
VERTEX
  5
6C2
  8
KERA4
  6
DURCHGEHEND
 10
-1292.265385258024
 20
2251.7056265972592
 30
0.0
  0
VERTEX
  5
6C3
  8
KERA4
  6
DURCHGEHEND
 10
-1292.265385258024
 20
2238.7056265972592
 30
0.0
  0
SEQEND
  5
6C4
  8
KERA4
  6
DURCHGEHEND
  0
INSERT
  5
102
  8
KERA4
  6
CONTINUOUS
  2
*U41
 10
0.0
 20
0.0
 30
0.0
1001
ACAD
1002
{
1000
R14_HATCH_DATA
1000
102
1011
1.0
1021
0.0
1031
0.0
1021
0.0
1031
0.0
1011
0.0
1021
0.0
1031
0.0
1021
1.0
1031
0.0
1011
0.0
1021
0.0
1031
0.0
1021
0.0
1031
1.0
1040
0.0
1010
0.0
1020
0.0
1030
1.0
1000
SOLID
1070
     1
1070
     1
1071
        1
1071
        3
1070
     0
1070
     1
1071
        3
1040
-1242.265385258024
1040
2245.2056265972592
1040
-1292.265385258024
1040
2251.7056265972592
1040
-1292.265385258024
1040
2238.7056265972592
1071
        1
1005
103
1070
     0
1070
     0
1071
        0
1002
}
  0
INSERT
  5
104
  8
0
  6
CONTINUOUS
 62
     7
  2
*U42
 10
0.0
 20
0.0
 30
0.0
  0
ENDBLK
  5
105
  8
0
  0
BLOCK
  8
0
  2
*D8
 70
     1
 10
0.0
 20
0.0
 30
0.0
  3
*D8
  1

  0
LINE
  5
117
  8
KERA4
  6
DURCHGEHEND
 10
-1826.2653852580199
 20
2939.681024708761
 30
0.0
 11
-1826.2653852580199
 21
3066.890305720432
 31
0.0
1001
ACAD
1000
TCW40_DEV_WIDTH
1002
{
1040
-3.0
1002
}
  0
LINE
  5
118
  8
KERA4
  6
DURCHGEHEND
 10
-1126.265385258029
 20
2939.681024708761
 30
0.0
 11
-1126.265385258029
 21
3066.890305720432
 31
0.0
1001
ACAD
1000
TCW40_DEV_WIDTH
1002
{
1040
-3.0
1002
}
  0
POLYLINE
  5
119
  8
KERA4
  6
DURCHGEHEND
 66
     1
 10
0.0
 20
0.0
 30
0.0
 70
   128
1001
ACAD
1000
TCW40_DEV_WIDTH
1002
{
1040
-3.0
1002
}
  0
VERTEX
  5
6D1
  8
KERA4
  6
DURCHGEHEND
 10
-1776.265385258019
 20
3051.890305720432
 30
0.0
  0
VERTEX
  5
6D2
  8
KERA4
  6
DURCHGEHEND
 10
-1776.265385258019
 20
3051.890305720432
 30
0.0
  0
VERTEX
  5
6D3
  8
KERA4
  6
DURCHGEHEND
 10
-1776.265385258019
 20
3051.890305720432
 30
0.0
  0
VERTEX
  5
6D4
  8
KERA4
  6
DURCHGEHEND
 10
-1534.6744393007959
 20
3051.890305720432
 30
0.0
  0
SEQEND
  5
6D5
  8
KERA4
  6
DURCHGEHEND
  0
POLYLINE
  5
11A
  8
KERA4
  6
DURCHGEHEND
 66
     1
 10
0.0
 20
0.0
 30
0.0
 70
   128
1001
ACAD
1000
TCW40_DEV_WIDTH
1002
{
1040
-3.0
1002
}
  0
VERTEX
  5
6D6
  8
KERA4
  6
DURCHGEHEND
 10
-1176.2653852580279
 20
3051.890305720432
 30
0.0
  0
VERTEX
  5
6D7
  8
KERA4
  6
DURCHGEHEND
 10
-1176.2653852580279
 20
3051.890305720432
 30
0.0
  0
VERTEX
  5
6D8
  8
KERA4
  6
DURCHGEHEND
 10
-1176.2653852580279
 20
3051.890305720432
 30
0.0
  0
VERTEX
  5
6D9
  8
KERA4
  6
DURCHGEHEND
 10
-1417.856331215253
 20
3051.890305720432
 30
0.0
  0
SEQEND
  5
6DA
  8
KERA4
  6
DURCHGEHEND
  0
POLYLINE
  5
11C
  8
KERA4
  6
DURCHGEHEND
 66
     1
 10
0.0
 20
0.0
 30
0.0
 70
   129
1001
ACAD
1000
TCW40_DEV_WIDTH
1002
{
1040
-3.0
1002
}
  0
VERTEX
  5
6E4
  8
KERA4
  6
DURCHGEHEND
 10
-1826.2653852580199
 20
3051.890305720432
 30
0.0
  0
VERTEX
  5
6E5
  8
KERA4
  6
DURCHGEHEND
 10
-1776.265385258019
 20
3045.3903057204311
 30
0.0
  0
VERTEX
  5
6E6
  8
KERA4
  6
DURCHGEHEND
 10
-1776.265385258019
 20
3058.390305720432
 30
0.0
  0
SEQEND
  5
6E7
  8
KERA4
  6
DURCHGEHEND
  0
INSERT
  5
11B
  8
KERA4
  6
CONTINUOUS
  2
*U45
 10
0.0
 20
0.0
 30
0.0
1001
ACAD
1002
{
1000
R14_HATCH_DATA
1000
11B
1011
1.0
1021
0.0
1031
0.0
1021
0.0
1031
0.0
1011
0.0
1021
0.0
1031
0.0
1021
1.0
1031
0.0
1011
0.0
1021
0.0
1031
0.0
1021
0.0
1031
1.0
1040
0.0
1010
0.0
1020
0.0
1030
1.0
1000
SOLID
1070
     1
1070
     1
1071
        1
1071
        3
1070
     0
1070
     1
1071
        3
1040
-1826.2653852580199
1040
3051.890305720432
1040
-1776.265385258019
1040
3045.3903057204311
1040
-1776.265385258019
1040
3058.390305720432
1071
        1
1005
11C
1070
     0
1070
     0
1071
        0
1002
}
  0
POLYLINE
  5
11E
  8
KERA4
  6
DURCHGEHEND
 66
     1
 10
0.0
 20
0.0
 30
0.0
 70
   129
1001
ACAD
1000
TCW40_DEV_WIDTH
1002
{
1040
-3.0
1002
}
  0
VERTEX
  5
6F1
  8
KERA4
  6
DURCHGEHEND
 10
-1126.265385258029
 20
3051.890305720432
 30
0.0
  0
VERTEX
  5
6F2
  8
KERA4
  6
DURCHGEHEND
 10
-1176.2653852580279
 20
3058.390305720432
 30
0.0
  0
VERTEX
  5
6F3
  8
KERA4
  6
DURCHGEHEND
 10
-1176.2653852580279
 20
3045.3903057204311
 30
0.0
  0
SEQEND
  5
6F4
  8
KERA4
  6
DURCHGEHEND
  0
INSERT
  5
11D
  8
KERA4
  6
CONTINUOUS
  2
*U46
 10
0.0
 20
0.0
 30
0.0
1001
ACAD
1002
{
1000
R14_HATCH_DATA
1000
11D
1011
1.0
1021
0.0
1031
0.0
1021
0.0
1031
0.0
1011
0.0
1021
0.0
1031
0.0
1021
1.0
1031
0.0
1011
0.0
1021
0.0
1031
0.0
1021
0.0
1031
1.0
1040
0.0
1010
0.0
1020
0.0
1030
1.0
1000
SOLID
1070
     1
1070
     1
1071
        1
1071
        3
1070
     0
1070
     1
1071
        3
1040
-1126.265385258029
1040
3051.890305720432
1040
-1176.2653852580279
1040
3058.390305720432
1040
-1176.2653852580279
1040
3045.3903057204311
1071
        1
1005
11E
1070
     0
1070
     0
1071
        0
1002
}
  0
INSERT
  5
11F
  8
0
  6
CONTINUOUS
 62
     7
  2
*U47
 10
0.0
 20
0.0
 30
0.0
  0
ENDBLK
  5
120
  8
0
  0
BLOCK
  8
0
 62
     7
  2
*D9
 70
     1
 10
0.0
 20
0.0
 30
0.0
  3
*D9
  1

  0
LINE
  5
523
  8
KERA4
  6
DURCHGEHEND
 10
380.34171447964809
 20
2117.8188307643331
 30
0.0
 11
614.677123687939
 21
2117.8188307643331
 31
0.0
  0
LINE
  5
524
  8
KERA4
  6
DURCHGEHEND
 10
202.50149949830529
 20
2003.221098943503
 30
0.0
 11
614.677123687939
 21
2003.221098943503
 31
0.0
  0
LINE
  5
525
  8
KERA4
  6
DURCHGEHEND
 10
599.67712368793889
 20
2167.8188307643331
 30
0.0
 11
599.67712368793889
 21
2217.8188307643331
 31
0.0
  0
LINE
  5
526
  8
KERA4
  6
DURCHGEHEND
 10
599.67712368793889
 20
1953.221098943503
 30
0.0
 11
599.67712368793889
 21
1903.221098943503
 31
0.0
  0
SOLID
  5
527
  8
KERA4
  6
DURCHGEHEND
 10
591.34379035460563
 20
2167.8188307643331
 30
0.0
 11
608.01045702127226
 21
2167.8188307643331
 31
0.0
 12
599.67712368793889
 22
2117.8188307643331
 32
0.0
 13
599.67712368793889
 23
2117.8188307643331
 33
0.0
  0
SOLID
  5
528
  8
KERA4
  6
DURCHGEHEND
 10
591.34379035460563
 20
1953.221098943503
 30
0.0
 11
608.01045702127226
 21
1953.221098943503
 31
0.0
 12
599.67712368793889
 22
2003.221098943503
 32
0.0
 13
599.67712368793889
 23
2003.221098943503
 33
0.0
  0
INSERT
  5
529
  8
0
  6
CONTINUOUS
 62
     7
  2
*U58
 10
0.0
 20
0.0
 30
0.0
  0
POINT
  5
52A
  8
DEFPOINTS
  6
DURCHGEHEND
 62
     0
 10
365.34171447964809
 20
2117.8188307643331
 30
0.0
  0
POINT
  5
52B
  8
DEFPOINTS
  6
DURCHGEHEND
 62
     0
 10
187.50149949830529
 20
2003.221098943503
 30
0.0
  0
POINT
  5
52C
  8
DEFPOINTS
  6
DURCHGEHEND
 62
     0
 10
599.67712368793889
 20
2003.221098943503
 30
0.0
  0
ENDBLK
  5
358
  8
0
 62
     7
  0
BLOCK
  8
0
 62
     7
  2
*D10
 70
     1
 10
0.0
 20
0.0
 30
0.0
  3
*D10
  1

  0
LINE
  5
52D
  8
KERA4
  6
DURCHGEHEND
 10
365.34171447964809
 20
2132.8188307643331
 30
0.0
 11
365.34171447964809
 21
2243.8076150544962
 31
0.0
  0
LINE
  5
52E
  8
KERA4
  6
DURCHGEHEND
 10
280.3128518382623
 20
2164.4933063696558
 30
0.0
 11
280.3128518382623
 21
2243.8076150544962
 31
0.0
  0
LINE
  5
52F
  8
KERA4
  6
DURCHGEHEND
 10
415.34171447964798
 20
2228.8076150544948
 30
0.0
 11
465.34171447964798
 21
2228.8076150544948
 31
0.0
  0
LINE
  5
530
  8
KERA4
  6
DURCHGEHEND
 10
230.3128518382623
 20
2228.8076150544948
 30
0.0
 11
180.3128518382623
 21
2228.8076150544948
 31
0.0
  0
SOLID
  5
531
  8
KERA4
  6
DURCHGEHEND
 10
415.34171447964798
 20
2237.1409483878292
 30
0.0
 11
415.34171447964798
 21
2220.4742817211632
 31
0.0
 12
365.34171447964809
 22
2228.8076150544948
 32
0.0
 13
365.34171447964809
 23
2228.8076150544948
 33
0.0
  0
SOLID
  5
532
  8
KERA4
  6
DURCHGEHEND
 10
230.3128518382623
 20
2237.1409483878292
 30
0.0
 11
230.3128518382623
 21
2220.4742817211632
 31
0.0
 12
280.3128518382623
 22
2228.8076150544948
 32
0.0
 13
280.3128518382623
 23
2228.8076150544948
 33
0.0
  0
INSERT
  5
533
  8
0
  6
CONTINUOUS
 62
     7
  2
*U59
 10
0.0
 20
0.0
 30
0.0
  0
POINT
  5
534
  8
DEFPOINTS
  6
DURCHGEHEND
 62
     0
 10
365.34171447964809
 20
2117.8188307643331
 30
0.0
  0
POINT
  5
535
  8
DEFPOINTS
  6
DURCHGEHEND
 62
     0
 10
280.3128518382623
 20
2149.4933063696558
 30
0.0
  0
POINT
  5
536
  8
DEFPOINTS
  6
DURCHGEHEND
 62
     0
 10
280.3128518382623
 20
2228.8076150544948
 30
0.0
  0
ENDBLK
  5
365
  8
0
 62
     7
  0
BLOCK
  8
0
 62
     7
  2
*D11
 70
     1
 10
0.0
 20
0.0
 30
0.0
  3
*D11
  1

  0
LINE
  5
537
  8
KERA4
  6
DURCHGEHEND
 10
220.34171447964849
 20
2120.0992705941949
 30
0.0
 11
220.3417144796486
 21
2355.442536820266
 31
0.0
  0
LINE
  5
538
  8
KERA4
  6
DURCHGEHEND
 10
-131.7309252622326
 20
2120.1708100509518
 30
0.0
 11
-131.7309252622326
 21
2355.442536820266
 31
0.0
  0
LINE
  5
539
  8
KERA4
  6
DURCHGEHEND
 10
170.3417144796486
 20
2340.4425368202651
 30
0.0
 11
107.4384096155292
 21
2340.4425368202651
 31
0.0
  0
LINE
  5
53A
  8
KERA4
  6
DURCHGEHEND
 10
-81.730925262232603
 20
2340.4425368202651
 30
0.0
 11
-18.8276203981133
 21
2340.4425368202651
 31
0.0
  0
SOLID
  5
53B
  8
KERA4
  6
DURCHGEHEND
 10
170.3417144796486
 20
2348.775870153599
 30
0.0
 11
170.3417144796486
 21
2332.1092034869321
 31
0.0
 12
220.3417144796486
 22
2340.4425368202651
 32
0.0
 13
220.3417144796486
 23
2340.4425368202651
 33
0.0
  0
SOLID
  5
53C
  8
KERA4
  6
DURCHGEHEND
 10
-81.730925262232603
 20
2348.775870153599
 30
0.0
 11
-81.730925262232603
 21
2332.1092034869321
 31
0.0
 12
-131.7309252622326
 22
2340.4425368202651
 32
0.0
 13
-131.7309252622326
 23
2340.4425368202651
 33
0.0
  0
INSERT
  5
53D
  8
0
  6
CONTINUOUS
 62
     7
  2
*U60
 10
0.0
 20
0.0
 30
0.0
  0
POINT
  5
53E
  8
DEFPOINTS
  6
DURCHGEHEND
 62
     0
 10
220.34171447964849
 20
2105.0992705941949
 30
0.0
  0
POINT
  5
53F
  8
DEFPOINTS
  6
DURCHGEHEND
 62
     0
 10
-131.7309252622326
 20
2105.1708100509518
 30
0.0
  0
POINT
  5
540
  8
DEFPOINTS
  6
DURCHGEHEND
 62
     0
 10
-131.7309252622326
 20
2340.4425368202651
 30
0.0
  0
ENDBLK
  5
372
  8
0
 62
     7
  0
BLOCK
  8
0
 62
     7
  2
*D12
 70
     1
 10
0.0
 20
0.0
 30
0.0
  3
*D12
  1

  0
LINE
  5
541
  8
KERA4
  6
DURCHGEHEND
 10
220.34171447964849
 20
2120.0992705941949
 30
0.0
 11
220.3417144796486
 21
2355.442536820266
 31
0.0
  0
LINE
  5
542
  8
KERA4
  6
DURCHGEHEND
 10
365.34171447964451
 20
2132.8188307643331
 30
0.0
 11
365.34171447964451
 21
2355.442536820266
 31
0.0
  0
LINE
  5
543
  8
KERA4
  6
DURCHGEHEND
 10
170.3417144796486
 20
2340.4425368202651
 30
0.0
 11
120.3417144796485
 21
2340.4425368202651
 31
0.0
  0
LINE
  5
544
  8
KERA4
  6
DURCHGEHEND
 10
415.34171447964439
 20
2340.4425368202651
 30
0.0
 11
465.34171447964439
 21
2340.4425368202651
 31
0.0
  0
SOLID
  5
545
  8
KERA4
  6
DURCHGEHEND
 10
170.3417144796486
 20
2348.775870153599
 30
0.0
 11
170.3417144796486
 21
2332.1092034869321
 31
0.0
 12
220.3417144796486
 22
2340.4425368202651
 32
0.0
 13
220.3417144796486
 23
2340.4425368202651
 33
0.0
  0
SOLID
  5
546
  8
KERA4
  6
DURCHGEHEND
 10
415.34171447964439
 20
2348.775870153599
 30
0.0
 11
415.34171447964439
 21
2332.1092034869321
 31
0.0
 12
365.34171447964451
 22
2340.4425368202651
 32
0.0
 13
365.34171447964451
 23
2340.4425368202651
 33
0.0
  0
INSERT
  5
547
  8
0
  6
CONTINUOUS
 62
     7
  2
*U61
 10
0.0
 20
0.0
 30
0.0
  0
POINT
  5
548
  8
DEFPOINTS
  6
DURCHGEHEND
 62
     0
 10
220.34171447964849
 20
2105.0992705941949
 30
0.0
  0
POINT
  5
549
  8
DEFPOINTS
  6
DURCHGEHEND
 62
     0
 10
365.34171447964451
 20
2117.8188307643331
 30
0.0
  0
POINT
  5
54A
  8
DEFPOINTS
  6
DURCHGEHEND
 62
     0
 10
365.34171447964451
 20
2340.4425368202651
 30
0.0
  0
ENDBLK
  5
37F
  8
0
 62
     7
  0
BLOCK
  8
0
 62
     7
  2
*D13
 70
     1
 10
0.0
 20
0.0
 30
0.0
  3
*D13
  1

  0
LINE
  5
54B
  8
KERA4
  6
DURCHGEHEND
 10
-131.7309252622326
 20
2120.1708100509518
 30
0.0
 11
-131.7309252622326
 21
2355.442536820266
 31
0.0
  0
LINE
  5
54C
  8
KERA4
  6
DURCHGEHEND
 10
-184.65828552035731
 20
2122.7692213566338
 30
0.0
 11
-184.65828552035731
 21
2355.442536820266
 31
0.0
  0
LINE
  5
54D
  8
KERA4
  6
DURCHGEHEND
 10
-81.730925262232603
 20
2340.4425368202651
 30
0.0
 11
-31.730925262232599
 21
2340.4425368202651
 31
0.0
  0
LINE
  5
54E
  8
KERA4
  6
DURCHGEHEND
 10
-234.65828552035731
 20
2340.4425368202651
 30
0.0
 11
-294.3003417737383
 21
2340.4425368202651
 31
0.0
  0
SOLID
  5
54F
  8
KERA4
  6
DURCHGEHEND
 10
-81.730925262232603
 20
2348.775870153599
 30
0.0
 11
-81.730925262232603
 21
2332.1092034869321
 31
0.0
 12
-131.7309252622326
 22
2340.4425368202651
 32
0.0
 13
-131.7309252622326
 23
2340.4425368202651
 33
0.0
  0
SOLID
  5
550
  8
KERA4
  6
DURCHGEHEND
 10
-234.65828552035731
 20
2348.775870153599
 30
0.0
 11
-234.65828552035731
 21
2332.1092034869321
 31
0.0
 12
-184.65828552035731
 22
2340.4425368202651
 32
0.0
 13
-184.65828552035731
 23
2340.4425368202651
 33
0.0
  0
INSERT
  5
551
  8
0
  6
CONTINUOUS
 62
     7
  2
*U62
 10
0.0
 20
0.0
 30
0.0
  0
POINT
  5
552
  8
DEFPOINTS
  6
DURCHGEHEND
 62
     0
 10
-131.7309252622326
 20
2105.1708100509518
 30
0.0
  0
POINT
  5
553
  8
DEFPOINTS
  6
DURCHGEHEND
 62
     0
 10
-184.65828552035731
 20
2107.7692213566352
 30
0.0
  0
POINT
  5
554
  8
DEFPOINTS
  6
DURCHGEHEND
 62
     0
 10
-184.65828552035731
 20
2340.4425368202651
 30
0.0
  0
ENDBLK
  5
38C
  8
0
 62
     7
  0
BLOCK
  8
0
 62
     7
  2
*D14
 70
     1
 10
0.0
 20
0.0
 30
0.0
  3
*D14
  1

  0
LINE
  5
555
  8
KERA4
  6
DURCHGEHEND
 10
365.34171447965173
 20
2007.8188307643341
 30
0.0
 11
365.34171447965173
 21
1767.5910841274299
 31
0.0
  0
LINE
  5
556
  8
KERA4
  6
DURCHGEHEND
 10
150.55123311915619
 20
1965.4803606022169
 30
0.0
 11
150.55123311915619
 21
1767.5910841274299
 31
0.0
  0
LINE
  5
557
  8
KERA4
  6
DURCHGEHEND
 10
415.34171447965173
 20
1782.5910841274299
 30
0.0
 11
465.34171447965173
 21
1782.5910841274299
 31
0.0
  0
LINE
  5
558
  8
KERA4
  6
DURCHGEHEND
 10
100.55123311915619
 20
1782.5910841274299
 30
0.0
 11
50.551233119156223
 21
1782.5910841274299
 31
0.0
  0
SOLID
  5
559
  8
KERA4
  6
DURCHGEHEND
 10
415.34171447965173
 20
1790.9244174607629
 30
0.0
 11
415.34171447965173
 21
1774.2577507940971
 31
0.0
 12
365.34171447965173
 22
1782.5910841274299
 32
0.0
 13
365.34171447965173
 23
1782.5910841274299
 33
0.0
  0
SOLID
  5
55A
  8
KERA4
  6
DURCHGEHEND
 10
100.55123311915619
 20
1790.9244174607629
 30
0.0
 11
100.55123311915619
 21
1774.2577507940971
 31
0.0
 12
150.55123311915619
 22
1782.5910841274299
 32
0.0
 13
150.55123311915619
 23
1782.5910841274299
 33
0.0
  0
INSERT
  5
55B
  8
0
  6
CONTINUOUS
 62
     7
  2
*U63
 10
0.0
 20
0.0
 30
0.0
  0
POINT
  5
55C
  8
DEFPOINTS
  6
DURCHGEHEND
 62
     0
 10
365.34171447965173
 20
2022.8188307643341
 30
0.0
  0
POINT
  5
55D
  8
DEFPOINTS
  6
DURCHGEHEND
 62
     0
 10
150.55123311915619
 20
1980.4803606022169
 30
0.0
  0
POINT
  5
55E
  8
DEFPOINTS
  6
DURCHGEHEND
 62
     0
 10
150.55123311915619
 20
1782.5910841274299
 30
0.0
  0
ENDBLK
  5
399
  8
0
 62
     7
  0
BLOCK
  8
0
 62
     7
  2
*D15
 70
     1
 10
0.0
 20
0.0
 30
0.0
  3
*D15
  1

  0
LINE
  5
55F
  8
KERA4
  6
DURCHGEHEND
 10
-199.65828552035731
 20
2107.7692213566352
 30
0.0
 11
-291.00060627909488
 21
2107.7692213566352
 31
0.0
  0
LINE
  5
560
  8
KERA4
  6
DURCHGEHEND
 10
134.62451569994391
 20
2022.154836207525
 30
0.0
 11
-291.00060627909488
 21
2022.154836207525
 31
0.0
  0
LINE
  5
561
  8
KERA4
  6
DURCHGEHEND
 10
-276.00060627909488
 20
2157.7692213566338
 30
0.0
 11
-276.00060627909482
 21
2207.7692213566352
 31
0.0
  0
LINE
  5
562
  8
KERA4
  6
DURCHGEHEND
 10
-276.00060627909488
 20
1972.154836207525
 30
0.0
 11
-276.00060627909488
 21
1922.154836207525
 31
0.0
  0
SOLID
  5
563
  8
KERA4
  6
DURCHGEHEND
 10
-284.3339396124282
 20
2157.7692213566338
 30
0.0
 11
-267.66727294576162
 21
2157.7692213566338
 31
0.0
 12
-276.00060627909488
 22
2107.7692213566352
 32
0.0
 13
-276.00060627909488
 23
2107.7692213566352
 33
0.0
  0
SOLID
  5
564
  8
KERA4
  6
DURCHGEHEND
 10
-284.3339396124282
 20
1972.154836207525
 30
0.0
 11
-267.66727294576162
 21
1972.154836207525
 31
0.0
 12
-276.00060627909488
 22
2022.154836207525
 32
0.0
 13
-276.00060627909488
 23
2022.154836207525
 33
0.0
  0
INSERT
  5
565
  8
0
  6
CONTINUOUS
 62
     7
  2
*U64
 10
0.0
 20
0.0
 30
0.0
  0
POINT
  5
566
  8
DEFPOINTS
  6
DURCHGEHEND
 62
     0
 10
-184.65828552035731
 20
2107.7692213566352
 30
0.0
  0
POINT
  5
567
  8
DEFPOINTS
  6
DURCHGEHEND
 62
     0
 10
149.62451569994391
 20
2022.154836207525
 30
0.0
  0
POINT
  5
568
  8
DEFPOINTS
  6
DURCHGEHEND
 62
     0
 10
-276.00060627909488
 20
2022.154836207525
 30
0.0
  0
ENDBLK
  5
3A6
  8
0
 62
     7
  0
BLOCK
  8
0
 62
     7
  2
*D16
 70
     1
 10
0.0
 20
0.0
 30
0.0
  3
*D16
  1

  0
LINE
  5
569
  8
KERA4
  6
DURCHGEHEND
 10
127.7120871566399
 20
1988.2266110999269
 30
0.0
 11
127.7120871566398
 21
1872.025067861395
 31
0.0
  0
LINE
  5
56A
  8
KERA4
  6
DURCHGEHEND
 10
173.39037908169621
 20
1988.221098943503
 30
0.0
 11
173.39037908169621
 21
1872.025067861395
 31
0.0
  0
LINE
  5
56B
  8
KERA4
  6
DURCHGEHEND
 10
223.39037908169621
 20
1887.025067861395
 30
0.0
 11
273.39037908169621
 21
1887.025067861395
 31
0.0
  0
LINE
  5
56C
  8
KERA4
  6
DURCHGEHEND
 10
77.712087156639868
 20
1887.025067861395
 30
0.0
 11
27.7120871566399
 21
1887.025067861395
 31
0.0
  0
SOLID
  5
56D
  8
KERA4
  6
DURCHGEHEND
 10
223.39037908169621
 20
1895.358401194728
 30
0.0
 11
223.39037908169621
 21
1878.691734528061
 31
0.0
 12
173.39037908169621
 22
1887.025067861395
 32
0.0
 13
173.39037908169621
 23
1887.025067861395
 33
0.0
  0
SOLID
  5
56E
  8
KERA4
  6
DURCHGEHEND
 10
77.712087156639868
 20
1895.358401194728
 30
0.0
 11
77.712087156639868
 21
1878.691734528061
 31
0.0
 12
127.7120871566398
 22
1887.025067861395
 32
0.0
 13
127.7120871566398
 23
1887.025067861395
 33
0.0
  0
INSERT
  5
56F
  8
0
  6
CONTINUOUS
 62
     7
  2
*U65
 10
0.0
 20
0.0
 30
0.0
  0
POINT
  5
570
  8
DEFPOINTS
  6
DURCHGEHEND
 62
     0
 10
127.7120871566399
 20
2003.2266110999269
 30
0.0
  0
POINT
  5
571
  8
DEFPOINTS
  6
DURCHGEHEND
 62
     0
 10
173.39037908169621
 20
2003.221098943503
 30
0.0
  0
POINT
  5
572
  8
DEFPOINTS
  6
DURCHGEHEND
 62
     0
 10
173.39037908169621
 20
1887.025067861395
 30
0.0
  0
ENDBLK
  5
3B3
  8
0
 62
     7
  0
BLOCK
  8
0
 62
     7
  2
*D17
 70
     1
 10
0.0
 20
0.0
 30
0.0
  3
*D17
  1

  0
LINE
  5
4F1
  8
KERA4
  6
DURCHGEHEND
 10
-1066.3573737081019
 20
1787.478849133927
 30
0.0
 11
-812.16684606435285
 21
1787.478849133927
 31
0.0
  0
LINE
  5
4F2
  8
KERA4
  6
DURCHGEHEND
 10
-1071.3573737080951
 20
1237.478849133857
 30
0.0
 11
-812.16684606435297
 21
1237.478849133857
 31
0.0
  0
LINE
  5
4F3
  8
KERA4
  6
DURCHGEHEND
 10
-827.16684606435285
 20
1737.478849133927
 30
0.0
 11
-827.16684606435285
 21
1546.007498519976
 31
0.0
  0
LINE
  5
4F4
  8
KERA4
  6
DURCHGEHEND
 10
-827.16684606435285
 20
1287.478849133857
 30
0.0
 11
-827.16684606435285
 21
1478.9501997478069
 31
0.0
  0
SOLID
  5
4F5
  8
KERA4
  6
DURCHGEHEND
 10
-835.50017939768622
 20
1737.478849133927
 30
0.0
 11
-818.83351273101937
 21
1737.478849133927
 31
0.0
 12
-827.16684606435285
 22
1787.478849133927
 32
0.0
 13
-827.16684606435285
 23
1787.478849133927
 33
0.0
  0
SOLID
  5
4F6
  8
KERA4
  6
DURCHGEHEND
 10
-835.50017939768622
 20
1287.478849133857
 30
0.0
 11
-818.83351273101937
 21
1287.478849133857
 31
0.0
 12
-827.16684606435297
 22
1237.478849133857
 32
0.0
 13
-827.16684606435297
 23
1237.478849133857
 33
0.0
  0
INSERT
  5
4F7
  8
0
  6
CONTINUOUS
 62
     7
  2
*U53
 10
0.0
 20
0.0
 30
0.0
  0
POINT
  5
4F8
  8
DEFPOINTS
  6
DURCHGEHEND
 62
     0
 10
-1081.3573737081019
 20
1787.478849133927
 30
0.0
  0
POINT
  5
4F9
  8
DEFPOINTS
  6
DURCHGEHEND
 62
     0
 10
-1086.3573737080951
 20
1237.478849133857
 30
0.0
  0
POINT
  5
4FA
  8
DEFPOINTS
  6
DURCHGEHEND
 62
     0
 10
-827.16684606435297
 20
1237.478849133857
 30
0.0
  0
ENDBLK
  5
4B2
  8
0
 62
     7
  0
BLOCK
  8
0
 62
     7
  2
*D18
 70
     1
 10
0.0
 20
0.0
 30
0.0
  3
*D18
  1

  0
LINE
  5
4FB
  8
KERA4
  6
DURCHGEHEND
 10
-1670.357373708099
 20
1642.478849133897
 30
0.0
 11
-1943.899772007954
 21
1642.478849133897
 31
0.0
  0
LINE
  5
4FC
  8
KERA4
  6
DURCHGEHEND
 10
-1670.357373708099
 20
1292.4788491338791
 30
0.0
 11
-1943.899772007954
 21
1292.4788491338791
 31
0.0
  0
LINE
  5
4FD
  8
KERA4
  6
DURCHGEHEND
 10
-1928.899772007954
 20
1592.4788491338979
 30
0.0
 11
-1928.899772007954
 21
1501.0245517259759
 31
0.0
  0
LINE
  5
4FE
  8
KERA4
  6
DURCHGEHEND
 10
-1928.899772007954
 20
1342.4788491338791
 30
0.0
 11
-1928.899772007954
 21
1433.9331465418011
 31
0.0
  0
SOLID
  5
4FF
  8
KERA4
  6
DURCHGEHEND
 10
-1937.233105341287
 20
1592.4788491338979
 30
0.0
 11
-1920.56643867462
 21
1592.4788491338979
 31
0.0
 12
-1928.899772007954
 22
1642.478849133897
 32
0.0
 13
-1928.899772007954
 23
1642.478849133897
 33
0.0
  0
SOLID
  5
500
  8
KERA4
  6
DURCHGEHEND
 10
-1937.233105341287
 20
1342.4788491338791
 30
0.0
 11
-1920.5664386746209
 21
1342.4788491338791
 31
0.0
 12
-1928.899772007954
 22
1292.4788491338791
 32
0.0
 13
-1928.899772007954
 23
1292.4788491338791
 33
0.0
  0
INSERT
  5
501
  8
0
  6
CONTINUOUS
 62
     7
  2
*U54
 10
0.0
 20
0.0
 30
0.0
  0
POINT
  5
502
  8
DEFPOINTS
  6
DURCHGEHEND
 62
     0
 10
-1655.357373708099
 20
1642.478849133897
 30
0.0
  0
POINT
  5
503
  8
DEFPOINTS
  6
DURCHGEHEND
 62
     0
 10
-1655.357373708099
 20
1292.4788491338791
 30
0.0
  0
POINT
  5
504
  8
DEFPOINTS
  6
DURCHGEHEND
 62
     0
 10
-1928.899772007954
 20
1292.4788491338791
 30
0.0
  0
ENDBLK
  5
4BF
  8
0
 62
     7
  0
BLOCK
  8
0
 62
     7
  2
*D19
 70
     1
 10
0.0
 20
0.0
 30
0.0
  3
*D19
  1

  0
LINE
  5
505
  8
KERA4
  6
DURCHGEHEND
 10
-1796.3573737080931
 20
1787.478849133927
 30
0.0
 11
-1943.899772007954
 21
1787.478849133927
 31
0.0
  0
LINE
  5
506
  8
KERA4
  6
DURCHGEHEND
 10
-1670.357373708099
 20
1642.478849133897
 30
0.0
 11
-1943.899772007954
 21
1642.478849133897
 31
0.0
  0
LINE
  5
507
  8
KERA4
  6
DURCHGEHEND
 10
-1928.899772007954
 20
1837.478849133927
 30
0.0
 11
-1928.899772007954
 21
1887.478849133927
 31
0.0
  0
LINE
  5
508
  8
KERA4
  6
DURCHGEHEND
 10
-1928.899772007954
 20
1592.4788491338979
 30
0.0
 11
-1928.899772007954
 21
1542.4788491338979
 31
0.0
  0
SOLID
  5
509
  8
KERA4
  6
DURCHGEHEND
 10
-1937.233105341287
 20
1837.478849133927
 30
0.0
 11
-1920.5664386746209
 21
1837.478849133927
 31
0.0
 12
-1928.899772007954
 22
1787.478849133927
 32
0.0
 13
-1928.899772007954
 23
1787.478849133927
 33
0.0
  0
SOLID
  5
50A
  8
KERA4
  6
DURCHGEHEND
 10
-1937.233105341287
 20
1592.4788491338979
 30
0.0
 11
-1920.5664386746209
 21
1592.4788491338979
 31
0.0
 12
-1928.899772007954
 22
1642.478849133897
 32
0.0
 13
-1928.899772007954
 23
1642.478849133897
 33
0.0
  0
INSERT
  5
50B
  8
0
  6
CONTINUOUS
 62
     7
  2
*U55
 10
0.0
 20
0.0
 30
0.0
  0
POINT
  5
50C
  8
DEFPOINTS
  6
DURCHGEHEND
 62
     0
 10
-1781.3573737080931
 20
1787.478849133927
 30
0.0
  0
POINT
  5
50D
  8
DEFPOINTS
  6
DURCHGEHEND
 62
     0
 10
-1655.357373708099
 20
1642.478849133897
 30
0.0
  0
POINT
  5
50E
  8
DEFPOINTS
  6
DURCHGEHEND
 62
     0
 10
-1928.899772007954
 20
1642.478849133897
 30
0.0
  0
ENDBLK
  5
4CC
  8
0
 62
     7
  0
BLOCK
  8
0
 62
     7
  2
*D20
 70
     1
 10
0.0
 20
0.0
 30
0.0
  3
*D20
  1

  0
LINE
  5
50F
  8
KERA4
  6
DURCHGEHEND
 10
-1665.3573737080969
 20
1287.478849133958
 30
0.0
 11
-1665.3573737080969
 21
1093.003451022425
 31
0.0
  0
LINE
  5
510
  8
KERA4
  6
DURCHGEHEND
 10
-1197.3573737080969
 20
1287.478849133958
 30
0.0
 11
-1197.3573737080969
 21
1093.003451022425
 31
0.0
  0
LINE
  5
511
  8
KERA4
  6
DURCHGEHEND
 10
-1615.3573737080969
 20
1108.003451022425
 30
0.0
 11
-1495.6500067231041
 21
1108.003451022425
 31
0.0
  0
LINE
  5
512
  8
KERA4
  6
DURCHGEHEND
 10
-1247.3573737080969
 20
1108.003451022425
 30
0.0
 11
-1367.06474069309
 21
1108.003451022425
 31
0.0
  0
SOLID
  5
513
  8
KERA4
  6
DURCHGEHEND
 10
-1615.3573737080969
 20
1116.336784355758
 30
0.0
 11
-1615.3573737080969
 21
1099.6701176890911
 31
0.0
 12
-1665.3573737080969
 22
1108.003451022425
 32
0.0
 13
-1665.3573737080969
 23
1108.003451022425
 33
0.0
  0
SOLID
  5
514
  8
KERA4
  6
DURCHGEHEND
 10
-1247.3573737080969
 20
1116.336784355758
 30
0.0
 11
-1247.3573737080969
 21
1099.6701176890911
 31
0.0
 12
-1197.3573737080969
 22
1108.003451022425
 32
0.0
 13
-1197.3573737080969
 23
1108.003451022425
 33
0.0
  0
INSERT
  5
515
  8
0
  6
CONTINUOUS
 62
     7
  2
*U56
 10
0.0
 20
0.0
 30
0.0
  0
POINT
  5
516
  8
DEFPOINTS
  6
DURCHGEHEND
 62
     0
 10
-1665.3573737080969
 20
1302.478849133958
 30
0.0
  0
POINT
  5
517
  8
DEFPOINTS
  6
DURCHGEHEND
 62
     0
 10
-1197.3573737080969
 20
1302.478849133958
 30
0.0
  0
POINT
  5
518
  8
DEFPOINTS
  6
DURCHGEHEND
 62
     0
 10
-1197.3573737080969
 20
1108.003451022425
 30
0.0
  0
ENDBLK
  5
4D9
  8
0
 62
     7
  0
BLOCK
  8
0
 62
     7
  2
*D21
 70
     1
 10
0.0
 20
0.0
 30
0.0
  3
*D21
  1

  0
LINE
  5
519
  8
0
  6
DURCHGEHEND
 10
-1733.057043980074
 20
1793.443973957658
 30
0.0
 11
-1733.057043980074
 21
1953.256244540331
 31
0.0
  0
LINE
  5
51A
  8
0
  6
DURCHGEHEND
 10
-1134.5876444877199
 20
1793.443973957658
 30
0.0
 11
-1134.5876444877199
 21
1953.256244540331
 31
0.0
  0
LINE
  5
51B
  8
0
  6
DURCHGEHEND
 10
-1683.057043980074
 20
1938.256244540331
 30
0.0
 11
-1497.1088380947431
 21
1938.256244540331
 31
0.0
  0
LINE
  5
51C
  8
0
  6
DURCHGEHEND
 10
-1184.5876444877199
 20
1938.256244540331
 30
0.0
 11
-1370.5358503730511
 21
1938.256244540331
 31
0.0
  0
SOLID
  5
51D
  8
0
  6
DURCHGEHEND
 10
-1683.057043980074
 20
1946.589577873664
 30
0.0
 11
-1683.057043980074
 21
1929.9229112069979
 31
0.0
 12
-1733.057043980074
 22
1938.256244540331
 32
0.0
 13
-1733.057043980074
 23
1938.256244540331
 33
0.0
  0
SOLID
  5
51E
  8
0
  6
DURCHGEHEND
 10
-1184.5876444877199
 20
1946.589577873664
 30
0.0
 11
-1184.5876444877199
 21
1929.9229112069979
 31
0.0
 12
-1134.5876444877199
 22
1938.256244540331
 32
0.0
 13
-1134.5876444877199
 23
1938.256244540331
 33
0.0
  0
INSERT
  5
51F
  8
0
  6
CONTINUOUS
 62
     7
  2
*U57
 10
0.0
 20
0.0
 30
0.0
  0
POINT
  5
520
  8
DEFPOINTS
  6
DURCHGEHEND
 62
     0
 10
-1733.057043980074
 20
1778.443973957658
 30
0.0
  0
POINT
  5
521
  8
DEFPOINTS
  6
DURCHGEHEND
 62
     0
 10
-1134.5876444877199
 20
1778.443973957658
 30
0.0
  0
POINT
  5
522
  8
DEFPOINTS
  6
DURCHGEHEND
 62
     0
 10
-1134.5876444877199
 20
1938.256244540331
 30
0.0
  0
ENDBLK
  5
4E6
  8
0
 62
     7
  0
BLOCK
  8
0
  2
DEFAULT2-G7
 70
     0
 10
0.0
 20
0.0
 30
0.0
  3
DEFAULT2-G7
  1

  0
TEXT
  5
5AE
  8
LAYER01
  6
VERDECKT
 62
     1
 10
3286.9151940000002
 20
511.13932199999999
 30
0.0
 40
14.0
  1
A. Sprenger GmbH
  7
SIMPLEX
  0
TEXT
  5
5AF
  8
LAYER01
  6
VERDECKT
 62
     1
 10
3286.9151940000002
 20
487.13932199999988
 30
0.0
 40
14.0
  1
Berner Str. 10
  7
SIMPLEX
  0
TEXT
  5
5B0
  8
LAYER01
  6
VERDECKT
 62
     1
 10
3286.9151940000002
 20
463.13932199999988
 30
0.0
 40
14.0
  1
60437 Frankfurt
  7
SIMPLEX
  0
TEXT
  5
5B1
  8
LAYER01
  6
VERDECKT
 62
     1
 10
3286.9151940000002
 20
439.13932199999999
 30
0.0
 40
14.0
  1
Tel.: 069 - 507 27 41
  7
SIMPLEX
  0
TEXT
  5
5B2
  8
LAYER01
  6
VERDECKT
 62
     1
 10
3286.9151940000002
 20
415.13932199999999
 30
0.0
 40
14.0
  1
Fax: 069 - 507 72 91
  7
SIMPLEX
  0
TEXT
  5
5B3
  8
LAYER01
  6
VERDECKT
 62
     1
 10
3286.9151940000002
 20
391.13932199999999
 30
0.0
 40
14.0
  1
info@varicor.org
  7
SIMPLEX
  0
ENDBLK
  5
5B4
  8
0
  0
BLOCK
  8
0
  2
DEFAULT2-G6
 70
     0
 10
0.0
 20
0.0
 30
0.0
  3
DEFAULT2-G6
  1

  0
TEXT
  5
5B7
  8
LAYER01
  6
CONTINUOUS
 62
     1
 10
4758.0610299999989
 20
182.02706000000001
 30
0.0
 40
14.0
  1
Blatt
  7
SIMPLEX
  0
LINE
  5
5B8
  8
LAYER01
  6
CONTINUOUS
 62
     1
 10
3267.0610300000021
 20
280.02706000000001
 30
0.0
 11
4107.0610299999989
 21
280.02706000000001
 31
0.0
  0
LINE
  5
5B9
  8
LAYER01
  6
CONTINUOUS
 62
     1
 10
3267.0610300000021
 20
245.02706000000001
 30
0.0
 11
4107.0610299999989
 21
245.02706000000001
 31
0.0
  0
LINE
  5
5BA
  8
LAYER01
  6
CONTINUOUS
 62
     1
 10
3267.0610300000021
 20
210.02706000000001
 30
0.0
 11
4849.0610299999998
 21
210.02706000000001
 31
0.0
  0
LINE
  5
5BB
  8
LAYER01
  6
CONTINUOUS
 62
     1
 10
3267.0610300000021
 20
105.02706000000001
 30
0.0
 11
4849.0610299999998
 21
105.02706000000001
 31
0.0
  0
LINE
  5
5BC
  8
LAYER01
  6
CONTINUOUS
 62
     1
 10
3267.0610300000021
 20
385.02706000000001
 30
0.0
 11
4849.0610299999998
 21
385.02706000000001
 31
0.0
  0
POLYLINE
  5
5BD
  8
LAYER01
  6
CONTINUOUS
 62
     1
 66
     1
 10
0.0
 20
0.0
 30
0.0
 70
     1
  0
VERTEX
  5
755
  8
LAYER01
  6
CONTINUOUS
 62
     1
 10
3267.0610300000021
 20
63.027059999999999
 30
0.0
  0
VERTEX
  5
756
  8
LAYER01
  6
CONTINUOUS
 62
     1
 10
3267.0610300000021
 20
532.02705999999978
 30
0.0
  0
VERTEX
  5
757
  8
LAYER01
  6
CONTINUOUS
 62
     1
 10
4849.0610299999998
 20
532.02705999999978
 30
0.0
  0
VERTEX
  5
758
  8
LAYER01
  6
CONTINUOUS
 62
     1
 10
4849.0610299999998
 20
63.027059999999999
 30
0.0
  0
SEQEND
  5
759
  8
LAYER01
  6
CONTINUOUS
 62
     1
  0
LINE
  5
5BE
  8
LAYER01
  6
CONTINUOUS
 62
     1
 10
3267.0610300000021
 20
350.02706000000001
 30
0.0
 11
4107.0610299999989
 21
350.02706000000001
 31
0.0
  0
LINE
  5
5BF
  8
LAYER01
  6
CONTINUOUS
 62
     1
 10
3267.0610300000021
 20
315.02706000000001
 30
0.0
 11
4107.0610299999989
 21
315.02706000000001
 31
0.0
  0
LINE
  5
5C0
  8
LAYER01
  6
CONTINUOUS
 62
     1
 10
3722.0610299999998
 20
532.02705999999978
 30
0.0
 11
3722.0610299999998
 21
63.027059999999999
 31
0.0
  0
INSERT
  5
5C1
  8
LAYER01
  2
DEFAULT2-G7
 10
0.0
 20
0.0
 30
0.0
  0
LINE
  5
5C2
  8
LAYER01
  6
CONTINUOUS
 62
     1
 10
3267.0610300000021
 20
140.02706000000001
 30
0.0
 11
3722.0610299999998
 21
140.02706000000001
 31
0.0
  0
LINE
  5
5C3
  8
LAYER01
  6
CONTINUOUS
 62
     1
 10
3267.0610300000021
 20
175.02706000000001
 30
0.0
 11
3722.0610299999998
 21
175.02706000000001
 31
0.0
  0
LINE
  5
5C4
  8
LAYER01
  6
CONTINUOUS
 62
     1
 10
3330.0610299999998
 20
385.02706000000001
 30
0.0
 11
3330.0610299999998
 21
63.027059999999999
 31
0.0
  0
TEXT
  5
5C5
  8
LAYER01
  6
CONTINUOUS
 62
     1
 10
3278.8200019999999
 20
77.027059999999977
 30
0.0
 40
13.300000000000001
  1
Zust
  7
SIMPLEX
  0
LINE
  5
5C6
  8
LAYER01
  6
CONTINUOUS
 62
     1
 10
3550.959492
 20
63.027059999999999
 30
0.0
 11
3550.959492
 21
385.02706000000001
 31
0.0
  0
LINE
  5
5C7
  8
LAYER01
  6
CONTINUOUS
 62
     1
 10
3659.0610299999998
 20
385.02706000000001
 30
0.0
 11
3659.0610299999998
 21
63.027059999999999
 31
0.0
  0
TEXT
  5
5C8
  8
LAYER01
  6
CONTINUOUS
 62
     1
 10
3391.8409890000021
 20
77.027059999999977
 30
0.0
 40
13.300000000000001
  1
Änderung
  7
SIMPLEX
  0
TEXT
  5
5C9
  8
LAYER01
  6
CONTINUOUS
 62
     1
 10
3570.6568330000018
 20
77.027059999999977
 30
0.0
 40
13.300000000000001
  1
Datum
  7
SIMPLEX
  0
TEXT
  5
5CA
  8
LAYER01
  6
CONTINUOUS
 62
     1
 10
3664.3304950000002
 20
77.027059999999977
 30
0.0
 40
13.300000000000001
  1
Name
  7
SIMPLEX
  0
LINE
  5
5CB
  8
LAYER01
  6
CONTINUOUS
 62
     1
 10
4849.0610299999998
 20
476.02705999999989
 30
0.0
 11
4107.0610299999989
 21
476.02705999999989
 31
0.0
  0
LINE
  5
5CC
  8
LAYER01
  6
CONTINUOUS
 62
     1
 10
3813.0610299999998
 20
245.02706000000001
 30
0.0
 11
3813.0610299999998
 21
385.02706000000001
 31
0.0
  0
TEXT
  5
5CD
  8
LAYER01
  6
CONTINUOUS
 62
     1
 10
3736.0610299999998
 20
322.02706000000001
 30
0.0
 40
14.0
  1
Bearb.
  7
SIMPLEX
  0
TEXT
  5
5CE
  8
LAYER01
  6
CONTINUOUS
 62
     1
 10
3736.0610299999998
 20
252.02706000000001
 30
0.0
 40
14.0
  1
Norm
  7
SIMPLEX
  0
TEXT
  5
5CF
  8
LAYER01
  6
CONTINUOUS
 62
     1
 10
3736.0610299999998
 20
287.02706000000001
 30
0.0
 40
14.0
  1
Gepr.
  7
SIMPLEX
  0
TEXT
  5
5D0
  8
LAYER01
  6
CONTINUOUS
 62
     1
 10
3848.0610299999998
 20
357.02706000000001
 30
0.0
 40
14.0
  1
Datum
  7
SIMPLEX
  0
TEXT
  5
5D1
  8
LAYER01
  6
CONTINUOUS
 62
     1
 10
3988.0610299999998
 20
357.02706000000001
 30
0.0
 40
14.0
  1
Name
  7
SIMPLEX
  0
TEXT
  5
5D2
  8
LAYER01
  6
CONTINUOUS
 62
     1
 10
4814.0610299999998
 20
112.02706000000001
 30
0.0
 40
14.0
  1
Bl.
  7
SIMPLEX
  0
LINE
  5
5D3
  8
LAYER01
  6
CONTINUOUS
 62
     1
 10
4107.0610299999989
 20
63.027059999999999
 30
0.0
 11
4107.0610299999989
 21
532.02705999999978
 31
0.0
  0
LINE
  5
5D4
  8
LAYER01
  6
CONTINUOUS
 62
     1
 10
3946.0610299999998
 20
210.02706000000001
 30
0.0
 11
3946.0610299999998
 21
532.02705999999978
 31
0.0
  0
LINE
  5
5D5
  8
LAYER01
  6
CONTINUOUS
 62
     1
 10
4548.0610299999998
 20
532.02705999999978
 30
0.0
 11
4548.0610299999998
 21
476.02705999999989
 31
0.0
  0
TEXT
  5
5D6
  8
LAYER01
  6
CONTINUOUS
 62
     1
 10
4122.3126300000004
 20
496.28505699999988
 30
0.0
 40
14.0
  1
Maßstab
  7
SIMPLEX
  0
LINE
  5
5D7
  8
LAYER01
  6
CONTINUOUS
 62
     1
 10
4744.0610299999998
 20
210.02706000000001
 30
0.0
 11
4744.0610299999998
 21
105.02706000000001
 31
0.0
  0
LINE
  5
5D8
  8
LAYER01
  6
CONTINUOUS
 62
     1
 10
4744.0610299999998
 20
140.02706000000001
 30
0.0
 11
4849.0610299999998
 21
140.02706000000001
 31
0.0
  0
ENDBLK
  5
5D9
  8
0
  0
BLOCK
  8
0
 62
     7
  2
WMF0
 70
     0
 10
0.0
 20
0.0
 30
0.0
  3
WMF0
  1

  0
POLYLINE
  5
5DC
  8
LAYER01
 62
     7
 66
     1
 10
0.0
 20
0.0
 30
0.0
 70
     1
  0
VERTEX
  5
75A
  8
LAYER01
 62
     7
 10
2458.2645046842372
 20
7351.0038575557674
 30
0.0
  0
VERTEX
  5
75B
  8
LAYER01
 62
     7
 10
2628.7570429123371
 20
7351.0038575557674
 30
0.0
  0
VERTEX
  5
75C
  8
LAYER01
 62
     7
 10
2842.8639513848352
 20
6863.3158993684092
 30
0.0
  0
VERTEX
  5
75D
  8
LAYER01
 62
     7
 10
3056.9708598573329
 20
7351.0038575557674
 30
0.0
  0
VERTEX
  5
75E
  8
LAYER01
 62
     7
 10
3235.3932835844162
 20
7351.0038575557674
 30
0.0
  0
VERTEX
  5
75F
  8
LAYER01
 62
     7
 10
2842.8639513848352
 20
6478.7164526678098
 30
0.0
  0
VERTEX
  5
760
  8
LAYER01
 62
     7
 10
2458.2645046842372
 20
7351.0038575557674
 30
0.0
  0
VERTEX
  5
761
  8
LAYER01
 62
     7
 10
2458.2645046842372
 20
7351.0038575557674
 30
0.0
  0
SEQEND
  5
762
  8
LAYER01
 62
     7
  0
POLYLINE
  5
5DD
  8
LAYER01
 62
     7
 66
     1
 10
0.0
 20
0.0
 30
0.0
 70
     1
  0
VERTEX
  5
763
  8
LAYER01
 62
     7
 10
3041.1110888593689
 20
6756.2624451321599
 30
0.0
  0
VERTEX
  5
764
  8
LAYER01
 62
     7
 10
3100.5852301017312
 20
6895.0354413643372
 30
0.0
  0
VERTEX
  5
765
  8
LAYER01
 62
     7
 10
3358.3065088186272
 20
6895.0354413643372
 30
0.0
  0
VERTEX
  5
766
  8
LAYER01
 62
     7
 10
3227.4633980854328
 20
7180.5113193276648
 30
0.0
  0
VERTEX
  5
767
  8
LAYER01
 62
     7
 10
3302.7973103257568
 20
7362.8986858042381
 30
0.0
  0
VERTEX
  5
768
  8
LAYER01
 62
     7
 10
3655.67721503043
 20
6617.4894488999853
 30
0.0
  0
VERTEX
  5
769
  8
LAYER01
 62
     7
 10
3655.67721503043
 20
7351.0038575557674
 30
0.0
  0
VERTEX
  5
76A
  8
LAYER01
 62
     7
 10
4127.5054022198219
 20
7351.0038575557674
 30
0.0
  0
VERTEX
  5
76B
  8
LAYER01
 62
     7
 10
4127.5054022198219
 20
7351.0038575557674
 30
0.0
  0
VERTEX
  5
76C
  8
LAYER01
 62
     7
 10
4171.1197724642188
 20
7343.0739720567844
 30
0.0
  0
VERTEX
  5
76D
  8
LAYER01
 62
     7
 10
4210.7691999591279
 20
7327.2142010588213
 30
0.0
  0
VERTEX
  5
76E
  8
LAYER01
 62
     7
 10
4246.4536847045429
 20
7299.4596018123866
 30
0.0
  0
VERTEX
  5
76F
  8
LAYER01
 62
     7
 10
4278.1732267004691
 20
7271.705002565951
 30
0.0
  0
VERTEX
  5
770
  8
LAYER01
 62
     7
 10
4305.9278259469047
 20
7236.0205178205333
 30
0.0
  0
VERTEX
  5
771
  8
LAYER01
 62
     7
 10
4325.7525396943593
 20
7196.3710903256278
 30
0.0
  0
VERTEX
  5
772
  8
LAYER01
 62
     7
 10
4341.6123106923224
 20
7148.7917773317413
 30
0.0
  0
VERTEX
  5
773
  8
LAYER01
 62
     7
 10
4345.577253441812
 20
7105.1774070873416
 30
0.0
  0
VERTEX
  5
774
  8
LAYER01
 62
     7
 10
4345.577253441812
 20
7105.1774070873416
 30
0.0
  0
VERTEX
  5
775
  8
LAYER01
 62
     7
 10
4345.577253441812
 20
7057.5980940934542
 30
0.0
  0
VERTEX
  5
776
  8
LAYER01
 62
     7
 10
4337.6473679428309
 20
7017.948666598546
 30
0.0
  0
VERTEX
  5
777
  8
LAYER01
 62
     7
 10
4321.7875969448678
 20
6978.2992391036396
 30
0.0
  0
VERTEX
  5
778
  8
LAYER01
 62
     7
 10
4301.9628831974142
 20
6942.6147543582238
 30
0.0
  0
VERTEX
  5
779
  8
LAYER01
 62
     7
 10
4274.2082839509794
 20
6910.8952123622976
 30
0.0
  0
VERTEX
  5
77A
  8
LAYER01
 62
     7
 10
4242.4887419550541
 20
6883.1406131158628
 30
0.0
  0
VERTEX
  5
77B
  8
LAYER01
 62
     7
 10
4206.8042572096356
 20
6863.3158993684092
 30
0.0
  0
VERTEX
  5
77C
  8
LAYER01
 62
     7
 10
4163.1898869652387
 20
6847.4561283704461
 30
0.0
  0
VERTEX
  5
77D
  8
LAYER01
 62
     7
 10
4416.9462229326446
 20
6510.4359946637369
 30
0.0
  0
VERTEX
  5
77E
  8
LAYER01
 62
     7
 10
4416.9462229326446
 20
7351.0038575557674
 30
0.0
  0
VERTEX
  5
77F
  8
LAYER01
 62
     7
 10
4583.4738184112539
 20
7351.0038575557674
 30
0.0
  0
VERTEX
  5
780
  8
LAYER01
 62
     7
 10
4583.4738184112539
 20
6502.5061091647531
 30
0.0
  0
VERTEX
  5
781
  8
LAYER01
 62
     7
 10
4226.628970957091
 20
6502.5061091647531
 30
0.0
  0
VERTEX
  5
782
  8
LAYER01
 62
     7
 10
3881.6789517513998
 20
6942.6147543582238
 30
0.0
  0
VERTEX
  5
783
  8
LAYER01
 62
     7
 10
4056.1364327289889
 20
6942.6147543582238
 30
0.0
  0
VERTEX
  5
784
  8
LAYER01
 62
     7
 10
4056.1364327289889
 20
6942.6147543582238
 30
0.0
  0
VERTEX
  5
785
  8
LAYER01
 62
     7
 10
4079.926089225934
 20
6946.5796971077143
 30
0.0
  0
VERTEX
  5
786
  8
LAYER01
 62
     7
 10
4103.7157457228786
 20
6954.5095826066963
 30
0.0
  0
VERTEX
  5
787
  8
LAYER01
 62
     7
 10
4123.5404594703332
 20
6966.4044108551689
 30
0.0
  0
VERTEX
  5
788
  8
LAYER01
 62
     7
 10
4143.3651732177859
 20
6982.264181853131
 30
0.0
  0
VERTEX
  5
789
  8
LAYER01
 62
     7
 10
4155.2600014662594
 20
7002.0888956005829
 30
0.0
  0
VERTEX
  5
78A
  8
LAYER01
 62
     7
 10
4167.1548297147283
 20
7025.878552097528
 30
0.0
  0
VERTEX
  5
78B
  8
LAYER01
 62
     7
 10
4175.0847152137121
 20
7049.6682085944713
 30
0.0
  0
VERTEX
  5
78C
  8
LAYER01
 62
     7
 10
4175.0847152137121
 20
7077.4228078409069
 30
0.0
  0
VERTEX
  5
78D
  8
LAYER01
 62
     7
 10
4175.0847152137121
 20
7077.4228078409069
 30
0.0
  0
VERTEX
  5
78E
  8
LAYER01
 62
     7
 10
4175.0847152137121
 20
7101.212464337852
 30
0.0
  0
VERTEX
  5
78F
  8
LAYER01
 62
     7
 10
4167.1548297147283
 20
7125.0021208347962
 30
0.0
  0
VERTEX
  5
790
  8
LAYER01
 62
     7
 10
4159.224944215749
 20
7148.7917773317413
 30
0.0
  0
VERTEX
  5
791
  8
LAYER01
 62
     7
 10
4143.3651732177859
 20
7168.6164910791931
 30
0.0
  0
VERTEX
  5
792
  8
LAYER01
 62
     7
 10
4127.5054022198219
 20
7184.4762620771562
 30
0.0
  0
VERTEX
  5
793
  8
LAYER01
 62
     7
 10
4103.7157457228786
 20
7196.3710903256278
 30
0.0
  0
VERTEX
  5
794
  8
LAYER01
 62
     7
 10
4079.926089225934
 20
7204.3009758246117
 30
0.0
  0
VERTEX
  5
795
  8
LAYER01
 62
     7
 10
4056.1364327289889
 20
7208.2659185741013
 30
0.0
  0
VERTEX
  5
796
  8
LAYER01
 62
     7
 10
3834.099638757511
 20
7208.2659185741013
 30
0.0
  0
VERTEX
  5
797
  8
LAYER01
 62
     7
 10
3834.099638757511
 20
6502.5061091647531
 30
0.0
  0
VERTEX
  5
798
  8
LAYER01
 62
     7
 10
3548.6237607941812
 20
6502.5061091647531
 30
0.0
  0
VERTEX
  5
799
  8
LAYER01
 62
     7
 10
3429.6754783094589
 20
6756.2624451321599
 30
0.0
  0
VERTEX
  5
79A
  8
LAYER01
 62
     7
 10
3041.1110888593689
 20
6756.2624451321599
 30
0.0
  0
VERTEX
  5
79B
  8
LAYER01
 62
     7
 10
3041.1110888593689
 20
6756.2624451321599
 30
0.0
  0
SEQEND
  5
79C
  8
LAYER01
 62
     7
  0
POLYLINE
  5
5DE
  8
LAYER01
 62
     7
 66
     1
 10
0.0
 20
0.0
 30
0.0
 70
     1
  0
VERTEX
  5
79D
  8
LAYER01
 62
     7
 10
5352.6727118124491
 20
7295.4946590628952
 30
0.0
  0
VERTEX
  5
79E
  8
LAYER01
 62
     7
 10
5245.6192575762007
 20
7160.6866055802111
 30
0.0
  0
VERTEX
  5
79F
  8
LAYER01
 62
     7
 10
5245.6192575762007
 20
7160.6866055802111
 30
0.0
  0
VERTEX
  5
7A0
  8
LAYER01
 62
     7
 10
5209.9347728307857
 20
7184.4762620771562
 30
0.0
  0
VERTEX
  5
7A1
  8
LAYER01
 62
     7
 10
5174.250288085369
 20
7204.3009758246117
 30
0.0
  0
VERTEX
  5
7A2
  8
LAYER01
 62
     7
 10
5134.6008605904626
 20
7216.1958040730824
 30
0.0
  0
VERTEX
  5
7A3
  8
LAYER01
 62
     7
 10
5090.9864903460648
 20
7216.1958040730824
 30
0.0
  0
VERTEX
  5
7A4
  8
LAYER01
 62
     7
 10
5090.9864903460648
 20
7216.1958040730824
 30
0.0
  0
VERTEX
  5
7A5
  8
LAYER01
 62
     7
 10
5063.2318910996291
 20
7216.1958040730824
 30
0.0
  0
VERTEX
  5
7A6
  8
LAYER01
 62
     7
 10
5035.4772918531944
 20
7212.2308613235928
 30
0.0
  0
VERTEX
  5
7A7
  8
LAYER01
 62
     7
 10
5007.7226926067578
 20
7204.3009758246117
 30
0.0
  0
VERTEX
  5
7A8
  8
LAYER01
 62
     7
 10
4979.9680933603249
 20
7192.4061475761382
 30
0.0
  0
VERTEX
  5
7A9
  8
LAYER01
 62
     7
 10
4956.1784368633807
 20
7180.5113193276648
 30
0.0
  0
VERTEX
  5
7AA
  8
LAYER01
 62
     7
 10
4936.3537231159271
 20
7164.6515483297017
 30
0.0
  0
VERTEX
  5
7AB
  8
LAYER01
 62
     7
 10
4912.5640666189829
 20
7148.7917773317413
 30
0.0
  0
VERTEX
  5
7AC
  8
LAYER01
 62
     7
 10
4896.7042956210198
 20
7128.9670635842867
 30
0.0
  0
VERTEX
  5
7AD
  8
LAYER01
 62
     7
 10
4876.8795818735662
 20
7105.1774070873416
 30
0.0
  0
VERTEX
  5
7AE
  8
LAYER01
 62
     7
 10
4864.9847536250936
 20
7081.3877505903993
 30
0.0
  0
VERTEX
  5
7AF
  8
LAYER01
 62
     7
 10
4849.1249826271314
 20
7057.5980940934542
 30
0.0
  0
VERTEX
  5
7B0
  8
LAYER01
 62
     7
 10
4837.2301543786589
 20
7033.8084375965091
 30
0.0
  0
VERTEX
  5
7B1
  8
LAYER01
 62
     7
 10
4829.3002688796769
 20
7006.0538383500743
 30
0.0
  0
VERTEX
  5
7B2
  8
LAYER01
 62
     7
 10
4825.3353261301863
 20
6978.2992391036396
 30
0.0
  0
VERTEX
  5
7B3
  8
LAYER01
 62
     7
 10
4821.3703833806958
 20
6950.5446398572049
 30
0.0
  0
VERTEX
  5
7B4
  8
LAYER01
 62
     7
 10
4817.4054406312061
 20
6918.8250978612787
 30
0.0
  0
VERTEX
  5
7B5
  8
LAYER01
 62
     7
 10
4817.4054406312061
 20
6918.8250978612787
 30
0.0
  0
VERTEX
  5
7B6
  8
LAYER01
 62
     7
 10
4821.3703833806958
 20
6891.0704986148439
 30
0.0
  0
VERTEX
  5
7B7
  8
LAYER01
 62
     7
 10
4825.3353261301863
 20
6863.3158993684092
 30
0.0
  0
VERTEX
  5
7B8
  8
LAYER01
 62
     7
 10
4829.3002688796769
 20
6835.5613001219772
 30
0.0
  0
VERTEX
  5
7B9
  8
LAYER01
 62
     7
 10
4841.1950971281503
 20
6811.7716436250303
 30
0.0
  0
VERTEX
  5
7BA
  8
LAYER01
 62
     7
 10
4849.1249826271314
 20
6787.9819871280861
 30
0.0
  0
VERTEX
  5
7BB
  8
LAYER01
 62
     7
 10
4864.9847536250936
 20
6764.1923306311428
 30
0.0
  0
VERTEX
  5
7BC
  8
LAYER01
 62
     7
 10
4880.8445246230567
 20
6740.4026741341977
 30
0.0
  0
VERTEX
  5
7BD
  8
LAYER01
 62
     7
 10
4896.7042956210198
 20
6720.5779603867441
 30
0.0
  0
VERTEX
  5
7BE
  8
LAYER01
 62
     7
 10
4916.5290093684744
 20
6700.7532466392904
 30
0.0
  0
VERTEX
  5
7BF
  8
LAYER01
 62
     7
 10
4936.3537231159271
 20
6684.8934756413273
 30
0.0
  0
VERTEX
  5
7C0
  8
LAYER01
 62
     7
 10
4960.1433796128722
 20
6672.9986473928557
 30
0.0
  0
VERTEX
  5
7C1
  8
LAYER01
 62
     7
 10
4983.9330361098146
 20
6661.103819144384
 30
0.0
  0
VERTEX
  5
7C2
  8
LAYER01
 62
     7
 10
5011.6876353562502
 20
6649.2089908959097
 30
0.0
  0
VERTEX
  5
7C3
  8
LAYER01
 62
     7
 10
5035.4772918531944
 20
6641.2791053969304
 30
0.0
  0
VERTEX
  5
7C4
  8
LAYER01
 62
     7
 10
5063.2318910996291
 20
6637.3141626474389
 30
0.0
  0
VERTEX
  5
7C5
  8
LAYER01
 62
     7
 10
5094.9514330955544
 20
6637.3141626474389
 30
0.0
  0
VERTEX
  5
7C6
  8
LAYER01
 62
     7
 10
5094.9514330955544
 20
6637.3141626474389
 30
0.0
  0
VERTEX
  5
7C7
  8
LAYER01
 62
     7
 10
5138.5658033399532
 20
6641.2791053969304
 30
0.0
  0
VERTEX
  5
7C8
  8
LAYER01
 62
     7
 10
5174.250288085369
 20
6649.2089908959097
 30
0.0
  0
VERTEX
  5
7C9
  8
LAYER01
 62
     7
 10
5209.9347728307857
 20
6669.0337046433651
 30
0.0
  0
VERTEX
  5
7CA
  8
LAYER01
 62
     7
 10
5245.6192575762007
 20
6692.8233611403102
 30
0.0
  0
VERTEX
  5
7CB
  8
LAYER01
 62
     7
 10
5348.7077690629603
 20
6554.0503649081338
 30
0.0
  0
VERTEX
  5
7CC
  8
LAYER01
 62
     7
 10
5348.7077690629603
 20
6554.0503649081338
 30
0.0
  0
VERTEX
  5
7CD
  8
LAYER01
 62
     7
 10
5289.2336278206003
 20
6518.365880162718
 30
0.0
  0
VERTEX
  5
7CE
  8
LAYER01
 62
     7
 10
5257.5140858246741
 20
6506.4710519142454
 30
0.0
  0
VERTEX
  5
7CF
  8
LAYER01
 62
     7
 10
5229.7594865782394
 20
6494.5762236657738
 30
0.0
  0
VERTEX
  5
7D0
  8
LAYER01
 62
     7
 10
5198.0399445823132
 20
6486.6463381667909
 30
0.0
  0
VERTEX
  5
7D1
  8
LAYER01
 62
     7
 10
5166.3204025863879
 20
6482.6813954173012
 30
0.0
  0
VERTEX
  5
7D2
  8
LAYER01
 62
     7
 10
5094.9514330955544
 20
6478.7164526678098
 30
0.0
  0
VERTEX
  5
7D3
  8
LAYER01
 62
     7
 10
5094.9514330955544
 20
6478.7164526678098
 30
0.0
  0
VERTEX
  5
7D4
  8
LAYER01
 62
     7
 10
5047.372120101667
 20
6482.6813954173012
 30
0.0
  0
VERTEX
  5
7D5
  8
LAYER01
 62
     7
 10
5003.7577498572691
 20
6490.6112809162832
 30
0.0
  0
VERTEX
  5
7D6
  8
LAYER01
 62
     7
 10
4960.1433796128722
 20
6498.5411664152653
 30
0.0
  0
VERTEX
  5
7D7
  8
LAYER01
 62
     7
 10
4920.493952117964
 20
6514.4009374132283
 30
0.0
  0
VERTEX
  5
7D8
  8
LAYER01
 62
     7
 10
4880.8445246230567
 20
6534.2256511606811
 30
0.0
  0
VERTEX
  5
7D9
  8
LAYER01
 62
     7
 10
4845.16003987764
 20
6554.0503649081338
 30
0.0
  0
VERTEX
  5
7DA
  8
LAYER01
 62
     7
 10
4809.4755551322241
 20
6581.8049641545704
 30
0.0
  0
VERTEX
  5
7DB
  8
LAYER01
 62
     7
 10
4777.756013136298
 20
6609.5595634010042
 30
0.0
  0
VERTEX
  5
7DC
  8
LAYER01
 62
     7
 10
4746.0364711403727
 20
6641.2791053969304
 30
0.0
  0
VERTEX
  5
7DD
  8
LAYER01
 62
     7
 10
4722.2468146434294
 20
6676.9635901423471
 30
0.0
  0
VERTEX
  5
7DE
  8
LAYER01
 62
     7
 10
4698.4571581464834
 20
6712.648074887763
 30
0.0
  0
VERTEX
  5
7DF
  8
LAYER01
 62
     7
 10
4678.6324443990297
 20
6752.2975023826693
 30
0.0
  0
VERTEX
  5
7E0
  8
LAYER01
 62
     7
 10
4666.737616150559
 20
6791.9469298775748
 30
0.0
  0
VERTEX
  5
7E1
  8
LAYER01
 62
     7
 10
4654.8427879020883
 20
6835.5613001219772
 30
0.0
  0
VERTEX
  5
7E2
  8
LAYER01
 62
     7
 10
4646.9129024031063
 20
6879.1756703663723
 30
0.0
  0
VERTEX
  5
7E3
  8
LAYER01
 62
     7
 10
4642.947959653613
 20
6926.7549833602607
 30
0.0
  0
VERTEX
  5
7E4
  8
LAYER01
 62
     7
 10
4642.947959653613
 20
6926.7549833602607
 30
0.0
  0
VERTEX
  5
7E5
  8
LAYER01
 62
     7
 10
4646.9129024031063
 20
6970.3693536046603
 30
0.0
  0
VERTEX
  5
7E6
  8
LAYER01
 62
     7
 10
4654.8427879020883
 20
7017.948666598546
 30
0.0
  0
VERTEX
  5
7E7
  8
LAYER01
 62
     7
 10
4662.7726734010676
 20
7057.5980940934542
 30
0.0
  0
VERTEX
  5
7E8
  8
LAYER01
 62
     7
 10
4678.6324443990297
 20
7101.212464337852
 30
0.0
  0
VERTEX
  5
7E9
  8
LAYER01
 62
     7
 10
4698.4571581464834
 20
7140.8618918327593
 30
0.0
  0
VERTEX
  5
7EA
  8
LAYER01
 62
     7
 10
4718.2818718939379
 20
7176.5463765781742
 30
0.0
  0
VERTEX
  5
7EB
  8
LAYER01
 62
     7
 10
4746.0364711403727
 20
7212.2308613235928
 30
0.0
  0
VERTEX
  5
7EC
  8
LAYER01
 62
     7
 10
4773.7910703868083
 20
7243.950403319518
 30
0.0
  0
VERTEX
  5
7ED
  8
LAYER01
 62
     7
 10
4805.5106123827327
 20
7271.705002565951
 30
0.0
  0
VERTEX
  5
7EE
  8
LAYER01
 62
     7
 10
4841.1950971281503
 20
7299.4596018123866
 30
0.0
  0
VERTEX
  5
7EF
  8
LAYER01
 62
     7
 10
4876.8795818735662
 20
7319.2843155598421
 30
0.0
  0
VERTEX
  5
7F0
  8
LAYER01
 62
     7
 10
4916.5290093684744
 20
7339.1090293072939
 30
0.0
  0
VERTEX
  5
7F1
  8
LAYER01
 62
     7
 10
4956.1784368633807
 20
7354.9688003052579
 30
0.0
  0
VERTEX
  5
7F2
  8
LAYER01
 62
     7
 10
4999.7928071077777
 20
7366.8636285537268
 30
0.0
  0
VERTEX
  5
7F3
  8
LAYER01
 62
     7
 10
5047.372120101667
 20
7370.8285713032201
 30
0.0
  0
VERTEX
  5
7F4
  8
LAYER01
 62
     7
 10
5090.9864903460648
 20
7374.7935140527088
 30
0.0
  0
VERTEX
  5
7F5
  8
LAYER01
 62
     7
 10
5090.9864903460648
 20
7374.7935140527088
 30
0.0
  0
VERTEX
  5
7F6
  8
LAYER01
 62
     7
 10
5162.3554598368992
 20
7370.8285713032201
 30
0.0
  0
VERTEX
  5
7F7
  8
LAYER01
 62
     7
 10
5198.0399445823132
 20
7366.8636285537268
 30
0.0
  0
VERTEX
  5
7F8
  8
LAYER01
 62
     7
 10
5229.7594865782394
 20
7358.9337430547457
 30
0.0
  0
VERTEX
  5
7F9
  8
LAYER01
 62
     7
 10
5257.5140858246741
 20
7347.0389148062732
 30
0.0
  0
VERTEX
  5
7FA
  8
LAYER01
 62
     7
 10
5289.2336278206003
 20
7335.1440865578052
 30
0.0
  0
VERTEX
  5
7FB
  8
LAYER01
 62
     7
 10
5320.9531698165256
 20
7315.3193728103488
 30
0.0
  0
VERTEX
  5
7FC
  8
LAYER01
 62
     7
 10
5352.6727118124491
 20
7295.4946590628952
 30
0.0
  0
VERTEX
  5
7FD
  8
LAYER01
 62
     7
 10
5352.6727118124491
 20
7295.4946590628952
 30
0.0
  0
SEQEND
  5
7FE
  8
LAYER01
 62
     7
  0
POLYLINE
  5
5DF
  8
LAYER01
 62
     7
 66
     1
 10
0.0
 20
0.0
 30
0.0
 70
     1
  0
VERTEX
  5
7FF
  8
LAYER01
 62
     7
 10
5737.2721585130503
 20
7370.8285713032201
 30
0.0
  0
VERTEX
  5
800
  8
LAYER01
 62
     7
 10
5737.2721585130503
 20
7370.8285713032201
 30
0.0
  0
VERTEX
  5
801
  8
LAYER01
 62
     7
 10
5693.6577882686533
 20
7366.8636285537268
 30
0.0
  0
VERTEX
  5
802
  8
LAYER01
 62
     7
 10
5646.0784752747632
 20
7362.8986858042381
 30
0.0
  0
VERTEX
  5
803
  8
LAYER01
 62
     7
 10
5606.429047779855
 20
7351.0038575557674
 30
0.0
  0
VERTEX
  5
804
  8
LAYER01
 62
     7
 10
5562.814677535458
 20
7335.1440865578052
 30
0.0
  0
VERTEX
  5
805
  8
LAYER01
 62
     7
 10
5523.1652500405517
 20
7319.2843155598421
 30
0.0
  0
VERTEX
  5
806
  8
LAYER01
 62
     7
 10
5487.4807652951349
 20
7295.4946590628952
 30
0.0
  0
VERTEX
  5
807
  8
LAYER01
 62
     7
 10
5451.7962805497182
 20
7271.705002565951
 30
0.0
  0
VERTEX
  5
808
  8
LAYER01
 62
     7
 10
5420.0767385537929
 20
7239.9854605700248
 30
0.0
  0
VERTEX
  5
809
  8
LAYER01
 62
     7
 10
5392.3221393073582
 20
7208.2659185741013
 30
0.0
  0
VERTEX
  5
80A
  8
LAYER01
 62
     7
 10
5364.5675400609243
 20
7176.5463765781742
 30
0.0
  0
VERTEX
  5
80B
  8
LAYER01
 62
     7
 10
5340.7778835639801
 20
7140.8618918327593
 30
0.0
  0
VERTEX
  5
80C
  8
LAYER01
 62
     7
 10
5320.9531698165256
 20
7101.212464337852
 30
0.0
  0
VERTEX
  5
80D
  8
LAYER01
 62
     7
 10
5309.0583415680539
 20
7057.5980940934542
 30
0.0
  0
VERTEX
  5
80E
  8
LAYER01
 62
     7
 10
5297.1635133195814
 20
7017.948666598546
 30
0.0
  0
VERTEX
  5
80F
  8
LAYER01
 62
     7
 10
5289.2336278206003
 20
6970.3693536046603
 30
0.0
  0
VERTEX
  5
810
  8
LAYER01
 62
     7
 10
5285.2686850711088
 20
6926.7549833602607
 30
0.0
  0
VERTEX
  5
811
  8
LAYER01
 62
     7
 10
5285.2686850711088
 20
6926.7549833602607
 30
0.0
  0
VERTEX
  5
812
  8
LAYER01
 62
     7
 10
5289.2336278206003
 20
6879.1756703663723
 30
0.0
  0
VERTEX
  5
813
  8
LAYER01
 62
     7
 10
5293.1985705700909
 20
6835.5613001219772
 30
0.0
  0
VERTEX
  5
814
  8
LAYER01
 62
     7
 10
5305.0933988185634
 20
6791.9469298775748
 30
0.0
  0
VERTEX
  5
815
  8
LAYER01
 62
     7
 10
5320.9531698165256
 20
6752.2975023826693
 30
0.0
  0
VERTEX
  5
816
  8
LAYER01
 62
     7
 10
5336.8129408144878
 20
6712.648074887763
 30
0.0
  0
VERTEX
  5
817
  8
LAYER01
 62
     7
 10
5360.602597311432
 20
6676.9635901423471
 30
0.0
  0
VERTEX
  5
818
  8
LAYER01
 62
     7
 10
5384.3922538083762
 20
6641.2791053969304
 30
0.0
  0
VERTEX
  5
819
  8
LAYER01
 62
     7
 10
5412.1468530548118
 20
6609.5595634010042
 30
0.0
  0
VERTEX
  5
81A
  8
LAYER01
 62
     7
 10
5443.8663950507362
 20
6577.8400214050789
 30
0.0
  0
VERTEX
  5
81B
  8
LAYER01
 62
     7
 10
5479.5508797961529
 20
6554.0503649081338
 30
0.0
  0
VERTEX
  5
81C
  8
LAYER01
 62
     7
 10
5515.2353645415697
 20
6530.2607084111914
 30
0.0
  0
VERTEX
  5
81D
  8
LAYER01
 62
     7
 10
5554.8847920364769
 20
6510.4359946637369
 30
0.0
  0
VERTEX
  5
81E
  8
LAYER01
 62
     7
 10
5594.5342195313842
 20
6494.5762236657738
 30
0.0
  0
VERTEX
  5
81F
  8
LAYER01
 62
     7
 10
5638.1485897757821
 20
6486.6463381667909
 30
0.0
  0
VERTEX
  5
820
  8
LAYER01
 62
     7
 10
5681.762960020179
 20
6478.7164526678098
 30
0.0
  0
VERTEX
  5
821
  8
LAYER01
 62
     7
 10
5725.3773302645768
 20
6474.7515099183202
 30
0.0
  0
VERTEX
  5
822
  8
LAYER01
 62
     7
 10
5725.3773302645768
 20
6474.7515099183202
 30
0.0
  0
VERTEX
  5
823
  8
LAYER01
 62
     7
 10
5772.9566432584652
 20
6478.7164526678098
 30
0.0
  0
VERTEX
  5
824
  8
LAYER01
 62
     7
 10
5816.5710135028621
 20
6486.6463381667909
 30
0.0
  0
VERTEX
  5
825
  8
LAYER01
 62
     7
 10
5860.1853837472609
 20
6498.5411664152653
 30
0.0
  0
VERTEX
  5
826
  8
LAYER01
 62
     7
 10
5899.8348112421681
 20
6514.4009374132283
 30
0.0
  0
VERTEX
  5
827
  8
LAYER01
 62
     7
 10
5939.4842387370763
 20
6534.2256511606811
 30
0.0
  0
VERTEX
  5
828
  8
LAYER01
 62
     7
 10
5975.1687234824913
 20
6558.0153076576235
 30
0.0
  0
VERTEX
  5
829
  8
LAYER01
 62
     7
 10
6010.853208227908
 20
6581.8049641545704
 30
0.0
  0
VERTEX
  5
82A
  8
LAYER01
 62
     7
 10
6042.5727502238333
 20
6613.5245061504938
 30
0.0
  0
VERTEX
  5
82B
  8
LAYER01
 62
     7
 10
6070.3273494702689
 20
6645.2440481464209
 30
0.0
  0
VERTEX
  5
82C
  8
LAYER01
 62
     7
 10
6094.1170059672131
 20
6680.9285328918368
 30
0.0
  0
VERTEX
  5
82D
  8
LAYER01
 62
     7
 10
6113.9417197146659
 20
6716.6130176372544
 30
0.0
  0
VERTEX
  5
82E
  8
LAYER01
 62
     7
 10
6133.7664334621204
 20
6756.2624451321599
 30
0.0
  0
VERTEX
  5
82F
  8
LAYER01
 62
     7
 10
6149.6262044600817
 20
6799.8768153765577
 30
0.0
  0
VERTEX
  5
830
  8
LAYER01
 62
     7
 10
6157.5560899590637
 20
6843.4911856209546
 30
0.0
  0
VERTEX
  5
831
  8
LAYER01
 62
     7
 10
6161.5210327085533
 20
6887.1055558653534
 30
0.0
  0
VERTEX
  5
832
  8
LAYER01
 62
     7
 10
6165.4859754580457
 20
6934.6848688592418
 30
0.0
  0
VERTEX
  5
833
  8
LAYER01
 62
     7
 10
6165.4859754580457
 20
6934.6848688592418
 30
0.0
  0
VERTEX
  5
834
  8
LAYER01
 62
     7
 10
6161.5210327085533
 20
6978.2992391036396
 30
0.0
  0
VERTEX
  5
835
  8
LAYER01
 62
     7
 10
6153.5911472095731
 20
7021.9136093480374
 30
0.0
  0
VERTEX
  5
836
  8
LAYER01
 62
     7
 10
6141.6963189611024
 20
7061.5630368429456
 30
0.0
  0
VERTEX
  5
837
  8
LAYER01
 62
     7
 10
6129.8014907126289
 20
7101.212464337852
 30
0.0
  0
VERTEX
  5
838
  8
LAYER01
 62
     7
 10
6109.9767769651762
 20
7136.8969490832678
 30
0.0
  0
VERTEX
  5
839
  8
LAYER01
 62
     7
 10
6090.1520632177217
 20
7172.5814338286846
 30
0.0
  0
VERTEX
  5
83A
  8
LAYER01
 62
     7
 10
6066.3624067207766
 20
7208.2659185741013
 30
0.0
  0
VERTEX
  5
83B
  8
LAYER01
 62
     7
 10
6038.6078074743436
 20
7236.0205178205333
 30
0.0
  0
VERTEX
  5
83C
  8
LAYER01
 62
     7
 10
6006.8882654784184
 20
7263.7751170669699
 30
0.0
  0
VERTEX
  5
83D
  8
LAYER01
 62
     7
 10
5975.1687234824913
 20
7291.5297163134037
 30
0.0
  0
VERTEX
  5
83E
  8
LAYER01
 62
     7
 10
5939.4842387370763
 20
7311.3544300608592
 30
0.0
  0
VERTEX
  5
83F
  8
LAYER01
 62
     7
 10
5903.7997539916578
 20
7331.1791438083146
 30
0.0
  0
VERTEX
  5
840
  8
LAYER01
 62
     7
 10
5864.1503264967514
 20
7347.0389148062732
 30
0.0
  0
VERTEX
  5
841
  8
LAYER01
 62
     7
 10
5824.5008990018441
 20
7358.9337430547457
 30
0.0
  0
VERTEX
  5
842
  8
LAYER01
 62
     7
 10
5780.8865287574472
 20
7366.8636285537268
 30
0.0
  0
VERTEX
  5
843
  8
LAYER01
 62
     7
 10
5737.2721585130503
 20
7370.8285713032201
 30
0.0
  0
VERTEX
  5
844
  8
LAYER01
 62
     7
 10
5737.2721585130503
 20
7370.8285713032201
 30
0.0
  0
SEQEND
  5
845
  8
LAYER01
 62
     7
  0
POLYLINE
  5
5E0
  8
LAYER01
 62
     7
 66
     1
 10
0.0
 20
0.0
 30
0.0
 70
     1
  0
VERTEX
  5
846
  8
LAYER01
 62
     7
 10
5725.3773302645768
 20
6637.3141626474389
 30
0.0
  0
VERTEX
  5
847
  8
LAYER01
 62
     7
 10
5725.3773302645768
 20
6637.3141626474389
 30
0.0
  0
VERTEX
  5
848
  8
LAYER01
 62
     7
 10
5697.6227310181421
 20
6641.2791053969304
 30
0.0
  0
VERTEX
  5
849
  8
LAYER01
 62
     7
 10
5669.8681317717073
 20
6645.2440481464209
 30
0.0
  0
VERTEX
  5
84A
  8
LAYER01
 62
     7
 10
5642.1135325252717
 20
6649.2089908959097
 30
0.0
  0
VERTEX
  5
84B
  8
LAYER01
 62
     7
 10
5614.3589332788379
 20
6661.103819144384
 30
0.0
  0
VERTEX
  5
84C
  8
LAYER01
 62
     7
 10
5590.5692767818909
 20
6672.9986473928557
 30
0.0
  0
VERTEX
  5
84D
  8
LAYER01
 62
     7
 10
5566.7796202849486
 20
6688.8584183908179
 30
0.0
  0
VERTEX
  5
84E
  8
LAYER01
 62
     7
 10
5546.9549065374968
 20
6704.718189388781
 30
0.0
  0
VERTEX
  5
84F
  8
LAYER01
 62
     7
 10
5527.1301927900431
 20
6724.5429031362328
 30
0.0
  0
VERTEX
  5
850
  8
LAYER01
 62
     7
 10
5507.3054790425886
 20
6744.3676168836892
 30
0.0
  0
VERTEX
  5
851
  8
LAYER01
 62
     7
 10
5491.4457080446264
 20
6764.1923306311428
 30
0.0
  0
VERTEX
  5
852
  8
LAYER01
 62
     7
 10
5479.5508797961529
 20
6787.9819871280861
 30
0.0
  0
VERTEX
  5
853
  8
LAYER01
 62
     7
 10
5467.6560515476813
 20
6815.7365863745208
 30
0.0
  0
VERTEX
  5
854
  8
LAYER01
 62
     7
 10
5455.7612232992096
 20
6839.5262428714632
 30
0.0
  0
VERTEX
  5
855
  8
LAYER01
 62
     7
 10
5451.7962805497182
 20
6867.2808421178988
 30
0.0
  0
VERTEX
  5
856
  8
LAYER01
 62
     7
 10
5443.8663950507362
 20
6895.0354413643372
 30
0.0
  0
VERTEX
  5
857
  8
LAYER01
 62
     7
 10
5443.8663950507362
 20
6926.7549833602607
 30
0.0
  0
VERTEX
  5
858
  8
LAYER01
 62
     7
 10
5443.8663950507362
 20
6926.7549833602607
 30
0.0
  0
VERTEX
  5
859
  8
LAYER01
 62
     7
 10
5447.8313378002258
 20
6954.5095826066963
 30
0.0
  0
VERTEX
  5
85A
  8
LAYER01
 62
     7
 10
5451.7962805497182
 20
6982.264181853131
 30
0.0
  0
VERTEX
  5
85B
  8
LAYER01
 62
     7
 10
5459.7261660486993
 20
7010.0187810995658
 30
0.0
  0
VERTEX
  5
85C
  8
LAYER01
 62
     7
 10
5467.6560515476813
 20
7037.7733803459996
 30
0.0
  0
VERTEX
  5
85D
  8
LAYER01
 62
     7
 10
5479.5508797961529
 20
7061.5630368429456
 30
0.0
  0
VERTEX
  5
85E
  8
LAYER01
 62
     7
 10
5495.410650794116
 20
7085.3526933398889
 30
0.0
  0
VERTEX
  5
85F
  8
LAYER01
 62
     7
 10
5511.27042179208
 20
7105.1774070873416
 30
0.0
  0
VERTEX
  5
860
  8
LAYER01
 62
     7
 10
5531.0951355395327
 20
7125.0021208347962
 30
0.0
  0
VERTEX
  5
861
  8
LAYER01
 62
     7
 10
5550.9198492869864
 20
7144.826834582248
 30
0.0
  0
VERTEX
  5
862
  8
LAYER01
 62
     7
 10
5570.74456303444
 20
7160.6866055802111
 30
0.0
  0
VERTEX
  5
863
  8
LAYER01
 62
     7
 10
5594.5342195313842
 20
7176.5463765781742
 30
0.0
  0
VERTEX
  5
864
  8
LAYER01
 62
     7
 10
5622.288818777819
 20
7188.4412048266468
 30
0.0
  0
VERTEX
  5
865
  8
LAYER01
 62
     7
 10
5646.0784752747632
 20
7196.3710903256278
 30
0.0
  0
VERTEX
  5
866
  8
LAYER01
 62
     7
 10
5673.8330745211979
 20
7204.3009758246117
 30
0.0
  0
VERTEX
  5
867
  8
LAYER01
 62
     7
 10
5701.5876737676326
 20
7208.2659185741013
 30
0.0
  0
VERTEX
  5
868
  8
LAYER01
 62
     7
 10
5733.3072157635588
 20
7208.2659185741013
 30
0.0
  0
VERTEX
  5
869
  8
LAYER01
 62
     7
 10
5733.3072157635588
 20
7208.2659185741013
 30
0.0
  0
VERTEX
  5
86A
  8
LAYER01
 62
     7
 10
5761.0618150099936
 20
7204.3009758246117
 30
0.0
  0
VERTEX
  5
86B
  8
LAYER01
 62
     7
 10
5788.8164142564283
 20
7200.3360330751193
 30
0.0
  0
VERTEX
  5
86C
  8
LAYER01
 62
     7
 10
5812.6060707533707
 20
7192.4061475761382
 30
0.0
  0
VERTEX
  5
86D
  8
LAYER01
 62
     7
 10
5840.3606699998072
 20
7184.4762620771562
 30
0.0
  0
VERTEX
  5
86E
  8
LAYER01
 62
     7
 10
5860.1853837472609
 20
7172.5814338286846
 30
0.0
  0
VERTEX
  5
86F
  8
LAYER01
 62
     7
 10
5883.975040244205
 20
7156.7216628307224
 30
0.0
  0
VERTEX
  5
870
  8
LAYER01
 62
     7
 10
5903.7997539916578
 20
7140.8618918327593
 30
0.0
  0
VERTEX
  5
871
  8
LAYER01
 62
     7
 10
5923.6244677391132
 20
7125.0021208347962
 30
0.0
  0
VERTEX
  5
872
  8
LAYER01
 62
     7
 10
5939.4842387370763
 20
7105.1774070873416
 30
0.0
  0
VERTEX
  5
873
  8
LAYER01
 62
     7
 10
5955.3440097350358
 20
7081.3877505903993
 30
0.0
  0
VERTEX
  5
874
  8
LAYER01
 62
     7
 10
5971.2037807329998
 20
7061.5630368429456
 30
0.0
  0
VERTEX
  5
875
  8
LAYER01
 62
     7
 10
5983.0986089814751
 20
7037.7733803459996
 30
0.0
  0
VERTEX
  5
876
  8
LAYER01
 62
     7
 10
5991.0284944804544
 20
7010.0187810995658
 30
0.0
  0
VERTEX
  5
877
  8
LAYER01
 62
     7
 10
5998.9583799794336
 20
6986.2291246026198
 30
0.0
  0
VERTEX
  5
878
  8
LAYER01
 62
     7
 10
6002.923322728926
 20
6958.4745253561869
 30
0.0
  0
VERTEX
  5
879
  8
LAYER01
 62
     7
 10
6002.923322728926
 20
6930.7199261097512
 30
0.0
  0
VERTEX
  5
87A
  8
LAYER01
 62
     7
 10
6002.923322728926
 20
6930.7199261097512
 30
0.0
  0
VERTEX
  5
87B
  8
LAYER01
 62
     7
 10
6002.923322728926
 20
6899.0003841138259
 30
0.0
  0
VERTEX
  5
87C
  8
LAYER01
 62
     7
 10
5998.9583799794336
 20
6871.2457848673903
 30
0.0
  0
VERTEX
  5
87D
  8
LAYER01
 62
     7
 10
5994.9934372299449
 20
6843.4911856209546
 30
0.0
  0
VERTEX
  5
87E
  8
LAYER01
 62
     7
 10
5983.0986089814751
 20
6819.7015291240123
 30
0.0
  0
VERTEX
  5
87F
  8
LAYER01
 62
     7
 10
5975.1687234824913
 20
6791.9469298775748
 30
0.0
  0
VERTEX
  5
880
  8
LAYER01
 62
     7
 10
5959.3089524845291
 20
6768.1572733806324
 30
0.0
  0
VERTEX
  5
881
  8
LAYER01
 62
     7
 10
5943.449181486566
 20
6744.3676168836892
 30
0.0
  0
VERTEX
  5
882
  8
LAYER01
 62
     7
 10
5923.6244677391132
 20
6724.5429031362328
 30
0.0
  0
VERTEX
  5
883
  8
LAYER01
 62
     7
 10
5903.7997539916578
 20
6704.718189388781
 30
0.0
  0
VERTEX
  5
884
  8
LAYER01
 62
     7
 10
5883.975040244205
 20
6688.8584183908179
 30
0.0
  0
VERTEX
  5
885
  8
LAYER01
 62
     7
 10
5860.1853837472609
 20
6672.9986473928557
 30
0.0
  0
VERTEX
  5
886
  8
LAYER01
 62
     7
 10
5836.3957272503176
 20
6661.103819144384
 30
0.0
  0
VERTEX
  5
887
  8
LAYER01
 62
     7
 10
5808.6411280038801
 20
6653.173933645402
 30
0.0
  0
VERTEX
  5
888
  8
LAYER01
 62
     7
 10
5780.8865287574472
 20
6645.2440481464209
 30
0.0
  0
VERTEX
  5
889
  8
LAYER01
 62
     7
 10
5753.1319295110106
 20
6641.2791053969304
 30
0.0
  0
VERTEX
  5
88A
  8
LAYER01
 62
     7
 10
5725.3773302645768
 20
6637.3141626474389
 30
0.0
  0
VERTEX
  5
88B
  8
LAYER01
 62
     7
 10
5725.3773302645768
 20
6637.3141626474389
 30
0.0
  0
SEQEND
  5
88C
  8
LAYER01
 62
     7
  0
POLYLINE
  5
5E1
  8
LAYER01
 62
     7
 66
     1
 10
0.0
 20
0.0
 30
0.0
 70
     1
  0
VERTEX
  5
88D
  8
LAYER01
 62
     7
 10
6042.5727502238333
 20
7351.0038575557674
 30
0.0
  0
VERTEX
  5
88E
  8
LAYER01
 62
     7
 10
6462.8566816698476
 20
7351.0038575557674
 30
0.0
  0
VERTEX
  5
88F
  8
LAYER01
 62
     7
 10
6462.8566816698476
 20
7351.0038575557674
 30
0.0
  0
VERTEX
  5
890
  8
LAYER01
 62
     7
 10
6510.4359946637369
 20
7343.0739720567844
 30
0.0
  0
VERTEX
  5
891
  8
LAYER01
 62
     7
 10
6554.0503649081338
 20
7323.2492583093299
 30
0.0
  0
VERTEX
  5
892
  8
LAYER01
 62
     7
 10
6589.7348496535496
 20
7299.4596018123866
 30
0.0
  0
VERTEX
  5
893
  8
LAYER01
 62
     7
 10
6621.4543916494758
 20
7267.7400598164604
 30
0.0
  0
VERTEX
  5
894
  8
LAYER01
 62
     7
 10
6649.2089908959097
 20
7236.0205178205333
 30
0.0
  0
VERTEX
  5
895
  8
LAYER01
 62
     7
 10
6669.0337046433651
 20
7196.3710903256278
 30
0.0
  0
VERTEX
  5
896
  8
LAYER01
 62
     7
 10
6680.9285328918368
 20
7148.7917773317413
 30
0.0
  0
VERTEX
  5
897
  8
LAYER01
 62
     7
 10
6684.8934756413273
 20
7105.1774070873416
 30
0.0
  0
VERTEX
  5
898
  8
LAYER01
 62
     7
 10
6684.8934756413273
 20
7105.1774070873416
 30
0.0
  0
VERTEX
  5
899
  8
LAYER01
 62
     7
 10
6680.9285328918368
 20
7057.5980940934542
 30
0.0
  0
VERTEX
  5
89A
  8
LAYER01
 62
     7
 10
6672.9986473928557
 20
7017.948666598546
 30
0.0
  0
VERTEX
  5
89B
  8
LAYER01
 62
     7
 10
6657.1388763948926
 20
6978.2992391036396
 30
0.0
  0
VERTEX
  5
89C
  8
LAYER01
 62
     7
 10
6637.3141626474389
 20
6942.6147543582238
 30
0.0
  0
VERTEX
  5
89D
  8
LAYER01
 62
     7
 10
6609.5595634010042
 20
6910.8952123622976
 30
0.0
  0
VERTEX
  5
89E
  8
LAYER01
 62
     7
 10
6581.8049641545704
 20
6887.1055558653534
 30
0.0
  0
VERTEX
  5
89F
  8
LAYER01
 62
     7
 10
6542.1555366596622
 20
6863.3158993684092
 30
0.0
  0
VERTEX
  5
8A0
  8
LAYER01
 62
     7
 10
6502.5061091647531
 20
6847.4561283704461
 30
0.0
  0
VERTEX
  5
8A1
  8
LAYER01
 62
     7
 10
6760.2273878816522
 20
6502.5061091647531
 30
0.0
  0
VERTEX
  5
8A2
  8
LAYER01
 62
     7
 10
6561.9802504071158
 20
6502.5061091647531
 30
0.0
  0
VERTEX
  5
8A3
  8
LAYER01
 62
     7
 10
6217.0302312014246
 20
6942.6147543582238
 30
0.0
  0
VERTEX
  5
8A4
  8
LAYER01
 62
     7
 10
6411.3124259264687
 20
6942.6147543582238
 30
0.0
  0
VERTEX
  5
8A5
  8
LAYER01
 62
     7
 10
6411.3124259264687
 20
6942.6147543582238
 30
0.0
  0
VERTEX
  5
8A6
  8
LAYER01
 62
     7
 10
6435.102082423412
 20
6950.5446398572049
 30
0.0
  0
VERTEX
  5
8A7
  8
LAYER01
 62
     7
 10
6454.9267961708647
 20
6958.4745253561869
 30
0.0
  0
VERTEX
  5
8A8
  8
LAYER01
 62
     7
 10
6470.7865671688287
 20
6974.334296354149
 30
0.0
  0
VERTEX
  5
8A9
  8
LAYER01
 62
     7
 10
6486.6463381667909
 20
6990.1940673521131
 30
0.0
  0
VERTEX
  5
8AA
  8
LAYER01
 62
     7
 10
6498.5411664152653
 20
7010.0187810995658
 30
0.0
  0
VERTEX
  5
8AB
  8
LAYER01
 62
     7
 10
6510.4359946637369
 20
7029.8434948470176
 30
0.0
  0
VERTEX
  5
8AC
  8
LAYER01
 62
     7
 10
6514.4009374132283
 20
7053.6331513439627
 30
0.0
  0
VERTEX
  5
8AD
  8
LAYER01
 62
     7
 10
6514.4009374132283
 20
7077.4228078409069
 30
0.0
  0
VERTEX
  5
8AE
  8
LAYER01
 62
     7
 10
6514.4009374132283
 20
7077.4228078409069
 30
0.0
  0
VERTEX
  5
8AF
  8
LAYER01
 62
     7
 10
6514.4009374132283
 20
7101.212464337852
 30
0.0
  0
VERTEX
  5
8B0
  8
LAYER01
 62
     7
 10
6506.4710519142454
 20
7121.0371780853047
 30
0.0
  0
VERTEX
  5
8B1
  8
LAYER01
 62
     7
 10
6498.5411664152653
 20
7140.8618918327593
 30
0.0
  0
VERTEX
  5
8B2
  8
LAYER01
 62
     7
 10
6486.6463381667909
 20
7160.6866055802111
 30
0.0
  0
VERTEX
  5
8B3
  8
LAYER01
 62
     7
 10
6470.7865671688287
 20
7176.5463765781742
 30
0.0
  0
VERTEX
  5
8B4
  8
LAYER01
 62
     7
 10
6454.9267961708647
 20
7188.4412048266468
 30
0.0
  0
VERTEX
  5
8B5
  8
LAYER01
 62
     7
 10
6431.1371396739214
 20
7200.3360330751193
 30
0.0
  0
VERTEX
  5
8B6
  8
LAYER01
 62
     7
 10
6411.3124259264687
 20
7208.2659185741013
 30
0.0
  0
VERTEX
  5
8B7
  8
LAYER01
 62
     7
 10
6185.3106892055002
 20
7208.2659185741013
 30
0.0
  0
VERTEX
  5
8B8
  8
LAYER01
 62
     7
 10
6042.5727502238333
 20
7351.0038575557674
 30
0.0
  0
VERTEX
  5
8B9
  8
LAYER01
 62
     7
 10
6042.5727502238333
 20
7351.0038575557674
 30
0.0
  0
SEQEND
  5
8BA
  8
LAYER01
 62
     7
  0
POLYLINE
  5
5E2
  8
LAYER01
 62
     7
 66
     1
 10
0.0
 20
0.0
 30
0.0
 70
     1
  0
VERTEX
  5
8BB
  8
LAYER01
 62
     7
 10
6867.2808421178988
 20
7140.8618918327593
 30
0.0
  0
VERTEX
  5
8BC
  8
LAYER01
 62
     7
 10
6867.2808421178988
 20
7140.8618918327593
 30
0.0
  0
VERTEX
  5
8BD
  8
LAYER01
 62
     7
 10
6887.1055558653534
 20
7144.826834582248
 30
0.0
  0
VERTEX
  5
8BE
  8
LAYER01
 62
     7
 10
6906.9302696128061
 20
7148.7917773317413
 30
0.0
  0
VERTEX
  5
8BF
  8
LAYER01
 62
     7
 10
6926.7549833602607
 20
7160.6866055802111
 30
0.0
  0
VERTEX
  5
8C0
  8
LAYER01
 62
     7
 10
6942.6147543582238
 20
7172.5814338286846
 30
0.0
  0
VERTEX
  5
8C1
  8
LAYER01
 62
     7
 10
6954.5095826066963
 20
7188.4412048266468
 30
0.0
  0
VERTEX
  5
8C2
  8
LAYER01
 62
     7
 10
6962.4394681056774
 20
7204.3009758246117
 30
0.0
  0
VERTEX
  5
8C3
  8
LAYER01
 62
     7
 10
6970.3693536046603
 20
7224.1256895720644
 30
0.0
  0
VERTEX
  5
8C4
  8
LAYER01
 62
     7
 10
6970.3693536046603
 20
7247.9153460690068
 30
0.0
  0
VERTEX
  5
8C5
  8
LAYER01
 62
     7
 10
6970.3693536046603
 20
7247.9153460690068
 30
0.0
  0
VERTEX
  5
8C6
  8
LAYER01
 62
     7
 10
6970.3693536046603
 20
7267.7400598164604
 30
0.0
  0
VERTEX
  5
8C7
  8
LAYER01
 62
     7
 10
6962.4394681056774
 20
7287.5647735639131
 30
0.0
  0
VERTEX
  5
8C8
  8
LAYER01
 62
     7
 10
6954.5095826066963
 20
7303.4245445618772
 30
0.0
  0
VERTEX
  5
8C9
  8
LAYER01
 62
     7
 10
6942.6147543582238
 20
7319.2843155598421
 30
0.0
  0
VERTEX
  5
8CA
  8
LAYER01
 62
     7
 10
6926.7549833602607
 20
7331.1791438083146
 30
0.0
  0
VERTEX
  5
8CB
  8
LAYER01
 62
     7
 10
6906.9302696128061
 20
7343.0739720567844
 30
0.0
  0
VERTEX
  5
8CC
  8
LAYER01
 62
     7
 10
6887.1055558653534
 20
7347.0389148062732
 30
0.0
  0
VERTEX
  5
8CD
  8
LAYER01
 62
     7
 10
6867.2808421178988
 20
7351.0038575557674
 30
0.0
  0
VERTEX
  5
8CE
  8
LAYER01
 62
     7
 10
6867.2808421178988
 20
7351.0038575557674
 30
0.0
  0
VERTEX
  5
8CF
  8
LAYER01
 62
     7
 10
6847.4561283704461
 20
7347.0389148062732
 30
0.0
  0
VERTEX
  5
8D0
  8
LAYER01
 62
     7
 10
6827.6314146229952
 20
7343.0739720567844
 30
0.0
  0
VERTEX
  5
8D1
  8
LAYER01
 62
     7
 10
6807.8067008755397
 20
7331.1791438083146
 30
0.0
  0
VERTEX
  5
8D2
  8
LAYER01
 62
     7
 10
6791.9469298775748
 20
7319.2843155598421
 30
0.0
  0
VERTEX
  5
8D3
  8
LAYER01
 62
     7
 10
6780.0521016291041
 20
7303.4245445618772
 30
0.0
  0
VERTEX
  5
8D4
  8
LAYER01
 62
     7
 10
6772.122216130123
 20
7287.5647735639131
 30
0.0
  0
VERTEX
  5
8D5
  8
LAYER01
 62
     7
 10
6764.1923306311428
 20
7267.7400598164604
 30
0.0
  0
VERTEX
  5
8D6
  8
LAYER01
 62
     7
 10
6764.1923306311428
 20
7247.9153460690068
 30
0.0
  0
VERTEX
  5
8D7
  8
LAYER01
 62
     7
 10
6764.1923306311428
 20
7247.9153460690068
 30
0.0
  0
VERTEX
  5
8D8
  8
LAYER01
 62
     7
 10
6764.1923306311428
 20
7224.1256895720644
 30
0.0
  0
VERTEX
  5
8D9
  8
LAYER01
 62
     7
 10
6772.122216130123
 20
7204.3009758246117
 30
0.0
  0
VERTEX
  5
8DA
  8
LAYER01
 62
     7
 10
6780.0521016291041
 20
7188.4412048266468
 30
0.0
  0
VERTEX
  5
8DB
  8
LAYER01
 62
     7
 10
6791.9469298775748
 20
7172.5814338286846
 30
0.0
  0
VERTEX
  5
8DC
  8
LAYER01
 62
     7
 10
6807.8067008755397
 20
7160.6866055802111
 30
0.0
  0
VERTEX
  5
8DD
  8
LAYER01
 62
     7
 10
6827.6314146229952
 20
7148.7917773317413
 30
0.0
  0
VERTEX
  5
8DE
  8
LAYER01
 62
     7
 10
6847.4561283704461
 20
7144.826834582248
 30
0.0
  0
VERTEX
  5
8DF
  8
LAYER01
 62
     7
 10
6867.2808421178988
 20
7140.8618918327593
 30
0.0
  0
VERTEX
  5
8E0
  8
LAYER01
 62
     7
 10
6867.2808421178988
 20
7140.8618918327593
 30
0.0
  0
SEQEND
  5
8E1
  8
LAYER01
 62
     7
  0
POLYLINE
  5
5E3
  8
LAYER01
 62
     7
 66
     1
 10
0.0
 20
0.0
 30
0.0
 70
     1
  0
VERTEX
  5
8E2
  8
LAYER01
 62
     7
 10
6867.2808421178988
 20
7335.1440865578052
 30
0.0
  0
VERTEX
  5
8E3
  8
LAYER01
 62
     7
 10
6867.2808421178988
 20
7335.1440865578052
 30
0.0
  0
VERTEX
  5
8E4
  8
LAYER01
 62
     7
 10
6883.1406131158628
 20
7331.1791438083146
 30
0.0
  0
VERTEX
  5
8E5
  8
LAYER01
 62
     7
 10
6899.0003841138259
 20
7327.2142010588213
 30
0.0
  0
VERTEX
  5
8E6
  8
LAYER01
 62
     7
 10
6914.8601551117881
 20
7319.2843155598421
 30
0.0
  0
VERTEX
  5
8E7
  8
LAYER01
 62
     7
 10
6926.7549833602607
 20
7307.3894873113659
 30
0.0
  0
VERTEX
  5
8E8
  8
LAYER01
 62
     7
 10
6938.6498116087314
 20
7295.4946590628952
 30
0.0
  0
VERTEX
  5
8E9
  8
LAYER01
 62
     7
 10
6946.5796971077143
 20
7279.634888064933
 30
0.0
  0
VERTEX
  5
8EA
  8
LAYER01
 62
     7
 10
6954.5095826066963
 20
7263.7751170669699
 30
0.0
  0
VERTEX
  5
8EB
  8
LAYER01
 62
     7
 10
6954.5095826066963
 20
7247.9153460690068
 30
0.0
  0
VERTEX
  5
8EC
  8
LAYER01
 62
     7
 10
6954.5095826066963
 20
7247.9153460690068
 30
0.0
  0
VERTEX
  5
8ED
  8
LAYER01
 62
     7
 10
6954.5095826066963
 20
7228.0906323215549
 30
0.0
  0
VERTEX
  5
8EE
  8
LAYER01
 62
     7
 10
6946.5796971077143
 20
7212.2308613235928
 30
0.0
  0
VERTEX
  5
8EF
  8
LAYER01
 62
     7
 10
6938.6498116087314
 20
7196.3710903256278
 30
0.0
  0
VERTEX
  5
8F0
  8
LAYER01
 62
     7
 10
6926.7549833602607
 20
7184.4762620771562
 30
0.0
  0
VERTEX
  5
8F1
  8
LAYER01
 62
     7
 10
6914.8601551117881
 20
7172.5814338286846
 30
0.0
  0
VERTEX
  5
8F2
  8
LAYER01
 62
     7
 10
6899.0003841138259
 20
7164.6515483297017
 30
0.0
  0
VERTEX
  5
8F3
  8
LAYER01
 62
     7
 10
6883.1406131158628
 20
7160.6866055802111
 30
0.0
  0
VERTEX
  5
8F4
  8
LAYER01
 62
     7
 10
6867.2808421178988
 20
7160.6866055802111
 30
0.0
  0
VERTEX
  5
8F5
  8
LAYER01
 62
     7
 10
6867.2808421178988
 20
7160.6866055802111
 30
0.0
  0
VERTEX
  5
8F6
  8
LAYER01
 62
     7
 10
6851.4210711199376
 20
7160.6866055802111
 30
0.0
  0
VERTEX
  5
8F7
  8
LAYER01
 62
     7
 10
6831.5963573724839
 20
7164.6515483297017
 30
0.0
  0
VERTEX
  5
8F8
  8
LAYER01
 62
     7
 10
6819.7015291240123
 20
7172.5814338286846
 30
0.0
  0
VERTEX
  5
8F9
  8
LAYER01
 62
     7
 10
6803.8417581260492
 20
7184.4762620771562
 30
0.0
  0
VERTEX
  5
8FA
  8
LAYER01
 62
     7
 10
6795.9118726270653
 20
7196.3710903256278
 30
0.0
  0
VERTEX
  5
8FB
  8
LAYER01
 62
     7
 10
6787.9819871280861
 20
7212.2308613235928
 30
0.0
  0
VERTEX
  5
8FC
  8
LAYER01
 62
     7
 10
6780.0521016291041
 20
7228.0906323215549
 30
0.0
  0
VERTEX
  5
8FD
  8
LAYER01
 62
     7
 10
6780.0521016291041
 20
7247.9153460690068
 30
0.0
  0
VERTEX
  5
8FE
  8
LAYER01
 62
     7
 10
6780.0521016291041
 20
7247.9153460690068
 30
0.0
  0
VERTEX
  5
8FF
  8
LAYER01
 62
     7
 10
6780.0521016291041
 20
7263.7751170669699
 30
0.0
  0
VERTEX
  5
900
  8
LAYER01
 62
     7
 10
6787.9819871280861
 20
7279.634888064933
 30
0.0
  0
VERTEX
  5
901
  8
LAYER01
 62
     7
 10
6795.9118726270653
 20
7295.4946590628952
 30
0.0
  0
VERTEX
  5
902
  8
LAYER01
 62
     7
 10
6803.8417581260492
 20
7307.3894873113659
 30
0.0
  0
VERTEX
  5
903
  8
LAYER01
 62
     7
 10
6819.7015291240123
 20
7319.2843155598421
 30
0.0
  0
VERTEX
  5
904
  8
LAYER01
 62
     7
 10
6831.5963573724839
 20
7327.2142010588213
 30
0.0
  0
VERTEX
  5
905
  8
LAYER01
 62
     7
 10
6851.4210711199376
 20
7331.1791438083146
 30
0.0
  0
VERTEX
  5
906
  8
LAYER01
 62
     7
 10
6867.2808421178988
 20
7335.1440865578052
 30
0.0
  0
VERTEX
  5
907
  8
LAYER01
 62
     7
 10
6867.2808421178988
 20
7335.1440865578052
 30
0.0
  0
SEQEND
  5
908
  8
LAYER01
 62
     7
  0
POLYLINE
  5
5E4
  8
LAYER01
 62
     7
 66
     1
 10
0.0
 20
0.0
 30
0.0
 70
     1
  0
VERTEX
  5
909
  8
LAYER01
 62
     7
 10
6883.1406131158628
 20
7239.9854605700248
 30
0.0
  0
VERTEX
  5
90A
  8
LAYER01
 62
     7
 10
6883.1406131158628
 20
7239.9854605700248
 30
0.0
  0
VERTEX
  5
90B
  8
LAYER01
 62
     7
 10
6895.0354413643372
 20
7243.950403319518
 30
0.0
  0
VERTEX
  5
90C
  8
LAYER01
 62
     7
 10
6906.9302696128061
 20
7247.9153460690068
 30
0.0
  0
VERTEX
  5
90D
  8
LAYER01
 62
     7
 10
6914.8601551117881
 20
7259.8101743174784
 30
0.0
  0
VERTEX
  5
90E
  8
LAYER01
 62
     7
 10
6914.8601551117881
 20
7271.705002565951
 30
0.0
  0
VERTEX
  5
90F
  8
LAYER01
 62
     7
 10
6914.8601551117881
 20
7271.705002565951
 30
0.0
  0
VERTEX
  5
910
  8
LAYER01
 62
     7
 10
6914.8601551117881
 20
7287.5647735639131
 30
0.0
  0
VERTEX
  5
911
  8
LAYER01
 62
     7
 10
6902.9653268633147
 20
7299.4596018123866
 30
0.0
  0
VERTEX
  5
912
  8
LAYER01
 62
     7
 10
6891.0704986148439
 20
7303.4245445618772
 30
0.0
  0
VERTEX
  5
913
  8
LAYER01
 62
     7
 10
6875.2107276168808
 20
7303.4245445618772
 30
0.0
  0
VERTEX
  5
914
  8
LAYER01
 62
     7
 10
6827.6314146229952
 20
7303.4245445618772
 30
0.0
  0
VERTEX
  5
915
  8
LAYER01
 62
     7
 10
6827.6314146229952
 20
7188.4412048266468
 30
0.0
  0
VERTEX
  5
916
  8
LAYER01
 62
     7
 10
6843.4911856209546
 20
7188.4412048266468
 30
0.0
  0
VERTEX
  5
917
  8
LAYER01
 62
     7
 10
6843.4911856209546
 20
7239.9854605700248
 30
0.0
  0
VERTEX
  5
918
  8
LAYER01
 62
     7
 10
6867.2808421178988
 20
7239.9854605700248
 30
0.0
  0
VERTEX
  5
919
  8
LAYER01
 62
     7
 10
6895.0354413643372
 20
7188.4412048266468
 30
0.0
  0
VERTEX
  5
91A
  8
LAYER01
 62
     7
 10
6914.8601551117881
 20
7188.4412048266468
 30
0.0
  0
VERTEX
  5
91B
  8
LAYER01
 62
     7
 10
6883.1406131158628
 20
7239.9854605700248
 30
0.0
  0
VERTEX
  5
91C
  8
LAYER01
 62
     7
 10
6883.1406131158628
 20
7239.9854605700248
 30
0.0
  0
SEQEND
  5
91D
  8
LAYER01
 62
     7
  0
POLYLINE
  5
5E5
  8
LAYER01
 62
     7
 66
     1
 10
0.0
 20
0.0
 30
0.0
 70
     1
  0
VERTEX
  5
91E
  8
LAYER01
 62
     7
 10
6871.2457848673903
 20
7287.5647735639131
 30
0.0
  0
VERTEX
  5
91F
  8
LAYER01
 62
     7
 10
6871.2457848673903
 20
7287.5647735639131
 30
0.0
  0
VERTEX
  5
920
  8
LAYER01
 62
     7
 10
6891.0704986148439
 20
7283.5998308144244
 30
0.0
  0
VERTEX
  5
921
  8
LAYER01
 62
     7
 10
6899.0003841138259
 20
7279.634888064933
 30
0.0
  0
VERTEX
  5
922
  8
LAYER01
 62
     7
 10
6899.0003841138259
 20
7271.705002565951
 30
0.0
  0
VERTEX
  5
923
  8
LAYER01
 62
     7
 10
6899.0003841138259
 20
7271.705002565951
 30
0.0
  0
VERTEX
  5
924
  8
LAYER01
 62
     7
 10
6895.0354413643372
 20
7263.7751170669699
 30
0.0
  0
VERTEX
  5
925
  8
LAYER01
 62
     7
 10
6887.1055558653534
 20
7259.8101743174784
 30
0.0
  0
VERTEX
  5
926
  8
LAYER01
 62
     7
 10
6863.3158993684092
 20
7255.8452315679897
 30
0.0
  0
VERTEX
  5
927
  8
LAYER01
 62
     7
 10
6843.4911856209546
 20
7255.8452315679897
 30
0.0
  0
VERTEX
  5
928
  8
LAYER01
 62
     7
 10
6843.4911856209546
 20
7287.5647735639131
 30
0.0
  0
VERTEX
  5
929
  8
LAYER01
 62
     7
 10
6871.2457848673903
 20
7287.5647735639131
 30
0.0
  0
VERTEX
  5
92A
  8
LAYER01
 62
     7
 10
6871.2457848673903
 20
7287.5647735639131
 30
0.0
  0
SEQEND
  5
92B
  8
LAYER01
 62
     7
  0
ENDBLK
  5
5E6
  8
0
 62
     7
  0
BLOCK
  8
0
  2
*U25
 70
     1
 10
0.0
 20
0.0
 30
0.0
  3
*U25
  1

  0
TEXT
  5
5E9
  8
KERA4___1
 62
   250
 10
-3087.4324907162932
 20
-368.73522580536002
 30
0.0
 40
80.0
  1
http://www.varicor.org
  0
ENDBLK
  5
5EA
  8
0
  0
BLOCK
  8
0
 62
     7
  2
*U27
 70
     1
 10
0.0
 20
0.0
 30
0.0
  3
*U27
  1

  0
TEXT
  5
61D
  8
KERA4
  6
CONTINUOUS
 62
     1
 10
1342.3226249383961
 20
-282.38334274660741
 30
-0.0000005674508523
 40
29.99999894036187
  1
 
  7
BOXER
  0
TEXT
  5
61E
  8
KERA4
  6
CONTINUOUS
 62
     1
 10
1353.966553585781
 20
-282.38334274660741
 30
-0.0000005674508523
 40
35.009998763402301
  1
0 = OKFFB
  7
BOXER
  0
ENDBLK
  5
620
  8
0
 62
     7
  0
BLOCK
  8
0
 62
     7
  2
*U28
 70
     1
 10
0.0
 20
0.0
 30
0.0
  3
*U28
  1

  0
TEXT
  5
622
  8
KERA4
  6
CONTINUOUS
 62
     1
 10
1318.9886362489281
 20
-288.19424257844241
 30
-0.0000005674508523
 40
29.99999894036187
  1
-
  7
BOXER
  0
ENDBLK
  5
624
  8
0
 62
     7
  0
BLOCK
  8
0
 62
     7
  2
*U29
 70
     1
 10
0.0
 20
0.0
 30
0.0
  3
*U29
  1

  0
TEXT
  5
626
  8
KERA4
  6
CONTINUOUS
 62
     1
 10
1314.835436147102
 20
-275.81096531545381
 30
-0.0000005674508523
 40
29.99999894036187
  1
+
  7
BOXER
  0
ENDBLK
  5
628
  8
0
 62
     7
  0
BLOCK
  8
0
 62
     7
  2
*U30
 70
     1
 10
0.0
 20
0.0
 30
0.0
  3
*U30
  1

  0
TEXT
  5
636
  8
KERA4
  6
CONTINUOUS
 10
-1013.327976475318
 20
2859.7812671732722
 30
0.0
 40
50.000001483493378
  1
85
  0
ENDBLK
  5
638
  8
0
 62
     7
  0
BLOCK
  8
0
 62
     7
  2
*U31
 70
     1
 10
0.0
 20
0.0
 30
0.0
  3
*U31
  1

  0
SOLID
  5
644
  8
KERA4
  6
CONTINUOUS
 10
-872.07485761427961
 20
2924.681024708761
 30
0.0
 11
-878.57485761427949
 21
2874.681024708761
 31
0.0
 12
-865.57485761427961
 22
2874.681024708761
 32
0.0
 13
-865.57485761427961
 23
2874.681024708761
 33
0.0
210
0.0
220
0.0
230
1.0
  0
LINE
  5
645
  8
KERA4
  6
CONTINUOUS
 10
-872.07485761427961
 20
2924.681024708761
 30
0.0
 11
-878.57485761427949
 21
2874.681024708761
 31
0.0
  0
LINE
  5
646
  8
KERA4
  6
CONTINUOUS
 10
-865.57485761427961
 20
2874.681024708761
 30
0.0
 11
-872.07485761427961
 21
2924.681024708761
 31
0.0
  0
ENDBLK
  5
648
  8
0
 62
     7
  0
BLOCK
  8
0
 62
     7
  2
*U32
 70
     1
 10
0.0
 20
0.0
 30
0.0
  3
*U32
  1

  0
SOLID
  5
64E
  8
KERA4
  6
CONTINUOUS
 10
878.57485761427949
 20
2424.681024708691
 30
0.0
 11
865.57485761427961
 21
2424.681024708691
 31
0.0
 12
872.07485761427961
 22
2374.6810247086901
 32
0.0
 13
872.07485761427961
 23
2374.6810247086901
 33
0.0
210
0.0
220
0.0
230
-1.0
  0
LINE
  5
64F
  8
KERA4
  6
CONTINUOUS
 10
-865.57485761427961
 20
2424.681024708691
 30
0.0
 11
-872.07485761427961
 21
2374.6810247086901
 31
0.0
  0
LINE
  5
650
  8
KERA4
  6
CONTINUOUS
 10
-872.07485761427961
 20
2374.6810247086901
 30
0.0
 11
-878.57485761427949
 21
2424.681024708691
 31
0.0
  0
ENDBLK
  5
652
  8
0
 62
     7
  0
BLOCK
  8
0
 62
     7
  2
*U33
 70
     1
 10
0.0
 20
0.0
 30
0.0
  3
*U33
  1

  0
TEXT
  5
658
  8
KERA4
  6
CONTINUOUS
 10
-930.12397256987686
 20
2625.107354129696
 30
0.0
 40
50.000001483493378
  1
550
  0
ENDBLK
  5
65A
  8
0
 62
     7
  0
BLOCK
  8
0
 62
     7
  2
*U34
 70
     1
 10
0.0
 20
0.0
 30
0.0
  3
*U34
  1

  0
SOLID
  5
666
  8
KERA4
  6
CONTINUOUS
 10
-1973.8077835578799
 20
2779.6810247087319
 30
0.0
 11
-1980.3077835578811
 21
2729.6810247087319
 31
0.0
 12
-1967.3077835578799
 22
2729.6810247087319
 32
0.0
 13
-1967.3077835578799
 23
2729.6810247087319
 33
0.0
210
0.0
220
0.0
230
1.0
  0
LINE
  5
667
  8
KERA4
  6
CONTINUOUS
 10
-1973.8077835578799
 20
2779.6810247087319
 30
0.0
 11
-1980.3077835578811
 21
2729.6810247087319
 31
0.0
  0
LINE
  5
668
  8
KERA4
  6
CONTINUOUS
 10
-1967.3077835578799
 20
2729.6810247087319
 30
0.0
 11
-1973.8077835578799
 21
2779.6810247087319
 31
0.0
  0
ENDBLK
  5
66A
  8
0
 62
     7
  0
BLOCK
  8
0
 62
     7
  2
*U35
 70
     1
 10
0.0
 20
0.0
 30
0.0
  3
*U35
  1

  0
SOLID
  5
670
  8
KERA4
  6
CONTINUOUS
 10
1980.3077835578811
 20
2479.6810247087128
 30
0.0
 11
1967.3077835578799
 21
2479.6810247087128
 31
0.0
 12
1973.8077835578799
 22
2429.6810247087142
 32
0.0
 13
1973.8077835578799
 23
2429.6810247087142
 33
0.0
210
0.0
220
0.0
230
-1.0
  0
LINE
  5
671
  8
KERA4
  6
CONTINUOUS
 10
-1967.3077835578799
 20
2479.6810247087128
 30
0.0
 11
-1973.8077835578799
 21
2429.6810247087142
 31
0.0
  0
LINE
  5
672
  8
KERA4
  6
CONTINUOUS
 10
-1973.8077835578799
 20
2429.6810247087142
 30
0.0
 11
-1980.3077835578811
 21
2479.6810247087128
 31
0.0
  0
ENDBLK
  5
674
  8
0
 62
     7
  0
BLOCK
  8
0
 62
     7
  2
*U36
 70
     1
 10
0.0
 20
0.0
 30
0.0
  3
*U36
  1

  0
TEXT
  5
67A
  8
KERA4
  6
CONTINUOUS
 10
-2031.873951719987
 20
2580.1244073362018
 30
0.0
 40
50.000001483493378
  1
350
  0
ENDBLK
  5
67C
  8
0
 62
     7
  0
BLOCK
  8
0
 62
     7
  2
*U37
 70
     1
 10
0.0
 20
0.0
 30
0.0
  3
*U37
  1

  0
SOLID
  5
68A
  8
KERA4
  6
CONTINUOUS
 10
-1973.8077835578799
 20
2779.6810247087319
 30
0.0
 11
-1980.3077835578811
 21
2729.6810247087319
 31
0.0
 12
-1967.3077835578799
 22
2729.6810247087319
 32
0.0
 13
-1967.3077835578799
 23
2729.6810247087319
 33
0.0
210
0.0
220
0.0
230
1.0
  0
LINE
  5
68B
  8
KERA4
  6
CONTINUOUS
 10
-1973.8077835578799
 20
2779.6810247087319
 30
0.0
 11
-1980.3077835578811
 21
2729.6810247087319
 31
0.0
  0
LINE
  5
68C
  8
KERA4
  6
CONTINUOUS
 10
-1967.3077835578799
 20
2729.6810247087319
 30
0.0
 11
-1973.8077835578799
 21
2779.6810247087319
 31
0.0
  0
ENDBLK
  5
68E
  8
0
 62
     7
  0
BLOCK
  8
0
 62
     7
  2
*U38
 70
     1
 10
0.0
 20
0.0
 30
0.0
  3
*U38
  1

  0
SOLID
  5
694
  8
KERA4
  6
CONTINUOUS
 10
1980.3077835578811
 20
2974.681024708761
 30
0.0
 11
1967.3077835578799
 21
2974.681024708761
 31
0.0
 12
1973.8077835578799
 22
2924.681024708761
 32
0.0
 13
1973.8077835578799
 23
2924.681024708761
 33
0.0
210
0.0
220
0.0
230
-1.0
  0
LINE
  5
695
  8
KERA4
  6
CONTINUOUS
 10
-1967.3077835578799
 20
2974.681024708761
 30
0.0
 11
-1973.8077835578799
 21
2924.681024708761
 31
0.0
  0
LINE
  5
696
  8
KERA4
  6
CONTINUOUS
 10
-1973.8077835578799
 20
2924.681024708761
 30
0.0
 11
-1980.3077835578811
 21
2974.681024708761
 31
0.0
  0
ENDBLK
  5
698
  8
0
 62
     7
  0
BLOCK
  8
0
 62
     7
  2
*U39
 70
     1
 10
0.0
 20
0.0
 30
0.0
  3
*U39
  1

  0
TEXT
  5
69E
  8
KERA4
  6
CONTINUOUS
 10
-2034.483092315817
 20
2827.6073541297169
 30
0.0
 40
50.000001483493378
  1
145
  0
ENDBLK
  5
6A0
  8
0
 62
     7
  0
BLOCK
  8
0
 62
     7
  2
*U40
 70
     1
 10
0.0
 20
0.0
 30
0.0
  3
*U40
  1

  0
SOLID
  5
6AC
  8
KERA4
  6
CONTINUOUS
 10
-1660.265385258024
 20
2251.7056265972592
 30
0.0
 11
-1710.265385258024
 21
2245.2056265972592
 31
0.0
 12
-1660.265385258024
 22
2245.2056265972592
 32
0.0
 13
-1660.265385258024
 23
2245.2056265972592
 33
0.0
210
0.0
220
0.0
230
1.0
  0
SOLID
  5
6AD
  8
KERA4
  6
CONTINUOUS
 10
1710.265385258024
 20
2245.2056265972592
 30
0.0
 11
1660.265385258024
 21
2245.2056265972592
 31
0.0
 12
1660.265385258024
 22
2238.7056265972592
 32
0.0
 13
1660.265385258024
 23
2238.7056265972592
 33
0.0
210
0.0
220
0.0
230
-1.0
  0
LINE
  5
6AE
  8
KERA4
  6
CONTINUOUS
 10
-1660.265385258024
 20
2251.7056265972592
 30
0.0
 11
-1710.265385258024
 21
2245.2056265972592
 31
0.0
  0
LINE
  5
6AF
  8
KERA4
  6
CONTINUOUS
 10
-1660.265385258024
 20
2245.2056265972592
 30
0.0
 11
-1660.265385258024
 21
2251.7056265972592
 31
0.0
  0
LINE
  5
6B0
  8
KERA4
  6
CONTINUOUS
 10
-1660.265385258024
 20
2245.2056265972592
 30
0.0
 11
-1660.265385258024
 21
2238.7056265972592
 31
0.0
  0
LINE
  5
6B1
  8
KERA4
  6
CONTINUOUS
 10
-1660.265385258024
 20
2238.7056265972592
 30
0.0
 11
-1710.265385258024
 21
2245.2056265972592
 31
0.0
  0
ENDBLK
  5
6B3
  8
0
 62
     7
  0
BLOCK
  8
0
 62
     7
  2
*U41
 70
     1
 10
0.0
 20
0.0
 30
0.0
  3
*U41
  1

  0
SOLID
  5
6B9
  8
KERA4
  6
CONTINUOUS
 10
-1292.265385258024
 20
2251.7056265972592
 30
0.0
 11
-1292.265385258024
 21
2245.2056265972592
 31
0.0
 12
-1242.265385258024
 22
2245.2056265972592
 32
0.0
 13
-1242.265385258024
 23
2245.2056265972592
 33
0.0
210
0.0
220
0.0
230
1.0
  0
SOLID
  5
6BA
  8
KERA4
  6
CONTINUOUS
 10
1292.265385258024
 20
2245.2056265972592
 30
0.0
 11
1242.265385258024
 21
2245.2056265972592
 31
0.0
 12
1292.265385258024
 22
2238.7056265972592
 32
0.0
 13
1292.265385258024
 23
2238.7056265972592
 33
0.0
210
0.0
220
0.0
230
-1.0
  0
LINE
  5
6BB
  8
KERA4
  6
CONTINUOUS
 10
-1292.265385258024
 20
2251.7056265972592
 30
0.0
 11
-1292.265385258024
 21
2245.2056265972592
 31
0.0
  0
LINE
  5
6BC
  8
KERA4
  6
CONTINUOUS
 10
-1242.265385258024
 20
2245.2056265972592
 30
0.0
 11
-1292.265385258024
 21
2251.7056265972592
 31
0.0
  0
LINE
  5
6BD
  8
KERA4
  6
CONTINUOUS
 10
-1242.265385258024
 20
2245.2056265972592
 30
0.0
 11
-1292.265385258024
 21
2238.7056265972592
 31
0.0
  0
LINE
  5
6BE
  8
KERA4
  6
CONTINUOUS
 10
-1292.265385258024
 20
2238.7056265972592
 30
0.0
 11
-1292.265385258024
 21
2245.2056265972592
 31
0.0
  0
ENDBLK
  5
6C0
  8
0
 62
     7
  0
BLOCK
  8
0
 62
     7
  2
*U42
 70
     1
 10
0.0
 20
0.0
 30
0.0
  3
*U42
  1

  0
TEXT
  5
6C6
  8
KERA4
  6
CONTINUOUS
 10
-1533.4447866816779
 20
2220.6319560182292
 30
0.0
 40
50.000001483493378
  1
468
  0
ENDBLK
  5
6C8
  8
0
 62
     7
  0
BLOCK
  8
0
 62
     7
  2
*U43
 70
     1
 10
0.0
 20
0.0
 30
0.0
  3
*U43
  1

  0
TEXT
  5
6CA
  8
KERA4
  6
CONTINUOUS
 10
-997.52343286722748
 20
2125.776617003502
 30
0.0
 40
50.000001483493378
  1
40
  0
ENDBLK
  5
6CC
  8
0
 62
     7
  0
BLOCK
  8
0
 62
     7
  2
*U44
 70
     1
 10
0.0
 20
0.0
 30
0.0
  3
*U44
  1

  0
TEXT
  5
6CE
  8
KERA4
  6
CONTINUOUS
 10
-1388.6173645460799
 20
2125.776617003502
 30
0.0
 40
50.000001483493378
  1
40
  0
ENDBLK
  5
6D0
  8
0
 62
     7
  0
BLOCK
  8
0
 62
     7
  2
*U45
 70
     1
 10
0.0
 20
0.0
 30
0.0
  3
*U45
  1

  0
SOLID
  5
6DC
  8
KERA4
  6
CONTINUOUS
 10
-1776.265385258019
 20
3058.390305720432
 30
0.0
 11
-1826.2653852580199
 21
3051.890305720432
 31
0.0
 12
-1776.265385258019
 22
3051.890305720432
 32
0.0
 13
-1776.265385258019
 23
3051.890305720432
 33
0.0
210
0.0
220
0.0
230
1.0
  0
SOLID
  5
6DD
  8
KERA4
  6
CONTINUOUS
 10
1826.2653852580199
 20
3051.890305720432
 30
0.0
 11
1776.265385258019
 21
3051.890305720432
 31
0.0
 12
1776.265385258019
 22
3045.3903057204311
 32
0.0
 13
1776.265385258019
 23
3045.3903057204311
 33
0.0
210
0.0
220
0.0
230
-1.0
  0
LINE
  5
6DE
  8
KERA4
  6
CONTINUOUS
 10
-1776.265385258019
 20
3058.390305720432
 30
0.0
 11
-1826.2653852580199
 21
3051.890305720432
 31
0.0
  0
LINE
  5
6DF
  8
KERA4
  6
CONTINUOUS
 10
-1776.265385258019
 20
3051.890305720432
 30
0.0
 11
-1776.265385258019
 21
3058.390305720432
 31
0.0
  0
LINE
  5
6E0
  8
KERA4
  6
CONTINUOUS
 10
-1776.265385258019
 20
3051.890305720432
 30
0.0
 11
-1776.265385258019
 21
3045.3903057204311
 31
0.0
  0
LINE
  5
6E1
  8
KERA4
  6
CONTINUOUS
 10
-1776.265385258019
 20
3045.3903057204311
 30
0.0
 11
-1826.2653852580199
 21
3051.890305720432
 31
0.0
  0
ENDBLK
  5
6E3
  8
0
 62
     7
  0
BLOCK
  8
0
 62
     7
  2
*U46
 70
     1
 10
0.0
 20
0.0
 30
0.0
  3
*U46
  1

  0
SOLID
  5
6E9
  8
KERA4
  6
CONTINUOUS
 10
-1176.2653852580279
 20
3058.390305720432
 30
0.0
 11
-1176.2653852580279
 21
3051.890305720432
 31
0.0
 12
-1126.265385258029
 22
3051.890305720432
 32
0.0
 13
-1126.265385258029
 23
3051.890305720432
 33
0.0
210
0.0
220
0.0
230
1.0
  0
SOLID
  5
6EA
  8
KERA4
  6
CONTINUOUS
 10
1176.2653852580279
 20
3051.890305720432
 30
0.0
 11
1126.265385258029
 21
3051.890305720432
 31
0.0
 12
1176.2653852580279
 22
3045.3903057204311
 32
0.0
 13
1176.2653852580279
 23
3045.3903057204311
 33
0.0
210
0.0
220
0.0
230
-1.0
  0
LINE
  5
6EB
  8
KERA4
  6
CONTINUOUS
 10
-1176.2653852580279
 20
3058.390305720432
 30
0.0
 11
-1176.2653852580279
 21
3051.890305720432
 31
0.0
  0
LINE
  5
6EC
  8
KERA4
  6
CONTINUOUS
 10
-1126.265385258029
 20
3051.890305720432
 30
0.0
 11
-1176.2653852580279
 21
3058.390305720432
 31
0.0
  0
LINE
  5
6ED
  8
KERA4
  6
CONTINUOUS
 10
-1126.265385258029
 20
3051.890305720432
 30
0.0
 11
-1176.2653852580279
 21
3045.3903057204311
 31
0.0
  0
LINE
  5
6EE
  8
KERA4
  6
CONTINUOUS
 10
-1176.2653852580279
 20
3045.3903057204311
 30
0.0
 11
-1176.2653852580279
 21
3051.890305720432
 31
0.0
  0
ENDBLK
  5
6F0
  8
0
 62
     7
  0
BLOCK
  8
0
 62
     7
  2
*U47
 70
     1
 10
0.0
 20
0.0
 30
0.0
  3
*U47
  1

  0
TEXT
  5
6F6
  8
KERA4
  6
CONTINUOUS
 10
-1534.5191386917261
 20
3027.316635141402
 30
0.0
 40
50.000001483493378
  1
700
  0
ENDBLK
  5
6F8
  8
0
 62
     7
  0
BLOCK
  8
0
 62
     7
  2
*U48
 70
     1
 10
0.0
 20
0.0
 30
0.0
  3
*U48
  1

  0
TEXT
  5
6FA
  8
KERA4
  6
CONTINUOUS
 10
-1012.952805932127
 20
2787.2812671732581
 30
0.0
 40
50.000001483493378
  1
60
  0
ENDBLK
  5
6FC
  8
0
 62
     7
  0
BLOCK
  8
0
 62
     7
  2
*U49
 70
     1
 10
0.0
 20
0.0
 30
0.0
  3
*U49
  1

  0
TEXT
  5
706
  8
KERA4
  6
CONTINUOUS
 10
-436.89044009760238
 20
1930.507660907746
 30
0.0
 40
50.000001483493378
  1
20
  0
ENDBLK
  5
708
  8
0
 62
     7
  0
BLOCK
  8
0
 62
     7
  2
*U50
 70
     1
 10
0.0
 20
0.0
 30
0.0
  3
*U50
  1

  0
TEXT
  5
70A
  8
KERA4
  6
CONTINUOUS
 10
461.38775103006492
 20
2167.7000113476361
 30
0.0
 40
50.000001483493378
  1
10
  0
ENDBLK
  5
70C
  8
0
 62
     7
  0
BLOCK
  8
0
 62
     7
  2
*U51
 70
     1
 10
0.0
 20
0.0
 30
0.0
  3
*U51
  1

  0
TEXT
  5
71A
  8
KERA4
  6
CONTINUOUS
 10
-968.41996492539135
 20
1722.579091598438
 30
0.0
 40
50.000001483493378
  1
85
  0
ENDBLK
  5
71C
  8
0
 62
     7
  0
BLOCK
  8
0
 62
     7
  2
*U52
 70
     1
 10
0.0
 20
0.0
 30
0.0
  3
*U52
  1

  0
TEXT
  5
71E
  8
KERA4
  6
CONTINUOUS
 10
-968.04479438220085
 20
1650.0790915984239
 30
0.0
 40
50.000001483493378
  1
60
  0
ENDBLK
  5
720
  8
0
 62
     7
  0
BLOCK
  8
0
 62
     7
  2
*U53
 70
     1
 10
0.0
 20
0.0
 30
0.0
  3
*U53
  1

  0
TEXT
  5
722
  8
KERA4
  6
CONTINUOUS
 10
-885.21595929764089
 20
1487.90517928396
 30
0.0
 40
50.0
  1
550
  0
ENDBLK
  5
724
  8
0
 62
     7
  0
BLOCK
  8
0
 62
     7
  2
*U54
 70
     1
 10
0.0
 20
0.0
 30
0.0
  3
*U54
  1

  0
TEXT
  5
726
  8
KERA4
  6
CONTINUOUS
 10
-1986.965938447245
 20
1442.922232489959
 30
0.0
 40
50.0
  1
350
  0
ENDBLK
  5
728
  8
0
 62
     7
  0
BLOCK
  8
0
 62
     7
  2
*U55
 70
     1
 10
0.0
 20
0.0
 30
0.0
  3
*U55
  1

  0
TEXT
  5
72A
  8
KERA4
  6
CONTINUOUS
 10
-1989.575078965662
 20
1690.40517928398
 30
0.0
 40
50.0
  1
145
  0
ENDBLK
  5
72C
  8
0
 62
     7
  0
BLOCK
  8
0
 62
     7
  2
*U56
 70
     1
 10
0.0
 20
0.0
 30
0.0
  3
*U56
  1

  0
TEXT
  5
72E
  8
KERA4
  6
CONTINUOUS
 10
-1488.536773435246
 20
1083.429781172493
 30
0.0
 40
50.0
  1
468
  0
ENDBLK
  5
730
  8
0
 62
     7
  0
BLOCK
  8
0
 62
     7
  2
*U57
 70
     1
 10
0.0
 20
0.0
 30
0.0
  3
*U57
  1

  0
TEXT
  5
732
  8
0
  6
CONTINUOUS
 10
-1491.7350318191629
 20
1913.682574690399
 30
0.0
 40
50.0
  1
600
  0
ENDBLK
  5
734
  8
0
 62
     7
  0
BLOCK
  8
0
 62
     7
  2
*U58
 70
     1
 10
0.0
 20
0.0
 30
0.0
  3
*U58
  1

  0
TEXT
  5
736
  8
KERA4
  6
CONTINUOUS
 10
539.00181673023053
 20
2035.946295003987
 30
0.0
 40
50.0
  1
115
  0
ENDBLK
  5
738
  8
0
 62
     7
  0
BLOCK
  8
0
 62
     7
  2
*U59
 70
     1
 10
0.0
 20
0.0
 30
0.0
  3
*U59
  1

  0
TEXT
  5
73A
  8
KERA4
  6
CONTINUOUS
 10
283.96302667873692
 20
2204.233945204563
 30
0.0
 40
50.0
  1
85
  0
ENDBLK
  5
73C
  8
0
 62
     7
  0
BLOCK
  8
0
 62
     7
  2
*U60
 70
     1
 10
0.0
 20
0.0
 30
0.0
  3
*U60
  1

  0
TEXT
  5
73E
  8
KERA4
  6
CONTINUOUS
 10
-13.7607718305826
 20
2315.8859201763362
 30
0.0
 40
50.0
  1
350
  0
ENDBLK
  5
740
  8
0
 62
     7
  0
BLOCK
  8
0
 62
     7
  2
*U61
 70
     1
 10
0.0
 20
0.0
 30
0.0
  3
*U61
  1

  0
TEXT
  5
742
  8
KERA4
  6
CONTINUOUS
 10
232.1664075219384
 20
2315.8688669703329
 30
0.0
 40
50.0
  1
145
  0
ENDBLK
  5
744
  8
0
 62
     7
  0
BLOCK
  8
0
 62
     7
  2
*U62
 70
     1
 10
0.0
 20
0.0
 30
0.0
  3
*U62
  1

  0
TEXT
  5
746
  8
KERA4
  6
CONTINUOUS
 10
-377.19802253772201
 20
2315.8688669703338
 30
0.0
 40
50.0
  1
55
  0
ENDBLK
  5
748
  8
0
 62
     7
  0
BLOCK
  8
0
 62
     7
  2
*U63
 70
     1
 10
0.0
 20
0.0
 30
0.0
  3
*U63
  1

  0
TEXT
  5
74A
  8
KERA4
  6
CONTINUOUS
 10
200.0508394201407
 20
1758.0174142774979
 30
0.0
 40
50.0
  1
215
  0
ENDBLK
  5
74C
  8
0
 62
     7
  0
BLOCK
  8
0
 62
     7
  2
*U64
 70
     1
 10
0.0
 20
0.0
 30
0.0
  3
*U64
  1

  0
TEXT
  5
74E
  8
KERA4
  6
CONTINUOUS
 10
-314.8648627593135
 20
2040.3883589321481
 30
0.0
 40
50.0
  1
85
  0
ENDBLK
  5
750
  8
0
 62
     7
  0
BLOCK
  8
0
 62
     7
  2
*U65
 70
     1
 10
0.0
 20
0.0
 30
0.0
  3
*U65
  1

  0
TEXT
  5
752
  8
KERA4
  6
CONTINUOUS
 10
-54.776316663278259
 20
1862.451398011463
 30
0.0
 40
50.0
  1
46
  0
ENDBLK
  5
754
  8
0
 62
     7
  0
ENDSEC
  0
SECTION
  2
ENTITIES
  0
LINE
  5
91
  8
KERA0
 39
2.25
 10
-1126.265385258029
 20
2379.6810247087278
 30
0.0
 11
-1126.265385258029
 21
2924.681024708761
 31
0.0
1001
ACAD
1000
TCW40_DEV_WIDTH
1002
{
1040
-3.0
1002
}
  0
LINE
  5
92
  8
KERA0
 39
2.25
 10
-1126.265385258029
 20
2924.681024708761
 30
0.0
 11
-1476.2653852580299
 21
2924.681024708761
 31
0.0
1001
ACAD
1000
TCW40_DEV_WIDTH
1002
{
1040
-3.0
1002
}
  0
LINE
  5
93
  8
KERA0
 39
2.25
 10
-1476.2653852580179
 20
2374.6810247086901
 30
0.0
 11
-1131.2653852580211
 21
2374.6810247086901
 31
0.0
1001
ACAD
1000
TCW40_DEV_WIDTH
1002
{
1040
-3.0
1002
}
  0
LINE
  5
94
  8
KERA0
 39
2.25
 10
-1126.265385258029
 20
2912.681024708741
 30
0.0
 11
-1476.2653852580299
 21
2912.681024708741
 31
0.0
1001
ACAD
1000
TCW40_DEV_WIDTH
1002
{
1040
-3.0
1002
}
  0
LINE
  5
95
  8
KERA0
 39
2.25
 10
-1166.2653852580199
 20
2439.6810247087919
 30
0.0
 11
-1166.2653852580199
 21
2769.6810247087451
 31
0.0
1001
ACAD
1000
TCW40_DEV_WIDTH
1002
{
1040
-3.0
1002
}
  0
LINE
  5
96
  8
KERA0
 39
2.25
 10
-1206.265385258022
 20
2439.6810247087919
 30
0.0
 11
-1206.265385258022
 21
2769.6810247087451
 31
0.0
1001
ACAD
1000
TCW40_DEV_WIDTH
1002
{
1040
-3.0
1002
}
  0
LINE
  5
97
  8
KERA0
 39
2.25
 10
-1196.265385258024
 20
2429.6810247087142
 30
0.0
 11
-1176.2653852580279
 21
2429.6810247087142
 31
0.0
1001
ACAD
1000
TCW40_DEV_WIDTH
1002
{
1040
-3.0
1002
}
  0
ARC
  5
98
  8
KERA0
 39
2.25
 10
-1176.2653852580279
 20
2439.6810247087919
 30
0.0
 40
10.0
 50
-90.0
 51
0.0
1001
ACAD
1000
TCW40_DEV_WIDTH
1002
{
1040
-3.0
1002
}
  0
ARC
  5
99
  8
KERA0
 39
2.25
 10
-1196.265385258024
 20
2439.6810247087919
 30
0.0
 40
10.0
 50
180.0
 51
270.0
1001
ACAD
1000
TCW40_DEV_WIDTH
1002
{
1040
-3.0
1002
}
  0
LINE
  5
9A
  8
KERA0
 39
2.25
 10
-1476.2653852580179
 20
2429.6810247087142
 30
0.0
 11
-1252.265385258022
 21
2429.6810247087142
 31
0.0
1001
ACAD
1000
TCW40_DEV_WIDTH
1002
{
1040
-3.0
1002
}
  0
LINE
  5
9B
  8
KERA0
 39
2.25
 10
-1242.265385258024
 20
2439.6810247087919
 30
0.0
 11
-1242.265385258024
 21
2769.6810247087451
 31
0.0
1001
ACAD
1000
TCW40_DEV_WIDTH
1002
{
1040
-3.0
1002
}
  0
ARC
  5
9C
  8
KERA0
 39
2.25
 10
-1252.265385258022
 20
2439.6810247087919
 30
0.0
 40
10.0
 50
-90.0
 51
0.0
1001
ACAD
1000
TCW40_DEV_WIDTH
1002
{
1040
-3.0
1002
}
  0
LINE
  5
9D
  8
KERA0
 39
2.25
 10
-1252.265385258022
 20
2779.6810247087319
 30
0.0
 11
-1476.2653852580299
 21
2779.6810247087319
 31
0.0
1001
ACAD
1000
TCW40_DEV_WIDTH
1002
{
1040
-3.0
1002
}
  0
ARC
  5
9E
  8
KERA0
 39
2.25
 10
-1252.265385258022
 20
2769.6810247087451
 30
0.0
 40
10.0
 50
0.0
 51
90.0
1001
ACAD
1000
TCW40_DEV_WIDTH
1002
{
1040
-3.0
1002
}
  0
LINE
  5
9F
  8
KERA0
 39
2.25
 10
-1196.265385258024
 20
2779.6810247087319
 30
0.0
 11
-1176.2653852580279
 21
2779.6810247087319
 31
0.0
1001
ACAD
1000
TCW40_DEV_WIDTH
1002
{
1040
-3.0
1002
}
  0
ARC
  5
A0
  8
KERA0
 39
2.25
 10
-1176.2653852580279
 20
2769.6810247087451
 30
0.0
 40
10.0
 50
0.0
 51
90.0
1001
ACAD
1000
TCW40_DEV_WIDTH
1002
{
1040
-3.0
1002
}
  0
ARC
  5
A1
  8
KERA0
 39
2.25
 10
-1196.265385258024
 20
2769.6810247087451
 30
0.0
 40
10.0
 50
90.0
 51
180.0
1001
ACAD
1000
TCW40_DEV_WIDTH
1002
{
1040
-3.0
1002
}
  0
ARC
  5
A2
  8
KERA0
 39
2.25
 10
-1131.2653852580211
 20
2379.6810247087278
 30
0.0
 40
5.0
 50
-90.0
 51
0.0
1001
ACAD
1000
TCW40_DEV_WIDTH
1002
{
1040
-3.0
1002
}
  0
LINE
  5
A3
  8
KERA0
 39
2.25
 10
-1826.2653852580199
 20
2379.6810247087278
 30
0.0
 11
-1826.2653852580199
 21
2924.681024708761
 31
0.0
1001
ACAD
1000
TCW40_DEV_WIDTH
1002
{
1040
-3.0
1002
}
  0
LINE
  5
A4
  8
KERA0
 39
2.25
 10
-1826.2653852580199
 20
2924.681024708761
 30
0.0
 11
-1476.2653852580299
 21
2924.681024708761
 31
0.0
1001
ACAD
1000
TCW40_DEV_WIDTH
1002
{
1040
-3.0
1002
}
  0
LINE
  5
A5
  8
KERA0
 39
2.25
 10
-1476.2653852580179
 20
2374.6810247086901
 30
0.0
 11
-1821.2653852580149
 21
2374.6810247086901
 31
0.0
1001
ACAD
1000
TCW40_DEV_WIDTH
1002
{
1040
-3.0
1002
}
  0
LINE
  5
A6
  8
KERA0
 39
2.25
 10
-1826.2653852580199
 20
2912.681024708741
 30
0.0
 11
-1476.2653852580299
 21
2912.681024708741
 31
0.0
1001
ACAD
1000
TCW40_DEV_WIDTH
1002
{
1040
-3.0
1002
}
  0
LINE
  5
A7
  8
KERA0
 39
2.25
 10
-1786.265385258017
 20
2439.6810247087919
 30
0.0
 11
-1786.265385258017
 21
2769.6810247087451
 31
0.0
1001
ACAD
1000
TCW40_DEV_WIDTH
1002
{
1040
-3.0
1002
}
  0
LINE
  5
A8
  8
KERA0
 39
2.25
 10
-1746.2653852580261
 20
2439.6810247087919
 30
0.0
 11
-1746.2653852580261
 21
2769.6810247087451
 31
0.0
1001
ACAD
1000
TCW40_DEV_WIDTH
1002
{
1040
-3.0
1002
}
  0
LINE
  5
A9
  8
KERA0
 39
2.25
 10
-1756.2653852580229
 20
2429.6810247087142
 30
0.0
 11
-1776.265385258019
 21
2429.6810247087142
 31
0.0
1001
ACAD
1000
TCW40_DEV_WIDTH
1002
{
1040
-3.0
1002
}
  0
ARC
  5
AA
  8
KERA0
 39
2.25
 10
-1776.265385258019
 20
2439.6810247087919
 30
0.0
 40
10.0
 50
180.0
 51
270.0
1001
ACAD
1000
TCW40_DEV_WIDTH
1002
{
1040
-3.0
1002
}
  0
ARC
  5
AB
  8
KERA0
 39
2.25
 10
-1756.2653852580229
 20
2439.6810247087919
 30
0.0
 40
10.0
 50
-90.0
 51
0.0
1001
ACAD
1000
TCW40_DEV_WIDTH
1002
{
1040
-3.0
1002
}
  0
LINE
  5
AC
  8
KERA0
 39
2.25
 10
-1476.2653852580179
 20
2429.6810247087142
 30
0.0
 11
-1700.2653852580261
 21
2429.6810247087142
 31
0.0
1001
ACAD
1000
TCW40_DEV_WIDTH
1002
{
1040
-3.0
1002
}
  0
LINE
  5
AD
  8
KERA0
 39
2.25
 10
-1710.265385258024
 20
2439.6810247087919
 30
0.0
 11
-1710.265385258024
 21
2769.6810247087451
 31
0.0
1001
ACAD
1000
TCW40_DEV_WIDTH
1002
{
1040
-3.0
1002
}
  0
ARC
  5
AE
  8
KERA0
 39
2.25
 10
-1700.2653852580261
 20
2439.6810247087919
 30
0.0
 40
10.0
 50
180.0
 51
270.0
1001
ACAD
1000
TCW40_DEV_WIDTH
1002
{
1040
-3.0
1002
}
  0
LINE
  5
AF
  8
KERA0
 39
2.25
 10
-1700.2653852580261
 20
2779.6810247087319
 30
0.0
 11
-1476.2653852580299
 21
2779.6810247087319
 31
0.0
1001
ACAD
1000
TCW40_DEV_WIDTH
1002
{
1040
-3.0
1002
}
  0
ARC
  5
B0
  8
KERA0
 39
2.25
 10
-1700.2653852580261
 20
2769.6810247087451
 30
0.0
 40
10.0
 50
90.0
 51
180.0
1001
ACAD
1000
TCW40_DEV_WIDTH
1002
{
1040
-3.0
1002
}
  0
LINE
  5
B1
  8
KERA0
 39
2.25
 10
-1756.2653852580229
 20
2779.6810247087319
 30
0.0
 11
-1776.265385258019
 21
2779.6810247087319
 31
0.0
1001
ACAD
1000
TCW40_DEV_WIDTH
1002
{
1040
-3.0
1002
}
  0
ARC
  5
B2
  8
KERA0
 39
2.25
 10
-1776.265385258019
 20
2769.6810247087451
 30
0.0
 40
10.0
 50
90.0
 51
180.0
1001
ACAD
1000
TCW40_DEV_WIDTH
1002
{
1040
-3.0
1002
}
  0
ARC
  5
B3
  8
KERA0
 39
2.25
 10
-1756.2653852580229
 20
2769.6810247087451
 30
0.0
 40
10.0
 50
0.0
 51
90.0
1001
ACAD
1000
TCW40_DEV_WIDTH
1002
{
1040
-3.0
1002
}
  0
ARC
  5
B4
  8
KERA0
 39
2.25
 10
-1821.2653852580149
 20
2379.6810247087278
 30
0.0
 40
5.0
 50
180.0
 51
270.0
1001
ACAD
1000
TCW40_DEV_WIDTH
1002
{
1040
-3.0
1002
}
  0
LINE
  5
B5
  8
KERA0
 10
-1826.2653852580199
 20
2924.681024708761
 30
0.0
 11
-1126.265385258029
 21
2924.681024708761
 31
0.0
1001
ACAD
1000
TCW40_DEV_WIDTH
1002
{
1040
-3.0
1002
}
  0
LINE
  5
B6
  8
KERA2
 10
-1476.265385258024
 20
2751.35550031409
 30
495.897101469174
 11
-1476.265385258024
 21
2668.0065491034729
 31
495.897101469174
1001
ACAD
1000
TCW40_DEV_WIDTH
1002
{
1040
-3.0
1002
}
  0
LINE
  5
B7
  8
KERA2
 10
-1517.9398608633319
 20
2709.681024708781
 30
495.897101469174
 11
-1434.5909096527159
 21
2709.681024708781
 31
495.897101469174
1001
ACAD
1000
TCW40_DEV_WIDTH
1002
{
1040
-3.0
1002
}
  0
POLYLINE
  5
B8
  8
KERA0
 66
     1
 10
0.0
 20
0.0
 30
495.897101469174
 70
     1
 40
0.015748031437397
 41
0.015748031437397
  0
VERTEX
  5
629
  8
KERA0
 10
-1453.265385258024
 20
2709.681024708781
 30
495.897101469174
 42
0.4142135623731
  0
VERTEX
  5
62A
  8
KERA0
 10
-1476.265385258024
 20
2732.681024708781
 30
495.897101469174
 42
2.414213562372999
  0
VERTEX
  5
62B
  8
KERA0
 10
-1453.265385258024
 20
2709.681024708781
 30
495.897101469174
  0
SEQEND
  5
62C
  8
KERA0
  0
POLYLINE
  5
BD
  8
KERA4
 66
     1
 10
0.0
 20
0.0
 30
495.897101469174
 70
     1
 40
0.0070866141468287
 41
0.0070866141468287
  0
VERTEX
  5
62D
  8
KERA4
 10
-1444.265385258024
 20
2709.681024708781
 30
495.897101469174
 42
0.4142135623731
  0
VERTEX
  5
62E
  8
KERA4
 10
-1476.265385258024
 20
2741.681024708781
 30
495.897101469174
 42
2.414213562372999
  0
VERTEX
  5
62F
  8
KERA4
 10
-1444.265385258024
 20
2709.681024708781
 30
495.897101469174
  0
SEQEND
  5
630
  8
KERA4
  0
LINE
  5
C2
  8
KERA2
 10
-1501.265385258064
 20
2839.681024708887
 30
0.0
 11
-1451.2653852578819
 21
2839.681024708887
 31
0.0
1001
ACAD
1000
TCW40_DEV_WIDTH
1002
{
1040
-3.0
1002
}
  0
LINE
  5
C3
  8
KERA2
 10
-1476.2653852579731
 20
2864.6810247088638
 30
0.0
 11
-1476.2653852579731
 21
2814.6810247089088
 31
0.0
1001
ACAD
1000
TCW40_DEV_WIDTH
1002
{
1040
-3.0
1002
}
  0
POLYLINE
  5
C4
  8
KERA0
  6
CONTINUOUS
 66
     1
 10
0.0
 20
0.0
 30
0.0
 70
     1
 40
0.015748031437397
 41
0.015748031437397
  0
VERTEX
  5
631
  8
KERA0
  6
CONTINUOUS
 10
-1456.2653852579731
 20
2839.681024708887
 30
0.0
 42
0.4142135623731
  0
VERTEX
  5
632
  8
KERA0
  6
CONTINUOUS
 10
-1476.2653852579731
 20
2859.681024708887
 30
0.0
 42
2.414213562372999
  0
VERTEX
  5
633
  8
KERA0
  6
CONTINUOUS
 10
-1456.2653852579731
 20
2839.681024708887
 30
0.0
  0
SEQEND
  5
634
  8
KERA0
  6
CONTINUOUS
  0
LINE
  5
C9
  8
KERA2
 10
-1501.265385258064
 20
2839.6810247087728
 30
0.0
 11
-1451.2653852579949
 21
2839.6810247087728
 31
0.0
1001
ACAD
1000
TCW40_DEV_WIDTH
1002
{
1040
-3.0
1002
}
  0
LINE
  5
CA
  8
KERA2
 10
-1476.2653852579731
 20
2864.6810247088638
 30
0.0
 11
-1476.2653852579731
 21
2814.6810247089088
 31
0.0
1001
ACAD
1000
TCW40_DEV_WIDTH
1002
{
1040
-3.0
1002
}
  0
LINE
  5
CB
  8
KERA4
 10
-1111.265385258029
 20
2924.681024708761
 30
0.0
 11
-959.46371884200187
 21
2924.6810247087601
 31
0.0
1001
ACAD
1000
TCW40_DEV_WIDTH
1002
{
1040
-3.0
1002
}
  0
LINE
  5
CC
  8
KERA4
 10
-1436.2653852578819
 20
2839.681024708887
 30
0.0
 11
-959.46371884200187
 21
2839.6810247088861
 31
0.0
1001
ACAD
1000
TCW40_DEV_WIDTH
1002
{
1040
-3.0
1002
}
  0
LINE
  5
CD
  8
KERA4
 10
-974.46371884200198
 20
2974.6810247087601
 30
0.0
 11
-974.46371884200198
 21
3024.6810247087601
 31
0.0
1001
ACAD
1000
TCW40_DEV_WIDTH
1002
{
1040
-3.0
1002
}
  0
LINE
  5
CE
  8
KERA4
 10
-974.46371884200198
 20
2864.6810247088861
 30
0.0
 11
-974.46371884200198
 21
2814.6810247088861
 31
0.0
1001
ACAD
1000
TCW40_DEV_WIDTH
1002
{
1040
-3.0
1002
}
  0
SOLID
  5
CF
  8
KERA4
 10
-982.79705217533535
 20
2974.6810247087601
 30
0.0
 11
-966.13038550866861
 21
2974.6810247087601
 31
0.0
 12
-974.46371884200198
 22
2924.6810247087601
 32
0.0
 13
-974.46371884200198
 23
2924.6810247087601
 33
0.0
  0
INSERT
  5
D0
  8
0
  6
CONTINUOUS
 62
     7
  2
*U30
 10
0.0
 20
0.0
 30
0.0
  0
DIMENSION
  5
DD
  8
KERA4
  6
DURCHGEHEND
  2
*D4
 10
-872.07485761427961
 20
2374.6810247086901
 30
0.0
 11
-872.07485761427961
 21
2649.681024708726
 31
0.0
 70
     0
  1
<>
 13
-1126.265385258029
 23
2924.681024708761
 33
0.0
 14
-1131.2653852580211
 24
2374.6810247086901
 34
0.0
 50
90.0
1001
ACAD
1000
DSTYLE
1002
{
1002
}
  0
DIMENSION
  5
EA
  8
KERA4
  6
DURCHGEHEND
  2
*D5
 10
-1973.8077835578799
 20
2429.6810247087142
 30
0.0
 11
-1973.8077835578799
 21
2604.6810247087219
 31
0.0
 70
     0
  1
<>
 13
-1700.2653852580261
 23
2779.6810247087319
 33
0.0
 14
-1700.2653852580261
 24
2429.6810247087142
 34
0.0
 50
90.0
1001
ACAD
1000
DSTYLE
1002
{
1002
}
  0
DIMENSION
  5
F9
  8
KERA4
  6
DURCHGEHEND
  2
*D6
 10
-1973.8077835578799
 20
2779.6810247087319
 30
0.0
 11
-1973.8077835578799
 21
2852.181024708746
 31
0.0
 70
     0
  1
<>
 13
-1826.2653852580199
 23
2924.681024708761
 33
0.0
 14
-1700.2653852580261
 24
2779.6810247087319
 34
0.0
 50
90.0
1001
ACAD
1000
DSTYLE
1002
{
1002
}
  0
DIMENSION
  5
106
  8
KERA4
  6
DURCHGEHEND
  2
*D7
 10
-1242.265385258024
 20
2245.2056265972592
 30
0.0
 11
-1476.265385258024
 21
2245.2056265972592
 31
0.0
 70
     1
  1
<>
 13
-1710.265385258024
 23
2439.6810247087919
 33
0.0
 14
-1242.265385258024
 24
2439.6810247087919
 34
0.0
1001
ACAD
1000
DSTYLE
1002
{
1002
}
  0
LINE
  5
107
  8
KERA4
 10
-1256.265385258022
 20
2245.2056265972551
 30
0.0
 11
-1306.265385258022
 21
2245.2056265972551
 31
0.0
1001
ACAD
1000
TCW40_DEV_WIDTH
1002
{
1040
-3.0
1002
}
  0
LINE
  5
108
  8
KERA4
 10
-1166.265385258029
 20
2424.681024708791
 30
0.0
 11
-1166.265385258029
 21
2133.1763745390531
 31
0.0
1001
ACAD
1000
TCW40_DEV_WIDTH
1002
{
1040
-3.0
1002
}
  0
LINE
  5
109
  8
KERA4
 10
-1126.2653852580211
 20
2364.6810247087292
 30
0.0
 11
-1126.2653852580211
 21
2133.1763745390531
 31
0.0
1001
ACAD
1000
TCW40_DEV_WIDTH
1002
{
1040
-3.0
1002
}
  0
LINE
  5
10A
  8
KERA4
 10
-1216.265385258029
 20
2148.1763745390531
 30
0.0
 11
-1266.265385258029
 21
2148.1763745390531
 31
0.0
1001
ACAD
1000
TCW40_DEV_WIDTH
1002
{
1040
-3.0
1002
}
  0
LINE
  5
10B
  8
KERA4
 10
-1076.2653852580211
 20
2148.1763745390531
 30
0.0
 11
-1004.636665038924
 21
2148.1763745390531
 31
0.0
1001
ACAD
1000
TCW40_DEV_WIDTH
1002
{
1040
-3.0
1002
}
  0
SOLID
  5
10C
  8
KERA4
 10
-1076.2653852580211
 20
2156.5097078723861
 30
0.0
 11
-1076.2653852580211
 21
2139.8430412057191
 31
0.0
 12
-1126.2653852580211
 22
2148.1763745390531
 32
0.0
 13
-1126.2653852580211
 23
2148.1763745390531
 33
0.0
  0
INSERT
  5
10D
  8
0
  6
CONTINUOUS
 62
     7
  2
*U43
 10
0.0
 20
0.0
 30
0.0
  0
LINE
  5
10E
  8
KERA4
 10
-1206.265385258022
 20
2424.681024708791
 30
0.0
 11
-1206.265385258022
 21
2133.1763745390531
 31
0.0
1001
ACAD
1000
TCW40_DEV_WIDTH
1002
{
1040
-3.0
1002
}
  0
LINE
  5
10F
  8
KERA4
 10
-1166.265385258029
 20
2424.681024708791
 30
0.0
 11
-1166.265385258029
 21
2133.1763745390531
 31
0.0
1001
ACAD
1000
TCW40_DEV_WIDTH
1002
{
1040
-3.0
1002
}
  0
LINE
  5
110
  8
KERA4
 10
-1116.265385258029
 20
2148.1763745390531
 30
0.0
 11
-1066.265385258029
 21
2148.1763745390531
 31
0.0
1001
ACAD
1000
TCW40_DEV_WIDTH
1002
{
1040
-3.0
1002
}
  0
LINE
  5
111
  8
KERA4
 10
-1256.265385258022
 20
2148.1763745390531
 30
0.0
 11
-1306.265385258022
 21
2148.1763745390531
 31
0.0
1001
ACAD
1000
TCW40_DEV_WIDTH
1002
{
1040
-3.0
1002
}
  0
SOLID
  5
112
  8
KERA4
 10
-1256.265385258022
 20
2156.5097078723861
 30
0.0
 11
-1256.265385258022
 21
2139.8430412057191
 31
0.0
 12
-1206.265385258022
 22
2148.1763745390531
 32
0.0
 13
-1206.265385258022
 23
2148.1763745390531
 33
0.0
  0
INSERT
  5
113
  8
0
  6
CONTINUOUS
 62
     7
  2
*U44
 10
0.0
 20
0.0
 30
0.0
  0
LINE
  5
114
  8
KERA4
 10
-1141.8206898404451
 20
2148.1763745390531
 30
0.0
 11
-1191.8206898404451
 21
2148.1763745390531
 31
0.0
1001
ACAD
1000
TCW40_DEV_WIDTH
1002
{
1040
-3.0
1002
}
  0
DIMENSION
  5
121
  8
KERA4
  6
DURCHGEHEND
  2
*D8
 10
-1126.265385258029
 20
3051.890305720432
 30
0.0
 11
-1476.265385258024
 21
3051.890305720432
 31
0.0
 70
     1
  1
<>
 13
-1826.2653852580199
 23
2924.681024708761
 33
0.0
 14
-1126.265385258029
 24
2924.681024708761
 34
0.0
1001
ACAD
1000
DSTYLE
1002
{
1002
}
  0
LINE
  5
122
  8
KERA4
 10
-1436.2653852578819
 20
2839.681024708887
 30
0.0
 11
-959.46371884200244
 21
2839.6810247088861
 31
0.0
1001
ACAD
1000
TCW40_DEV_WIDTH
1002
{
1040
-3.0
1002
}
  0
LINE
  5
123
  8
KERA4
 10
-1461.2653852580299
 20
2779.6810247087319
 30
0.0
 11
-959.46371884200255
 21
2779.681024708731
 31
0.0
1001
ACAD
1000
TCW40_DEV_WIDTH
1002
{
1040
-3.0
1002
}
  0
LINE
  5
124
  8
KERA4
 10
-974.46371884200266
 20
2729.681024708731
 30
0.0
 11
-974.46371884200266
 21
2679.681024708731
 31
0.0
1001
ACAD
1000
TCW40_DEV_WIDTH
1002
{
1040
-3.0
1002
}
  0
SOLID
  5
125
  8
KERA4
 10
-982.79705217533615
 20
2729.681024708731
 30
0.0
 11
-966.13038550866929
 21
2729.681024708731
 31
0.0
 12
-974.46371884200266
 22
2779.681024708731
 32
0.0
 13
-974.46371884200266
 23
2779.681024708731
 33
0.0
  0
INSERT
  5
126
  8
0
  6
CONTINUOUS
 62
     7
  2
*U48
 10
0.0
 20
0.0
 30
0.0
  0
LINE
  5
2A6
  8
KERA0
 39
2.25
 10
365.34171447964451
 20
2022.8188307643341
 30
0.0
 11
365.34171447964451
 21
2117.8188307643331
 31
0.0
1001
GENIUS_GENFIL_13
1070
     0
1040
0.0
1040
0.0
1040
0.0
1040
0.0
1001
GENIUS_GENODEF_13
1000
HIER
1070
     0
1000
MANEDIT
1070
     0
1000
NOSEL
1070
     0
1000
BEHIND
1070
     0
1000
OTHER
1070
     0
1000
REACTOR
1001
GENIUS_GENOBJ-N-CHA_13
1000
OWNER
1000
GEN
1001
ACAD
1000
TCW40_DEV_WIDTH
1002
{
1040
-3.0
1002
}
  0
LINE
  5
2A7
  8
KERA0
 39
2.25
 10
365.34171447964451
 20
2117.8188307643331
 30
0.0
 11
353.34171447964718
 21
2117.8188307643331
 31
0.0
1001
ACAD
1000
TCW40_DEV_WIDTH
1002
{
1040
-3.0
1002
}
  0
LINE
  5
2A8
  8
KERA0
 10
353.34171447964718
 20
2117.8188307643331
 30
0.0
 11
353.34171447964718
 21
2117.8188307643331
 31
0.0
1001
ACAD
1000
TCW40_DEV_WIDTH
1002
{
1040
-3.0
1002
}
  0
ARC
  5
2A9
  8
KERA0
 39
2.25
 10
343.341714479649
 20
2117.8188307643331
 30
0.0
 40
10.0
 50
270.0
 51
0.0
1001
ACAD
1000
TCW40_DEV_WIDTH
1002
{
1040
-3.0
1002
}
  0
LINE
  5
2AA
  8
KERA0
 10
175.15633146885421
 20
2022.154836207525
 30
0.0
 11
124.09269993103359
 21
2022.154836207525
 31
0.0
1001
ACAD
1000
TCW40_DEV_WIDTH
1002
{
1040
-3.0
1002
}
  0
LINE
  5
2AB
  8
KERA0
 10
173.39037908169621
 20
2003.221098943503
 30
0.0
 11
127.7120871566399
 21
2003.2266110999269
 31
0.0
1001
ACAD
1000
TCW40_DEV_WIDTH
1002
{
1040
-3.0
1002
}
  0
LINE
  5
2AC
  8
KERA0
 10
187.50149949830529
 20
2003.221098943503
 30
0.0
 11
187.49047518548329
 21
2009.0088631768219
 31
0.0
1001
ACAD
1000
TCW40_DEV_WIDTH
1002
{
1040
-3.0
1002
}
  0
LINE
  5
2AD
  8
KERA0
 10
187.49047518548329
 20
2009.0088631768219
 30
0.0
 11
187.6420594868282
 21
2009.4773964719141
 31
0.0
1001
ACAD
1000
TCW40_DEV_WIDTH
1002
{
1040
-3.0
1002
}
  0
LINE
  5
2AE
  8
KERA0
 10
187.6420594868282
 20
2009.4773964719141
 30
0.0
 11
188.0020722025406
 21
2009.799513112323
 31
0.0
1001
ACAD
1000
TCW40_DEV_WIDTH
1002
{
1040
-3.0
1002
}
  0
LINE
  5
2AF
  8
KERA0
 10
188.0020722025406
 20
2009.799513112323
 30
0.0
 11
188.70314959629059
 21
2009.9459297670051
 31
0.0
1001
ACAD
1000
TCW40_DEV_WIDTH
1002
{
1040
-3.0
1002
}
  0
LINE
  5
2B0
  8
KERA0
 10
188.70314959629059
 20
2009.9459297670051
 30
0.0
 11
191.9771551868466
 21
2010.028052284878
 31
0.0
1001
ACAD
1000
TCW40_DEV_WIDTH
1002
{
1040
-3.0
1002
}
  0
LINE
  5
2B1
  8
KERA0
 10
191.9771551868466
 20
2010.028052284878
 30
0.0
 11
212.67154883131801
 21
2010.421008747843
 31
0.0
1001
ACAD
1000
TCW40_DEV_WIDTH
1002
{
1040
-3.0
1002
}
  0
LINE
  5
2B2
  8
KERA0
 10
212.67154883131801
 20
2010.421008747843
 30
0.0
 11
216.40056570826391
 21
2011.096635481887
 31
0.0
1001
ACAD
1000
TCW40_DEV_WIDTH
1002
{
1040
-3.0
1002
}
  0
LINE
  5
2B3
  8
KERA0
 10
216.40056570826391
 20
2011.096635481887
 30
0.0
 11
219.77844099622189
 21
2012.0267688128049
 31
0.0
1001
ACAD
1000
TCW40_DEV_WIDTH
1002
{
1040
-3.0
1002
}
  0
LINE
  5
2B4
  8
KERA0
 10
219.77844099622189
 20
2012.0267688128049
 30
0.0
 11
219.77844099622189
 21
2012.0267688128049
 31
0.0
1001
ACAD
1000
TCW40_DEV_WIDTH
1002
{
1040
-3.0
1002
}
  0
LINE
  5
2B5
  8
KERA0
 10
219.77844099622189
 20
2012.0267688128049
 30
0.0
 11
222.9645535302239
 21
2013.410406199911
 31
0.0
1001
ACAD
1000
TCW40_DEV_WIDTH
1002
{
1040
-3.0
1002
}
  0
LINE
  5
2B6
  8
KERA0
 10
222.9645535302239
 20
2013.410406199911
 30
0.0
 11
225.79358168162659
 21
2015.4126108893299
 31
0.0
1001
ACAD
1000
TCW40_DEV_WIDTH
1002
{
1040
-3.0
1002
}
  0
LINE
  5
2B7
  8
KERA0
 10
225.79358168162659
 20
2015.4126108893299
 30
0.0
 11
228.07483928949071
 21
2017.9171108319849
 31
0.0
1001
ACAD
1000
TCW40_DEV_WIDTH
1002
{
1040
-3.0
1002
}
  0
LINE
  5
2B8
  8
KERA0
 10
228.07483928949071
 20
2017.9171108319849
 30
0.0
 11
229.61764019296379
 21
2020.8076339783429
 31
0.0
1001
ACAD
1000
TCW40_DEV_WIDTH
1002
{
1040
-3.0
1002
}
  0
LINE
  5
2B9
  8
KERA0
 10
229.61764019296379
 20
2020.8076339783429
 30
0.0
 11
229.61764019296379
 21
2020.8076339783429
 31
0.0
1001
ACAD
1000
TCW40_DEV_WIDTH
1002
{
1040
-3.0
1002
}
  0
LINE
  5
2BA
  8
KERA0
 10
229.61764019296379
 20
2020.8076339783429
 30
0.0
 11
230.5936363877959
 21
2024.582772101488
 31
0.0
1001
ACAD
1000
TCW40_DEV_WIDTH
1002
{
1040
-3.0
1002
}
  0
LINE
  5
2BB
  8
KERA0
 10
230.5936363877959
 20
2024.582772101488
 30
0.0
 11
230.8110220563153
 21
2027.998242018771
 31
0.0
1001
ACAD
1000
TCW40_DEV_WIDTH
1002
{
1040
-3.0
1002
}
  0
LINE
  5
2BC
  8
KERA0
 10
230.8110220563153
 20
2027.998242018771
 30
0.0
 11
230.8110220563153
 21
2027.998242018771
 31
0.0
1001
ACAD
1000
TCW40_DEV_WIDTH
1002
{
1040
-3.0
1002
}
  0
LINE
  5
2BD
  8
KERA0
 10
230.8110220563153
 20
2027.998242018771
 30
0.0
 11
230.7834612742476
 21
2056.7165769291032
 31
0.0
1001
ACAD
1000
TCW40_DEV_WIDTH
1002
{
1040
-3.0
1002
}
  0
LINE
  5
2BE
  8
KERA0
 10
230.7834612742476
 20
2056.7165769291032
 30
0.0
 11
230.7834612742476
 21
2056.7165769291032
 31
0.0
1001
ACAD
1000
TCW40_DEV_WIDTH
1002
{
1040
-3.0
1002
}
  0
LINE
  5
2BF
  8
KERA0
 10
230.7834612742476
 20
2056.7165769291032
 30
0.0
 11
230.8110220563153
 21
2081.9732776123078
 31
0.0
1001
ACAD
1000
TCW40_DEV_WIDTH
1002
{
1040
-3.0
1002
}
  0
LINE
  5
2C0
  8
KERA0
 10
230.8110220563153
 20
2081.9732776123078
 30
0.0
 11
230.8110220563153
 21
2081.9732776123078
 31
0.0
1001
ACAD
1000
TCW40_DEV_WIDTH
1002
{
1040
-3.0
1002
}
  0
LINE
  5
2C1
  8
KERA0
 10
230.8110220563153
 20
2081.9732776123078
 30
0.0
 11
230.83031460377109
 21
2084.4289432942001
 31
0.0
1001
ACAD
1000
TCW40_DEV_WIDTH
1002
{
1040
-3.0
1002
}
  0
LINE
  5
2C2
  8
KERA0
 10
230.83031460377109
 20
2084.4289432942001
 30
0.0
 11
230.83031460377109
 21
2084.4289432942001
 31
0.0
1001
ACAD
1000
TCW40_DEV_WIDTH
1002
{
1040
-3.0
1002
}
  0
LINE
  5
2C3
  8
KERA0
 10
230.83031460377109
 20
2084.4289432942001
 30
0.0
 11
230.8165342127372
 21
2089.3898840656029
 31
0.0
1001
ACAD
1000
TCW40_DEV_WIDTH
1002
{
1040
-3.0
1002
}
  0
LINE
  5
2C4
  8
KERA0
 10
230.8165342127372
 20
2089.3898840656029
 30
0.0
 11
230.8165342127372
 21
2089.3898840656029
 31
0.0
1001
ACAD
1000
TCW40_DEV_WIDTH
1002
{
1040
-3.0
1002
}
  0
LINE
  5
2C5
  8
KERA0
 10
230.8165342127372
 20
2089.3898840656029
 30
0.0
 11
230.84960715120411
 21
2093.7132225041601
 31
0.0
1001
ACAD
1000
TCW40_DEV_WIDTH
1002
{
1040
-3.0
1002
}
  0
LINE
  5
2C6
  8
KERA0
 10
230.84960715120411
 20
2093.7132225041601
 30
0.0
 11
230.84960715120411
 21
2093.7132225041601
 31
0.0
1001
ACAD
1000
TCW40_DEV_WIDTH
1002
{
1040
-3.0
1002
}
  0
LINE
  5
2C7
  8
KERA0
 10
230.84960715120411
 20
2093.7132225041601
 30
0.0
 11
353.34171447964718
 21
2093.7132225041601
 31
0.0
1001
GENIUS_GENFIL_13
1070
     0
1040
0.0
1040
0.0
1040
0.0
1040
0.0
1001
GENIUS_GENODEF_13
1000
HIER
1070
     0
1000
MANEDIT
1070
     0
1000
NOSEL
1070
     0
1000
BEHIND
1070
     0
1000
OTHER
1070
     0
1000
REACTOR
1001
GENIUS_GENOBJ-N-CHA_13
1000
OWNER
1000
GEN
1001
ACAD
1000
TCW40_DEV_WIDTH
1002
{
1040
-3.0
1002
}
  0
LINE
  5
2C8
  8
KERA0
 10
365.34171447964451
 20
2093.7132225041601
 30
0.0
 11
365.34171447964451
 21
2093.7132225041601
 31
0.0
1001
ACAD
1000
TCW40_DEV_WIDTH
1002
{
1040
-3.0
1002
}
  0
LINE
  5
2C9
  8
KERA0
 10
343.341714479649
 20
2107.8188307643468
 30
0.0
 11
228.12935796151169
 21
2107.8188307643468
 31
0.0
1001
ACAD
1000
TCW40_DEV_WIDTH
1002
{
1040
-3.0
1002
}
  0
LINE
  5
2CA
  8
KERA0
 10
228.12935796151169
 20
2107.8188307643468
 30
0.0
 11
228.12935796151169
 21
2107.8188307643468
 31
0.0
1001
ACAD
1000
TCW40_DEV_WIDTH
1002
{
1040
-3.0
1002
}
  0
LINE
  5
2CB
  8
KERA0
 10
228.12935796151169
 20
2107.8188307643468
 30
0.0
 11
225.7388046272749
 21
2107.6672464629551
 31
0.0
1001
ACAD
1000
TCW40_DEV_WIDTH
1002
{
1040
-3.0
1002
}
  0
LINE
  5
2CC
  8
KERA0
 10
225.7388046272749
 20
2107.6672464629551
 30
0.0
 11
222.71366428600459
 21
2106.771521045896
 31
0.0
1001
ACAD
1000
TCW40_DEV_WIDTH
1002
{
1040
-3.0
1002
}
  0
LINE
  5
2CD
  8
KERA0
 10
222.71366428600459
 20
2106.771521045896
 30
0.0
 11
222.71366428600459
 21
2106.771521045896
 31
0.0
1001
ACAD
1000
TCW40_DEV_WIDTH
1002
{
1040
-3.0
1002
}
  0
LINE
  5
2CE
  8
KERA0
 10
222.71366428600459
 20
2106.771521045896
 30
0.0
 11
221.05657226442011
 21
2105.7793328915791
 31
0.0
1001
ACAD
1000
TCW40_DEV_WIDTH
1002
{
1040
-3.0
1002
}
  0
LINE
  5
2CF
  8
KERA0
 10
221.05657226442011
 20
2105.7793328915791
 30
0.0
 11
219.62685669487701
 21
2104.419208296812
 31
0.0
1001
ACAD
1000
TCW40_DEV_WIDTH
1002
{
1040
-3.0
1002
}
  0
LINE
  5
2D0
  8
KERA0
 10
219.62685669487701
 20
2104.419208296812
 30
0.0
 11
218.51546815814029
 21
2102.8833837162251
 31
0.0
1001
ACAD
1000
TCW40_DEV_WIDTH
1002
{
1040
-3.0
1002
}
  0
LINE
  5
2D1
  8
KERA0
 10
218.51546815814029
 20
2102.8833837162251
 30
0.0
 11
217.8133572350666
 21
2101.364095604999
 31
0.0
1001
ACAD
1000
TCW40_DEV_WIDTH
1002
{
1040
-3.0
1002
}
  0
LINE
  5
2D2
  8
KERA0
 10
217.8133572350666
 20
2101.364095604999
 30
0.0
 11
217.8133572350666
 21
2101.364095604999
 31
0.0
1001
ACAD
1000
TCW40_DEV_WIDTH
1002
{
1040
-3.0
1002
}
  0
LINE
  5
2D3
  8
KERA0
 10
217.8133572350666
 20
2101.364095604999
 30
0.0
 11
217.39780846692659
 21
2099.5030053494702
 31
0.0
1001
ACAD
1000
TCW40_DEV_WIDTH
1002
{
1040
-3.0
1002
}
  0
LINE
  5
2D4
  8
KERA0
 10
217.39780846692659
 20
2099.5030053494702
 30
0.0
 11
217.10741364074369
 21
2096.9698303509799
 31
0.0
1001
ACAD
1000
TCW40_DEV_WIDTH
1002
{
1040
-3.0
1002
}
  0
LINE
  5
2D5
  8
KERA0
 10
217.10741364074369
 20
2096.9698303509799
 30
0.0
 11
216.81048927773239
 21
2090.7252892186489
 31
0.0
1001
ACAD
1000
TCW40_DEV_WIDTH
1002
{
1040
-3.0
1002
}
  0
LINE
  5
2D6
  8
KERA0
 10
216.81048927773239
 20
2090.7252892186489
 30
0.0
 11
216.7109259525273
 21
2089.3898840656029
 31
0.0
1001
ACAD
1000
TCW40_DEV_WIDTH
1002
{
1040
-3.0
1002
}
  0
LINE
  5
2D7
  8
KERA0
 10
216.7109259525273
 20
2089.3898840656029
 30
0.0
 11
216.7109259525273
 21
2089.3898840656029
 31
0.0
1001
ACAD
1000
TCW40_DEV_WIDTH
1002
{
1040
-3.0
1002
}
  0
LINE
  5
2D8
  8
KERA0
 10
216.7109259525273
 20
2089.3898840656029
 30
0.0
 11
216.72746242177209
 21
2084.4289432942001
 31
0.0
1001
ACAD
1000
TCW40_DEV_WIDTH
1002
{
1040
-3.0
1002
}
  0
LINE
  5
2D9
  8
KERA0
 10
216.72746242177209
 20
2084.4289432942001
 30
0.0
 11
216.72746242177209
 21
2084.4289432942001
 31
0.0
1001
ACAD
1000
TCW40_DEV_WIDTH
1002
{
1040
-3.0
1002
}
  0
LINE
  5
2DA
  8
KERA0
 10
216.72746242177209
 20
2084.4289432942001
 30
0.0
 11
216.70541379612811
 21
2082.1193497571849
 31
0.0
1001
ACAD
1000
TCW40_DEV_WIDTH
1002
{
1040
-3.0
1002
}
  0
LINE
  5
2DB
  8
KERA0
 10
216.70541379612811
 20
2082.1193497571849
 30
0.0
 11
216.70541379612811
 21
2082.1193497571849
 31
0.0
1001
ACAD
1000
TCW40_DEV_WIDTH
1002
{
1040
-3.0
1002
}
  0
LINE
  5
2DC
  8
KERA0
 10
216.70541379612811
 20
2082.1193497571849
 30
0.0
 11
216.66407262302761
 21
2056.7165769291032
 31
0.0
1001
ACAD
1000
TCW40_DEV_WIDTH
1002
{
1040
-3.0
1002
}
  0
LINE
  5
2DD
  8
KERA0
 10
216.66407262302761
 20
2056.7165769291032
 30
0.0
 11
216.66407262302761
 21
2056.7165769291032
 31
0.0
1001
ACAD
1000
TCW40_DEV_WIDTH
1002
{
1040
-3.0
1002
}
  0
LINE
  5
2DE
  8
KERA0
 10
216.66407262302761
 20
2056.7165769291032
 30
0.0
 11
216.70541379612811
 21
2027.998242018771
 31
0.0
1001
ACAD
1000
TCW40_DEV_WIDTH
1002
{
1040
-3.0
1002
}
  0
LINE
  5
2DF
  8
KERA0
 10
216.70541379612811
 20
2027.998242018771
 30
0.0
 11
216.70541379612811
 21
2027.998242018771
 31
0.0
1001
ACAD
1000
TCW40_DEV_WIDTH
1002
{
1040
-3.0
1002
}
  0
LINE
  5
2E0
  8
KERA0
 10
216.70541379612811
 20
2027.998242018771
 30
0.0
 11
216.5124883216827
 21
2026.0248900229819
 31
0.0
1001
ACAD
1000
TCW40_DEV_WIDTH
1002
{
1040
-3.0
1002
}
  0
LINE
  5
2E1
  8
KERA0
 10
216.5124883216827
 20
2026.0248900229819
 30
0.0
 11
216.5124883216827
 21
2026.0248900229819
 31
0.0
1001
ACAD
1000
TCW40_DEV_WIDTH
1002
{
1040
-3.0
1002
}
  0
LINE
  5
2E2
  8
KERA0
 10
216.5124883216827
 20
2026.0248900229819
 30
0.0
 11
216.1762467805024
 21
2025.4350892867781
 31
0.0
1001
ACAD
1000
TCW40_DEV_WIDTH
1002
{
1040
-3.0
1002
}
  0
LINE
  5
2E3
  8
KERA0
 10
216.1762467805024
 20
2025.4350892867781
 30
0.0
 11
214.9758885941724
 21
2024.8078661762661
 31
0.0
1001
ACAD
1000
TCW40_DEV_WIDTH
1002
{
1040
-3.0
1002
}
  0
LINE
  5
2E4
  8
KERA0
 10
214.9758885941724
 20
2024.8078661762661
 30
0.0
 11
212.42729140027359
 21
2024.3612523156289
 31
0.0
1001
ACAD
1000
TCW40_DEV_WIDTH
1002
{
1040
-3.0
1002
}
  0
LINE
  5
2E5
  8
KERA0
 10
212.42729140027359
 20
2024.3612523156289
 30
0.0
 11
191.3976466802319
 21
2024.1084252039759
 31
0.0
1001
ACAD
1000
TCW40_DEV_WIDTH
1002
{
1040
-3.0
1002
}
  0
LINE
  5
2E6
  8
KERA0
 10
191.3976466802319
 20
2024.1084252039759
 30
0.0
 11
185.754145915474
 21
2024.0625623400381
 31
0.0
1001
ACAD
1000
TCW40_DEV_WIDTH
1002
{
1040
-3.0
1002
}
  0
LINE
  5
2E7
  8
KERA0
 10
185.754145915474
 20
2024.0625623400381
 30
0.0
 11
185.754145915474
 21
2024.0625623400381
 31
0.0
1001
ACAD
1000
TCW40_DEV_WIDTH
1002
{
1040
-3.0
1002
}
  0
LINE
  5
2E8
  8
KERA0
 10
185.754145915474
 20
2024.0625623400381
 30
0.0
 11
184.09223075703221
 21
2024.0708305746259
 31
0.0
1001
ACAD
1000
TCW40_DEV_WIDTH
1002
{
1040
-3.0
1002
}
  0
LINE
  5
2E9
  8
KERA0
 10
184.09223075703221
 20
2024.0708305746259
 30
0.0
 11
184.09223075703221
 21
2024.0708305746259
 31
0.0
1001
ACAD
1000
TCW40_DEV_WIDTH
1002
{
1040
-3.0
1002
}
  0
LINE
  5
2EA
  8
KERA0
 10
184.09223075703221
 20
2024.0708305746259
 30
0.0
 11
182.4740683401192
 21
2024.0284558722719
 31
0.0
1001
ACAD
1000
TCW40_DEV_WIDTH
1002
{
1040
-3.0
1002
}
  0
LINE
  5
2EB
  8
KERA0
 10
182.4740683401192
 20
2024.0284558722719
 30
0.0
 11
180.22545303348809
 21
2023.6491506090799
 31
0.0
1001
ACAD
1000
TCW40_DEV_WIDTH
1002
{
1040
-3.0
1002
}
  0
LINE
  5
2EC
  8
KERA0
 10
180.22545303348809
 20
2023.6491506090799
 30
0.0
 11
180.22545303348809
 21
2023.6491506090799
 31
0.0
1001
ACAD
1000
TCW40_DEV_WIDTH
1002
{
1040
-3.0
1002
}
  0
LINE
  5
2ED
  8
KERA0
 10
180.22545303348809
 20
2023.6491506090799
 30
0.0
 11
178.7666694516069
 21
2023.1169691328901
 31
0.0
1001
ACAD
1000
TCW40_DEV_WIDTH
1002
{
1040
-3.0
1002
}
  0
LINE
  5
2EE
  8
KERA0
 10
178.7666694516069
 20
2023.1169691328901
 30
0.0
 11
177.2306295524954
 21
2022.155356221228
 31
0.0
1001
ACAD
1000
TCW40_DEV_WIDTH
1002
{
1040
-3.0
1002
}
  0
LINE
  5
2EF
  8
KERA0
 10
177.2306295524954
 20
2022.155356221228
 30
0.0
 11
175.8470352291738
 21
2020.87955039403
 31
0.0
1001
ACAD
1000
TCW40_DEV_WIDTH
1002
{
1040
-3.0
1002
}
  0
LINE
  5
2F0
  8
KERA0
 10
175.8470352291738
 20
2020.87955039403
 30
0.0
 11
174.84558837465869
 21
2019.404790171325
 31
0.0
1001
ACAD
1000
TCW40_DEV_WIDTH
1002
{
1040
-3.0
1002
}
  0
LINE
  5
2F1
  8
KERA0
 10
174.84558837465869
 20
2019.404790171325
 30
0.0
 11
174.84558837465869
 21
2019.404790171325
 31
0.0
1001
ACAD
1000
TCW40_DEV_WIDTH
1002
{
1040
-3.0
1002
}
  0
LINE
  5
2F2
  8
KERA0
 10
174.84558837465869
 20
2019.404790171325
 30
0.0
 11
173.85917075911809
 21
2016.754519529791
 31
0.0
1001
ACAD
1000
TCW40_DEV_WIDTH
1002
{
1040
-3.0
1002
}
  0
LINE
  5
2F3
  8
KERA0
 10
173.85917075911809
 20
2016.754519529791
 30
0.0
 11
173.48201868207201
 21
2014.55719311607
 31
0.0
1001
ACAD
1000
TCW40_DEV_WIDTH
1002
{
1040
-3.0
1002
}
  0
LINE
  5
2F4
  8
KERA0
 10
173.48201868207201
 20
2014.55719311607
 30
0.0
 11
173.37935476887421
 21
2010.1250748504181
 31
0.0
1001
ACAD
1000
TCW40_DEV_WIDTH
1002
{
1040
-3.0
1002
}
  0
LINE
  5
2F5
  8
KERA0
 10
173.37935476887421
 20
2010.1250748504181
 30
0.0
 11
173.37935476887421
 21
2010.1250748504181
 31
0.0
1001
ACAD
1000
TCW40_DEV_WIDTH
1002
{
1040
-3.0
1002
}
  0
LINE
  5
2F6
  8
KERA0
 10
173.37935476887421
 20
2010.1250748504181
 30
0.0
 11
173.39037908169621
 21
2003.221098943503
 31
0.0
1001
ACAD
1000
TCW40_DEV_WIDTH
1002
{
1040
-3.0
1002
}
  0
LINE
  5
2F7
  8
KERA0
 10
173.39037908169621
 20
2003.221098943503
 30
0.0
 11
173.39037908169621
 21
2003.221098943503
 31
0.0
1001
ACAD
1000
TCW40_DEV_WIDTH
1002
{
1040
-3.0
1002
}
  0
LINE
  5
2F8
  8
KERA0
 10
173.39037908169621
 20
2003.221098943503
 30
0.0
 11
187.50149949830529
 21
2003.221098943503
 31
0.0
1001
ACAD
1000
TCW40_DEV_WIDTH
1002
{
1040
-3.0
1002
}
  0
LINE
  5
2F9
  8
KERA0
 10
187.50149949830529
 20
2003.221098943503
 30
0.0
 11
187.50149949830529
 21
2003.221098943503
 31
0.0
1001
ACAD
1000
TCW40_DEV_WIDTH
1002
{
1040
-3.0
1002
}
  0
LINE
  5
2FA
  8
KERA0
 10
365.34171447964451
 20
2093.7132225041601
 30
0.0
 11
365.34171447964451
 21
2093.7077103477382
 31
0.0
1001
ACAD
1000
TCW40_DEV_WIDTH
1002
{
1040
-3.0
1002
}
  0
LINE
  5
2FB
  8
KERA0
 10
365.34171447964451
 20
2093.7077103477382
 30
0.0
 11
365.34171447964451
 21
2093.7132225041601
 31
0.0
1001
ACAD
1000
TCW40_DEV_WIDTH
1002
{
1040
-3.0
1002
}
  0
LINE
  5
2FC
  8
KERA0
 10
365.34171447964451
 20
2093.7132225041601
 30
0.0
 11
365.34171447964451
 21
2093.7132225041601
 31
0.0
1001
ACAD
1000
TCW40_DEV_WIDTH
1002
{
1040
-3.0
1002
}
  0
LINE
  5
2FD
  8
KERA0
 10
127.7120871566399
 20
2003.2266110999269
 30
0.0
 11
127.855403223351
 21
2011.5857962998259
 31
0.0
1001
ACAD
1000
TCW40_DEV_WIDTH
1002
{
1040
-3.0
1002
}
  0
LINE
  5
2FE
  8
KERA0
 10
127.855403223351
 20
2011.5857962998259
 30
0.0
 11
127.855403223351
 21
2011.5857962998259
 31
0.0
1001
ACAD
1000
TCW40_DEV_WIDTH
1002
{
1040
-3.0
1002
}
  0
LINE
  5
2FF
  8
KERA0
 10
127.855403223351
 20
2011.5857962998259
 30
0.0
 11
127.7424040168948
 21
2014.301222352638
 31
0.0
1001
ACAD
1000
TCW40_DEV_WIDTH
1002
{
1040
-3.0
1002
}
  0
LINE
  5
300
  8
KERA0
 10
127.7424040168948
 20
2014.301222352638
 30
0.0
 11
126.91833663319041
 21
2017.5830224768349
 31
0.0
1001
ACAD
1000
TCW40_DEV_WIDTH
1002
{
1040
-3.0
1002
}
  0
LINE
  5
301
  8
KERA0
 10
126.91833663319041
 20
2017.5830224768349
 30
0.0
 11
126.91833663319041
 21
2017.5830224768349
 31
0.0
1001
ACAD
1000
TCW40_DEV_WIDTH
1002
{
1040
-3.0
1002
}
  0
LINE
  5
302
  8
KERA0
 10
126.91833663319041
 20
2017.5830224768349
 30
0.0
 11
124.31969939436971
 21
2021.146976107447
 31
0.0
1001
ACAD
1000
TCW40_DEV_WIDTH
1002
{
1040
-3.0
1002
}
  0
LINE
  5
303
  8
KERA0
 10
124.31969939436971
 20
2021.146976107447
 30
0.0
 11
120.8218916407136
 21
2023.09242281141
 31
0.0
1001
ACAD
1000
TCW40_DEV_WIDTH
1002
{
1040
-3.0
1002
}
  0
LINE
  5
304
  8
KERA0
 10
120.8218916407136
 20
2023.09242281141
 30
0.0
 11
120.8218916407136
 21
2023.09242281141
 31
0.0
1001
ACAD
1000
TCW40_DEV_WIDTH
1002
{
1040
-3.0
1002
}
  0
LINE
  5
305
  8
KERA0
 10
120.8218916407136
 20
2023.09242281141
 30
0.0
 11
115.14333700624729
 21
2023.9530082313811
 31
0.0
1001
ACAD
1000
TCW40_DEV_WIDTH
1002
{
1040
-3.0
1002
}
  0
LINE
  5
306
  8
KERA0
 10
115.14333700624729
 20
2023.9530082313811
 30
0.0
 11
108.3423695222677
 21
2024.3050972221711
 31
0.0
1001
ACAD
1000
TCW40_DEV_WIDTH
1002
{
1040
-3.0
1002
}
  0
LINE
  5
307
  8
KERA0
 10
108.3423695222677
 20
2024.3050972221711
 30
0.0
 11
108.3423695222677
 21
2024.3050972221711
 31
0.0
1001
ACAD
1000
TCW40_DEV_WIDTH
1002
{
1040
-3.0
1002
}
  0
LINE
  5
308
  8
KERA0
 10
108.3423695222677
 20
2024.3050972221711
 30
0.0
 11
77.250232632800817
 21
2025.642484171821
 31
0.0
1001
ACAD
1000
TCW40_DEV_WIDTH
1002
{
1040
-3.0
1002
}
  0
LINE
  5
309
  8
KERA0
 10
77.250232632800817
 20
2025.642484171821
 30
0.0
 11
51.021459320947088
 21
2028.7037980395739
 31
0.0
1001
ACAD
1000
TCW40_DEV_WIDTH
1002
{
1040
-3.0
1002
}
  0
LINE
  5
30A
  8
KERA0
 10
51.021459320947088
 20
2028.7037980395739
 30
0.0
 11
51.021459320947088
 21
2028.7037980395739
 31
0.0
1001
ACAD
1000
TCW40_DEV_WIDTH
1002
{
1040
-3.0
1002
}
  0
LINE
  5
30B
  8
KERA0
 10
51.021459320947088
 20
2028.7037980395739
 30
0.0
 11
-0.305674135816389
 21
2033.059435135013
 31
0.0
1001
ACAD
1000
TCW40_DEV_WIDTH
1002
{
1040
-3.0
1002
}
  0
LINE
  5
30C
  8
KERA0
 10
-0.305674135816389
 20
2033.059435135013
 30
0.0
 11
-23.69728502028056
 21
2035.927780464538
 31
0.0
1001
ACAD
1000
TCW40_DEV_WIDTH
1002
{
1040
-3.0
1002
}
  0
LINE
  5
30D
  8
KERA0
 10
-23.69728502028056
 20
2035.927780464538
 30
0.0
 11
-43.385243560030631
 21
2039.744647334323
 31
0.0
1001
ACAD
1000
TCW40_DEV_WIDTH
1002
{
1040
-3.0
1002
}
  0
LINE
  5
30E
  8
KERA0
 10
-43.385243560030631
 20
2039.744647334323
 30
0.0
 11
-66.457321627438887
 21
2046.6790262289439
 31
0.0
1001
ACAD
1000
TCW40_DEV_WIDTH
1002
{
1040
-3.0
1002
}
  0
LINE
  5
30F
  8
KERA0
 10
-66.457321627438887
 20
2046.6790262289439
 30
0.0
 11
-83.027983460903215
 21
2053.6780007065581
 31
0.0
1001
ACAD
1000
TCW40_DEV_WIDTH
1002
{
1040
-3.0
1002
}
  0
LINE
  5
310
  8
KERA0
 10
-83.027983460903215
 20
2053.6780007065581
 30
0.0
 11
-95.11002742552273
 21
2060.716249298649
 31
0.0
1001
ACAD
1000
TCW40_DEV_WIDTH
1002
{
1040
-3.0
1002
}
  0
LINE
  5
311
  8
KERA0
 10
-95.11002742552273
 20
2060.716249298649
 30
0.0
 11
-104.7162518863738
 21
2067.7684505366992
 31
0.0
1001
ACAD
1000
TCW40_DEV_WIDTH
1002
{
1040
-3.0
1002
}
  0
LINE
  5
312
  8
KERA0
 10
-104.7162518863738
 20
2067.7684505366992
 30
0.0
 11
-113.72496720483061
 21
2076.495055412478
 31
0.0
1001
ACAD
1000
TCW40_DEV_WIDTH
1002
{
1040
-3.0
1002
}
  0
LINE
  5
313
  8
KERA0
 10
-113.72496720483061
 20
2076.495055412478
 30
0.0
 11
-122.174284774836
 21
2087.719700672596
 31
0.0
1001
ACAD
1000
TCW40_DEV_WIDTH
1002
{
1040
-3.0
1002
}
  0
LINE
  5
314
  8
KERA0
 10
-122.174284774836
 20
2087.719700672596
 30
0.0
 11
-131.7309252622326
 21
2105.1708100509518
 31
0.0
1001
ACAD
1000
TCW40_DEV_WIDTH
1002
{
1040
-3.0
1002
}
  0
ARC
  5
315
  8
KERA0
 10
-136.11639806950501
 20
2102.7692213566338
 30
0.0
 40
4.9999999999999822
 50
28.70615609429505
 51
90.0
1001
GENIUS_GENODEF_13
1000
HIER
1070
     0
1000
MANEDIT
1070
     0
1000
NOSEL
1070
     0
1000
BEHIND
1070
     0
1000
OTHER
1070
     0
1000
REACTOR
1001
GENIUS_GENOBJ-N-FIL_13
1000
OWNER
1000
GEN
1001
ACAD
1000
TCW40_DEV_WIDTH
1002
{
1040
-3.0
1002
}
  0
LINE
  5
316
  8
KERA0
 10
-132.09788886664359
 20
2100.7301976175072
 30
0.0
 11
-132.09788886664359
 21
2100.7301976175072
 31
0.0
1001
ACAD
1000
TCW40_DEV_WIDTH
1002
{
1040
-3.0
1002
}
  0
LINE
  5
317
  8
KERA0
 10
-136.11639806950501
 20
2107.7692213566352
 30
0.0
 11
-184.65828552035731
 21
2107.7692213566352
 31
0.0
1001
ACAD
1000
TCW40_DEV_WIDTH
1002
{
1040
-3.0
1002
}
  0
LINE
  5
318
  8
KERA0
 10
-184.65828552035731
 20
2107.7692213566352
 30
0.0
 11
-184.65828552035731
 21
2107.7692213566352
 31
0.0
1001
ACAD
1000
TCW40_DEV_WIDTH
1002
{
1040
-3.0
1002
}
  0
LINE
  5
319
  8
KERA0
 10
-184.65828552035731
 20
2107.7692213566352
 30
0.0
 11
-184.65828552035731
 21
2093.6581009400261
 31
0.0
1001
ACAD
1000
TCW40_DEV_WIDTH
1002
{
1040
-3.0
1002
}
  0
LINE
  5
31A
  8
KERA0
 10
-184.65828552035731
 20
2093.6581009400261
 30
0.0
 11
-141.3278036639044
 21
2093.6581009400261
 31
0.0
1001
ACAD
1000
TCW40_DEV_WIDTH
1002
{
1040
-3.0
1002
}
  0
LINE
  5
31B
  8
KERA0
 10
-139.22706182393489
 20
2093.6581009400261
 30
0.0
 11
-139.22706182393489
 21
2093.6581009400261
 31
0.0
1001
ACAD
1000
TCW40_DEV_WIDTH
1002
{
1040
-3.0
1002
}
  0
LINE
  5
31C
  8
KERA0
 10
-141.3278036639044
 20
2093.658100940027
 30
0.0
 11
-130.04116550513521
 21
2076.4225361047011
 31
0.0
1001
ACAD
1000
TCW40_DEV_WIDTH
1002
{
1040
-3.0
1002
}
  0
LINE
  5
31D
  8
KERA0
 10
-130.04116550513521
 20
2076.4225361047011
 30
0.0
 11
-119.94659843709771
 21
2064.2558288626401
 31
0.0
1001
ACAD
1000
TCW40_DEV_WIDTH
1002
{
1040
-3.0
1002
}
  0
LINE
  5
31E
  8
KERA0
 10
-119.94659843709771
 20
2064.2558288626401
 30
0.0
 11
-111.234376844442
 21
2056.2149706955688
 31
0.0
1001
ACAD
1000
TCW40_DEV_WIDTH
1002
{
1040
-3.0
1002
}
  0
LINE
  5
31F
  8
KERA0
 10
-111.234376844442
 20
2056.2149706955688
 30
0.0
 11
-103.5642973235513
 21
2050.6417499250379
 31
0.0
1001
ACAD
1000
TCW40_DEV_WIDTH
1002
{
1040
-3.0
1002
}
  0
LINE
  5
320
  8
KERA0
 10
-103.5642973235513
 20
2050.6417499250379
 30
0.0
 11
-90.528650299527271
 21
2042.4779878954409
 31
0.0
1001
ACAD
1000
TCW40_DEV_WIDTH
1002
{
1040
-3.0
1002
}
  0
LINE
  5
321
  8
KERA0
 10
-90.528650299527271
 20
2042.4779878954409
 30
0.0
 11
-81.945932084764081
 21
2038.0439640601151
 31
0.0
1001
ACAD
1000
TCW40_DEV_WIDTH
1002
{
1040
-3.0
1002
}
  0
LINE
  5
322
  8
KERA0
 10
-81.945932084764081
 20
2038.0439640601151
 30
0.0
 11
-71.958453727335382
 21
2033.7054770920111
 31
0.0
1001
ACAD
1000
TCW40_DEV_WIDTH
1002
{
1040
-3.0
1002
}
  0
LINE
  5
323
  8
KERA0
 10
-71.958453727335382
 20
2033.7054770920111
 30
0.0
 11
-60.545092471611952
 21
2029.7102510517309
 31
0.0
1001
ACAD
1000
TCW40_DEV_WIDTH
1002
{
1040
-3.0
1002
}
  0
LINE
  5
324
  8
KERA0
 10
-60.545092471611952
 20
2029.7102510517309
 30
0.0
 11
-47.684725561964562
 21
2026.3060100000739
 31
0.0
1001
ACAD
1000
TCW40_DEV_WIDTH
1002
{
1040
-3.0
1002
}
  0
LINE
  5
325
  8
KERA0
 10
-47.684725561964562
 20
2026.3060100000739
 30
0.0
 11
-28.629028588248278
 21
2022.956556768534
 31
0.0
1001
ACAD
1000
TCW40_DEV_WIDTH
1002
{
1040
-3.0
1002
}
  0
LINE
  5
326
  8
KERA0
 10
-28.629028588248278
 20
2022.956556768534
 30
0.0
 11
-4.1607385269730912
 21
2019.8357719007829
 31
0.0
1001
ACAD
1000
TCW40_DEV_WIDTH
1002
{
1040
-3.0
1002
}
  0
LINE
  5
327
  8
KERA0
 10
-4.1607385269730912
 20
2019.8357719007829
 30
0.0
 11
49.863906474274238
 21
2014.6450431088419
 31
0.0
1001
ACAD
1000
TCW40_DEV_WIDTH
1002
{
1040
-3.0
1002
}
  0
LINE
  5
328
  8
KERA0
 10
49.863906474274238
 20
2014.6450431088419
 30
0.0
 11
49.863906474274238
 21
2014.6450431088419
 31
0.0
1001
ACAD
1000
TCW40_DEV_WIDTH
1002
{
1040
-3.0
1002
}
  0
LINE
  5
329
  8
KERA0
 10
49.863906474274238
 20
2014.6450431088419
 30
0.0
 11
76.520560927660426
 21
2011.5496227733211
 31
0.0
1001
ACAD
1000
TCW40_DEV_WIDTH
1002
{
1040
-3.0
1002
}
  0
LINE
  5
32A
  8
KERA0
 10
76.520560927660426
 20
2011.5496227733211
 30
0.0
 11
107.3997907756852
 21
2010.221537587676
 31
0.0
1001
ACAD
1000
TCW40_DEV_WIDTH
1002
{
1040
-3.0
1002
}
  0
LINE
  5
32B
  8
KERA0
 10
107.3997907756852
 20
2010.221537587676
 30
0.0
 11
107.3997907756852
 21
2010.221537587676
 31
0.0
1001
ACAD
1000
TCW40_DEV_WIDTH
1002
{
1040
-3.0
1002
}
  0
LINE
  5
32C
  8
KERA0
 10
107.3997907756852
 20
2010.221537587676
 30
0.0
 11
111.7213214032631
 21
2010.056172895273
 31
0.0
1001
ACAD
1000
TCW40_DEV_WIDTH
1002
{
1040
-3.0
1002
}
  0
LINE
  5
32D
  8
KERA0
 10
111.7213214032631
 20
2010.056172895273
 30
0.0
 11
112.4930233010686
 21
2009.9045885939749
 31
0.0
1001
ACAD
1000
TCW40_DEV_WIDTH
1002
{
1040
-3.0
1002
}
  0
LINE
  5
32E
  8
KERA0
 10
112.4930233010686
 20
2009.9045885939749
 30
0.0
 11
113.4300898912292
 21
2009.0088631768219
 31
0.0
1001
ACAD
1000
TCW40_DEV_WIDTH
1002
{
1040
-3.0
1002
}
  0
LINE
  5
32F
  8
KERA0
 10
113.4300898912292
 20
2009.0088631768219
 30
0.0
 11
113.6009667400071
 21
2003.2266110999269
 31
0.0
1001
ACAD
1000
TCW40_DEV_WIDTH
1002
{
1040
-3.0
1002
}
  0
LINE
  5
330
  8
KERA0
 10
113.6009667400071
 20
2003.2266110999269
 30
0.0
 11
113.6009667400071
 21
2003.2266110999269
 31
0.0
1001
ACAD
1000
TCW40_DEV_WIDTH
1002
{
1040
-3.0
1002
}
  0
LINE
  5
331
  8
KERA0
 10
113.6009667400071
 20
2003.2266110999269
 30
0.0
 11
113.595454583608
 21
2003.2266110999269
 31
0.0
1001
ACAD
1000
TCW40_DEV_WIDTH
1002
{
1040
-3.0
1002
}
  0
LINE
  5
332
  8
KERA0
 10
113.595454583608
 20
2003.2266110999269
 30
0.0
 11
127.7120871566399
 21
2003.2266110999269
 31
0.0
1001
ACAD
1000
TCW40_DEV_WIDTH
1002
{
1040
-3.0
1002
}
  0
LINE
  5
333
  8
KERA0
 10
127.7120871566399
 20
2003.2266110999269
 30
0.0
 11
127.7120871566399
 21
2003.2266110999269
 31
0.0
1001
ACAD
1000
TCW40_DEV_WIDTH
1002
{
1040
-3.0
1002
}
  0
LINE
  5
334
  8
KERA0
 10
116.494848856712
 20
2009.6592976335839
 30
0.0
 11
116.494848856712
 21
2009.6620537117481
 31
0.0
1001
ACAD
1000
TCW40_DEV_WIDTH
1002
{
1040
-3.0
1002
}
  0
LINE
  5
335
  8
KERA0
 10
116.494848856712
 20
2009.6620537117481
 30
0.0
 11
116.494848856712
 21
2009.6620537117481
 31
0.0
1001
ACAD
1000
TCW40_DEV_WIDTH
1002
{
1040
-3.0
1002
}
  0
LINE
  5
336
  8
KERA0
 10
116.494848856712
 20
2009.6620537117481
 30
0.0
 11
116.494848856712
 21
2009.6620537117481
 31
0.0
1001
ACAD
1000
TCW40_DEV_WIDTH
1002
{
1040
-3.0
1002
}
  0
LINE
  5
337
  8
KERA0
 10
116.494848856712
 20
2009.6620537117481
 30
0.0
 11
116.494848856712
 21
2009.6592976335839
 31
0.0
1001
ACAD
1000
TCW40_DEV_WIDTH
1002
{
1040
-3.0
1002
}
  0
LINE
  5
338
  8
KERA0
 10
116.494848856712
 20
2009.6592976335839
 30
0.0
 11
116.494848856712
 21
2009.6592976335839
 31
0.0
1001
ACAD
1000
TCW40_DEV_WIDTH
1002
{
1040
-3.0
1002
}
  0
LINE
  5
339
  8
KERA0
 39
2.25
 10
365.34171447964451
 20
2022.8188307643341
 30
0.0
 11
353.34171447964718
 21
2022.8188307643329
 31
0.0
1001
ACAD
1000
TCW40_DEV_WIDTH
1002
{
1040
-3.0
1002
}
  0
LINE
  5
33A
  8
KERA0
 10
353.34171447964718
 20
2022.8188307643329
 30
0.0
 11
353.34171447964718
 21
2093.7132225041601
 31
0.0
1001
ACAD
1000
TCW40_DEV_WIDTH
1002
{
1040
-3.0
1002
}
  0
DIMENSION
  5
33B
  8
KERA4
  6
DURCHGEHEND
  2
*D9
 10
599.67712368793889
 20
2003.221098943503
 30
0.0
 11
599.67712368793866
 21
2060.5199648539178
 31
0.0
 70
     0
  1
<>
 13
365.34171447964809
 23
2117.8188307643331
 33
0.0
 14
187.50149949830529
 24
2003.221098943503
 34
0.0
 50
90.0
1001
ACAD
1000
DSTYLE
1002
{
1002
}
  0
LINE
  5
33C
  8
KERA4
 10
228.12935796151169
 20
2107.8188307643468
 30
0.0
 11
-136.11639806950501
 21
2107.7692213566352
 31
0.0
1001
ACAD
1000
TCW40_DEV_WIDTH
1002
{
1040
-3.0
1002
}
  0
LINE
  5
33D
  8
KERA0
 10
270.34171447964451
 20
2093.7132225041601
 30
0.0
 11
270.34171447964451
 21
2107.8188307643468
 31
0.0
1001
ACAD
1000
TCW40_DEV_WIDTH
1002
{
1040
-3.0
1002
}
  0
LINE
  5
33E
  8
KERA0
 10
290.34171447964451
 20
2093.7132225041601
 30
0.0
 11
290.34171447964451
 21
2107.8188307643468
 31
0.0
1001
ACAD
1000
TCW40_DEV_WIDTH
1002
{
1040
-3.0
1002
}
  0
LINE
  5
33F
  8
KERA2
 10
150.55123311915619
 20
2063.829311812834
 30
495.897101469174
 11
150.55123311915619
 21
1980.4803606022169
 31
495.897101469174
1001
ACAD
1000
TCW40_DEV_WIDTH
1002
{
1040
-3.0
1002
}
  0
LINE
  5
340
  8
KERA2
 10
280.3128518382623
 20
2149.4933063696558
 30
495.897101469174
 11
280.3128518382623
 21
2066.1443551590392
 31
495.897101469174
1001
ACAD
1000
TCW40_DEV_WIDTH
1002
{
1040
-3.0
1002
}
  0
DIMENSION
  5
341
  8
KERA4
  6
DURCHGEHEND
  2
*D10
 10
280.3128518382623
 20
2228.8076150544948
 30
0.0
 11
322.8272831589552
 21
2228.8076150544948
 31
0.0
 70
     0
  1
<>
 13
365.34171447964809
 23
2117.8188307643331
 33
0.0
 14
280.3128518382623
 24
2149.4933063696558
 34
0.0
 50
180.0
1001
ACAD
1000
DSTYLE
1002
{
1002
}
  0
DIMENSION
  5
342
  8
KERA4
  6
DURCHGEHEND
  2
*D11
 10
-131.7309252622326
 20
2340.4425368202651
 30
0.0
 11
44.305394608707978
 21
2340.4425368202651
 31
0.0
 70
     0
  1
350
 13
220.34171447964849
 23
2105.0992705941949
 33
0.0
 14
-131.7309252622326
 24
2105.1708100509518
 34
0.0
 50
180.0
1001
ACAD
1000
DSTYLE
1002
{
1002
}
  0
DIMENSION
  5
343
  8
KERA4
  6
DURCHGEHEND
  2
*D12
 10
365.34171447964451
 20
2340.4425368202651
 30
0.0
 11
292.8417144796465
 21
2340.4425368202651
 31
0.0
 70
     0
  1
<>
 13
220.34171447964849
 23
2105.0992705941949
 33
0.0
 14
365.34171447964451
 24
2117.8188307643331
 34
0.0
 50
180.0
1001
ACAD
1000
DSTYLE
1002
{
1002
}
  0
DIMENSION
  5
344
  8
KERA4
  6
DURCHGEHEND
  2
*D13
 10
-184.65828552035731
 20
2340.4425368202651
 30
0.0
 11
-338.2996596454982
 21
2340.4425368202651
 31
0.0
 70
   128
  1
55
 13
-131.7309252622326
 23
2105.1708100509518
 33
0.0
 14
-184.65828552035731
 24
2107.7692213566352
 34
0.0
 50
180.0
1001
ACAD
1000
DSTYLE
1002
{
1002
}
  0
LINE
  5
345
  8
KERA4
 10
-199.65828552035731
 20
2107.7692213566352
 30
0.0
 11
-413.69125751812538
 21
2107.7692213566352
 31
0.0
1001
ACAD
1000
TCW40_DEV_WIDTH
1002
{
1040
-3.0
1002
}
  0
LINE
  5
346
  8
KERA4
 10
-339.76446051507128
 20
2093.6581009400261
 30
0.0
 11
-413.69125751812538
 21
2093.6581009400261
 31
0.0
1001
ACAD
1000
TCW40_DEV_WIDTH
1002
{
1040
-3.0
1002
}
  0
LINE
  5
347
  8
KERA4
 10
-398.69125751812538
 20
2157.7692213566338
 30
0.0
 11
-398.69125751812538
 21
2207.7692213566352
 31
0.0
1001
ACAD
1000
TCW40_DEV_WIDTH
1002
{
1040
-3.0
1002
}
  0
LINE
  5
348
  8
KERA4
 10
-398.69125751812538
 20
2043.6581009400261
 30
0.0
 11
-398.69125751812538
 21
1993.6581009400261
 31
0.0
1001
ACAD
1000
TCW40_DEV_WIDTH
1002
{
1040
-3.0
1002
}
  0
SOLID
  5
349
  8
KERA4
 10
-390.35792418479218
 20
2157.7692213566338
 30
0.0
 11
-407.02459085145892
 21
2157.7692213566338
 31
0.0
 12
-398.69125751812538
 22
2107.7692213566352
 32
0.0
 13
-398.69125751812538
 23
2107.7692213566352
 33
0.0
  0
SOLID
  5
34A
  8
KERA4
 10
-390.35792418479218
 20
2043.6581009400261
 30
0.0
 11
-407.02459085145892
 21
2043.6581009400261
 31
0.0
 12
-398.69125751812538
 22
2093.6581009400261
 32
0.0
 13
-398.69125751812538
 23
2093.6581009400261
 33
0.0
  0
INSERT
  5
34B
  8
0
  6
CONTINUOUS
 62
     7
  2
*U49
 10
0.0
 20
0.0
 30
0.0
  0
DIMENSION
  5
34C
  8
KERA4
  6
DURCHGEHEND
  2
*D14
 10
150.55123311915619
 20
1782.5910841274299
 30
0.0
 11
257.94647379940398
 21
1782.5910841274299
 31
0.0
 70
     0
  1
<>
 13
365.34171447965173
 23
2022.8188307643341
 33
0.0
 14
150.55123311915619
 24
1980.4803606022169
 34
0.0
 50
180.0
1001
ACAD
1000
DSTYLE
1002
{
1002
}
  0
DIMENSION
  5
34D
  8
KERA4
  6
DURCHGEHEND
  2
*D15
 10
-276.00060627909488
 20
2022.154836207525
 30
0.0
 11
-276.00060627909522
 21
2064.9620287820799
 31
0.0
 70
     0
  1
85
 13
-184.65828552035731
 23
2107.7692213566352
 33
0.0
 14
149.62451569994391
 24
2022.154836207525
 34
0.0
 50
90.0
1001
ACAD
1000
DSTYLE
1002
{
1002
}
  0
LINE
  5
34E
  8
KERA4
 10
368.34171447964718
 20
2117.8188307643331
 30
0.0
 11
473.86233594920623
 21
2117.8188307643331
 31
0.0
1001
ACAD
1000
TCW40_DEV_WIDTH
1002
{
1040
-3.0
1002
}
  0
LINE
  5
34F
  8
KERA4
 10
358.341714479649
 20
2107.8188307643468
 30
0.0
 11
473.86233594920623
 21
2107.8188307643468
 31
0.0
1001
ACAD
1000
TCW40_DEV_WIDTH
1002
{
1040
-3.0
1002
}
  0
LINE
  5
350
  8
KERA4
 10
458.86233594920623
 20
2167.8188307643331
 30
0.0
 11
458.86233594920623
 21
2217.8188307643331
 31
0.0
1001
ACAD
1000
TCW40_DEV_WIDTH
1002
{
1040
-3.0
1002
}
  0
LINE
  5
351
  8
KERA4
 10
458.86233594920623
 20
2057.8188307643481
 30
0.0
 11
458.86233594920623
 21
2007.8188307643479
 31
0.0
1001
ACAD
1000
TCW40_DEV_WIDTH
1002
{
1040
-3.0
1002
}
  0
SOLID
  5
352
  8
KERA4
 10
450.52900261587308
 20
2167.8188307643331
 30
0.0
 11
467.1956692825392
 21
2167.8188307643331
 31
0.0
 12
458.86233594920623
 22
2117.8188307643331
 32
0.0
 13
458.86233594920623
 23
2117.8188307643331
 33
0.0
  0
SOLID
  5
353
  8
KERA4
 10
450.52900261587308
 20
2057.8188307643481
 30
0.0
 11
467.1956692825392
 21
2057.8188307643481
 31
0.0
 12
458.86233594920623
 22
2107.8188307643468
 32
0.0
 13
458.86233594920623
 23
2107.8188307643468
 33
0.0
  0
INSERT
  5
354
  8
0
  6
CONTINUOUS
 62
     7
  2
*U50
 10
0.0
 20
0.0
 30
0.0
  0
DIMENSION
  5
355
  8
KERA4
  6
DURCHGEHEND
  2
*D16
 10
173.39037908169621
 20
1887.025067861395
 30
0.0
 11
-17.088731397248239
 21
1887.025067861395
 31
0.0
 70
   128
  1
<>
 13
127.7120871566399
 23
2003.2266110999269
 33
0.0
 14
173.39037908169621
 24
2003.221098943503
 34
0.0
1001
ACAD
1000
DSTYLE
1002
{
1002
}
  0
LINE
  5
480
  8
KERA0
 39
2.25
 10
-1134.174337017404
 20
1237.1487920370039
 30
7.875
 11
-1134.174337017404
 21
1787.6745103140511
 31
7.875
1001
ACAD
1000
TCW40_DEV_WIDTH
1002
{
1040
-3.0
1002
}
  0
LINE
  5
481
  8
KERA0
 39
2.25
 10
-1134.4498753994469
 20
1787.478849133927
 30
2.25
 11
-1431.3573737081031
 21
1787.478849133927
 31
2.25
1001
ACAD
1000
TCW40_DEV_WIDTH
1002
{
1040
-3.0
1002
}
  0
LINE
  5
482
  8
KERA0
 39
2.25
 10
-1431.3573737080919
 20
1237.478849133857
 30
2.25
 11
-1134.4498753839071
 21
1237.478849133857
 31
2.25
1001
ACAD
1000
TCW40_DEV_WIDTH
1002
{
1040
-3.0
1002
}
  0
LINE
  5
483
  8
KERA0
 39
2.25
 10
-1133.8987986043339
 20
1775.478849133907
 30
2.25
 11
-1431.3573737081031
 21
1775.478849133907
 31
2.25
1001
ACAD
1000
TCW40_DEV_WIDTH
1002
{
1040
-3.0
1002
}
  0
LINE
  5
484
  8
KERA0
 39
2.25
 10
-1431.3573737080919
 20
1292.4788491338791
 30
0.0
 11
-1207.357373708096
 21
1292.4788491338791
 31
0.0
1001
ACAD
1000
TCW40_DEV_WIDTH
1002
{
1040
-3.0
1002
}
  0
LINE
  5
485
  8
KERA0
 39
2.25
 10
-1197.3573737080969
 20
1302.478849133958
 30
0.0
 11
-1197.3573737080969
 21
1632.4788491339109
 31
0.0
1001
ACAD
1000
TCW40_DEV_WIDTH
1002
{
1040
-3.0
1002
}
  0
ARC
  5
486
  8
KERA0
 39
2.25
 10
-1207.357373708096
 20
1302.478849133958
 30
0.0
 40
10.0
 50
270.0
 51
0.0
1001
ACAD
1000
TCW40_DEV_WIDTH
1002
{
1040
-3.0
1002
}
  0
LINE
  5
487
  8
KERA0
 39
2.25
 10
-1207.357373708096
 20
1642.478849133897
 30
0.0
 11
-1431.3573737081031
 21
1642.478849133897
 31
0.0
1001
ACAD
1000
TCW40_DEV_WIDTH
1002
{
1040
-3.0
1002
}
  0
ARC
  5
488
  8
KERA0
 39
2.25
 10
-1207.357373708096
 20
1632.4788491339109
 30
0.0
 40
10.0
 50
0.0
 51
90.0
1001
ACAD
1000
TCW40_DEV_WIDTH
1002
{
1040
-3.0
1002
}
  0
LINE
  5
489
  8
KERA0
 39
2.25
 10
-1151.3573737080969
 20
1642.478849133897
 30
0.0
 11
-1131.3573737081019
 21
1642.478849133897
 31
0.0
1001
ACAD
1000
TCW40_DEV_WIDTH
1002
{
1040
-3.0
1002
}
  0
LINE
  5
48A
  8
KERA0
 39
2.25
 10
-1733.1948132449679
 20
1237.562099640709
 30
7.875
 11
-1733.1948132449679
 21
1787.8122795068371
 31
7.875
1001
ACAD
1000
TCW40_DEV_WIDTH
1002
{
1040
-3.0
1002
}
  0
LINE
  5
48B
  8
KERA0
 39
2.25
 10
-1733.332582427558
 20
1787.478849133927
 30
2.25
 11
-1431.3573737081031
 21
1787.478849133927
 31
2.2500000000000182
1001
ACAD
1000
TCW40_DEV_WIDTH
1002
{
1040
-3.0
1002
}
  0
LINE
  5
48C
  8
KERA0
 39
2.25
 10
-1431.3573737080919
 20
1237.478849133857
 30
2.2499999999998641
 11
-1733.0570440293691
 21
1237.478849133857
 31
2.2499999999999991
1001
ACAD
1000
TCW40_DEV_WIDTH
1002
{
1040
-3.0
1002
}
  0
LINE
  5
48D
  8
KERA0
 39
2.25
 10
-1733.332582427558
 20
1775.478849133907
 30
4.5000000000000187
 11
-1431.3573737081031
 21
1775.478849133907
 31
4.5000000000000382
1001
ACAD
1000
TCW40_DEV_WIDTH
1002
{
1040
-3.0
1002
}
  0
LINE
  5
48E
  8
KERA0
 39
2.25
 10
-1711.3573737080969
 20
1292.4788491338791
 30
0.0
 11
-1731.3573737080919
 21
1292.4788491338791
 31
0.0
1001
ACAD
1000
TCW40_DEV_WIDTH
1002
{
1040
-3.0
1002
}
  0
LINE
  5
48F
  8
KERA0
 39
2.25
 10
-1431.3573737080919
 20
1292.4788491338791
 30
0.0
 11
-1655.357373708099
 21
1292.4788491338791
 31
0.0
1001
ACAD
1000
TCW40_DEV_WIDTH
1002
{
1040
-3.0
1002
}
  0
LINE
  5
490
  8
KERA0
 39
2.25
 10
-1665.3573737080969
 20
1302.478849133958
 30
0.0
 11
-1665.3573737080969
 21
1632.4788491339109
 31
0.0
1001
ACAD
1000
TCW40_DEV_WIDTH
1002
{
1040
-3.0
1002
}
  0
ARC
  5
491
  8
KERA0
 39
2.25
 10
-1655.357373708099
 20
1302.478849133958
 30
0.0
 40
10.0
 50
180.0
 51
270.0
1001
ACAD
1000
TCW40_DEV_WIDTH
1002
{
1040
-3.0
1002
}
  0
LINE
  5
492
  8
KERA0
 39
2.25
 10
-1655.357373708099
 20
1642.478849133897
 30
0.0
 11
-1431.3573737081031
 21
1642.478849133897
 31
0.0
1001
ACAD
1000
TCW40_DEV_WIDTH
1002
{
1040
-3.0
1002
}
  0
ARC
  5
493
  8
KERA0
 39
2.25
 10
-1655.357373708099
 20
1632.4788491339109
 30
0.0
 40
10.0
 50
90.0
 51
180.0
1001
ACAD
1000
TCW40_DEV_WIDTH
1002
{
1040
-3.0
1002
}
  0
LINE
  5
494
  8
KERA0
 39
2.25
 10
-1711.3573737080969
 20
1642.478849133897
 30
0.0
 11
-1731.3573737080919
 21
1642.478849133897
 31
0.0
1001
ACAD
1000
TCW40_DEV_WIDTH
1002
{
1040
-3.0
1002
}
  0
LINE
  5
495
  8
KERA0
 10
-1732.6437363840009
 20
1787.478849133925
 30
0.0
 11
-1134.1743370018901
 21
1787.478849133925
 31
0.0
1001
ACAD
1000
TCW40_DEV_WIDTH
1002
{
1040
-3.0
1002
}
  0
LINE
  5
496
  8
KERA2
 10
-1431.3573737080969
 20
1614.153324739256
 30
495.897101469174
 11
-1431.3573737080969
 21
1530.804373528639
 31
495.897101469174
1001
ACAD
1000
TCW40_DEV_WIDTH
1002
{
1040
-3.0
1002
}
  0
LINE
  5
497
  8
KERA2
 10
-1473.0318493134059
 20
1572.4788491339471
 30
495.897101469174
 11
-1389.6828981027891
 21
1572.4788491339471
 31
495.897101469174
1001
ACAD
1000
TCW40_DEV_WIDTH
1002
{
1040
-3.0
1002
}
  0
POLYLINE
  5
498
  8
KERA0
 66
     1
 10
0.0
 20
0.0
 30
495.897101469174
 70
     1
 40
0.015748031437397
 41
0.015748031437397
  0
VERTEX
  5
70D
  8
KERA0
 10
-1408.3573737080981
 20
1572.4788491339471
 30
495.897101469174
 42
0.4142135623731
  0
VERTEX
  5
70E
  8
KERA0
 10
-1431.3573737080969
 20
1595.4788491339471
 30
495.897101469174
 42
2.414213562372999
  0
VERTEX
  5
70F
  8
KERA0
 10
-1408.3573737080981
 20
1572.4788491339471
 30
495.897101469174
  0
SEQEND
  5
710
  8
KERA0
  0
POLYLINE
  5
499
  8
KERA4
 66
     1
 10
0.0
 20
0.0
 30
495.897101469174
 70
     1
 40
0.0070866141468287
 41
0.0070866141468287
  0
VERTEX
  5
711
  8
KERA4
 10
-1399.3573737080969
 20
1572.4788491339471
 30
495.897101469174
 42
0.4142135623731
  0
VERTEX
  5
712
  8
KERA4
 10
-1431.3573737080969
 20
1604.4788491339471
 30
495.897101469174
 42
2.414213562372999
  0
VERTEX
  5
713
  8
KERA4
 10
-1399.3573737080969
 20
1572.4788491339471
 30
495.897101469174
  0
SEQEND
  5
714
  8
KERA4
  0
LINE
  5
49A
  8
KERA2
 10
-1456.3573737081369
 20
1702.478849134053
 30
0.0
 11
-1406.357373707955
 21
1702.478849134053
 31
0.0
1001
ACAD
1000
TCW40_DEV_WIDTH
1002
{
1040
-3.0
1002
}
  0
LINE
  5
49B
  8
KERA2
 10
-1431.357373708046
 20
1727.47884913403
 30
0.0
 11
-1431.357373708046
 21
1677.4788491340751
 31
0.0
1001
ACAD
1000
TCW40_DEV_WIDTH
1002
{
1040
-3.0
1002
}
  0
POLYLINE
  5
49C
  8
KERA0
  6
CONTINUOUS
 66
     1
 10
0.0
 20
0.0
 30
0.0
 70
     1
 40
0.015748031437397
 41
0.015748031437397
  0
VERTEX
  5
715
  8
KERA0
  6
CONTINUOUS
 10
-1411.357373708046
 20
1702.478849134053
 30
0.0
 42
0.4142135623731
  0
VERTEX
  5
716
  8
KERA0
  6
CONTINUOUS
 10
-1431.357373708046
 20
1722.478849134053
 30
0.0
 42
2.414213562372999
  0
VERTEX
  5
717
  8
KERA0
  6
CONTINUOUS
 10
-1411.357373708046
 20
1702.478849134053
 30
0.0
  0
SEQEND
  5
718
  8
KERA0
  6
CONTINUOUS
  0
LINE
  5
49D
  8
KERA2
 10
-1456.3573737081369
 20
1702.4788491339391
 30
0.0
 11
-1406.357373708069
 21
1702.4788491339391
 31
0.0
1001
ACAD
1000
TCW40_DEV_WIDTH
1002
{
1040
-3.0
1002
}
  0
LINE
  5
49E
  8
KERA2
 10
-1431.357373708046
 20
1727.47884913403
 30
0.0
 11
-1431.357373708046
 21
1677.4788491340751
 31
0.0
1001
ACAD
1000
TCW40_DEV_WIDTH
1002
{
1040
-3.0
1002
}
  0
LINE
  5
49F
  8
KERA4
 10
-1066.3573737081019
 20
1787.478849133927
 30
0.0
 11
-914.55570729207545
 21
1787.4788491339259
 31
0.0
1001
ACAD
1000
TCW40_DEV_WIDTH
1002
{
1040
-3.0
1002
}
  0
LINE
  5
4A0
  8
KERA4
 10
-1391.357373707955
 20
1702.478849134053
 30
0.0
 11
-914.55570729207545
 21
1702.4788491340521
 31
0.0
1001
ACAD
1000
TCW40_DEV_WIDTH
1002
{
1040
-3.0
1002
}
  0
LINE
  5
4A1
  8
KERA4
 10
-929.55570729207545
 20
1837.4788491339259
 30
0.0
 11
-929.55570729207545
 21
1887.4788491339259
 31
0.0
1001
ACAD
1000
TCW40_DEV_WIDTH
1002
{
1040
-3.0
1002
}
  0
LINE
  5
4A2
  8
KERA4
 10
-929.55570729207545
 20
1727.4788491340521
 30
0.0
 11
-929.55570729207545
 21
1677.4788491340521
 31
0.0
1001
ACAD
1000
TCW40_DEV_WIDTH
1002
{
1040
-3.0
1002
}
  0
SOLID
  5
4A3
  8
KERA4
 10
-937.8890406254086
 20
1837.4788491339259
 30
0.0
 11
-921.22237395874197
 21
1837.4788491339259
 31
0.0
 12
-929.55570729207545
 22
1787.4788491339259
 32
0.0
 13
-929.55570729207545
 23
1787.4788491339259
 33
0.0
  0
INSERT
  5
4A4
  8
0
  6
CONTINUOUS
 62
     7
  2
*U51
 10
0.0
 20
0.0
 30
0.0
  0
DIMENSION
  5
4A5
  8
KERA4
  6
DURCHGEHEND
 62
     7
  2
*D17
 10
-827.16684606435297
 20
1237.478849133857
 30
0.0
 11
-827.16684606435297
 21
1512.478849133892
 31
0.0
 70
     0
  1
<>
 13
-1081.3573737081019
 23
1787.478849133927
 33
0.0
 14
-1086.3573737080951
 24
1237.478849133857
 34
0.0
 50
90.0
1001
ACAD
1000
DSTYLE
1002
{
1070
   148
1040
0.0000001
1070
   147
1040
8.0
1002
}
  0
DIMENSION
  5
4A6
  8
KERA4
  6
DURCHGEHEND
  2
*D18
 10
-1928.899772007954
 20
1292.4788491338791
 30
0.0
 11
-1928.899772007954
 21
1467.4788491338879
 31
0.0
 70
     0
  1
<>
 13
-1655.357373708099
 23
1642.478849133897
 33
0.0
 14
-1655.357373708099
 24
1292.4788491338791
 34
0.0
 50
90.0
1001
ACAD
1000
DSTYLE
1002
{
1070
   148
1040
0.0000001
1070
   147
1040
8.0
1002
}
  0
DIMENSION
  5
4A7
  8
KERA4
  6
DURCHGEHEND
  2
*D19
 10
-1928.899772007954
 20
1642.478849133897
 30
0.0
 11
-1928.899772007954
 21
1714.978849133912
 31
0.0
 70
     0
  1
<>
 13
-1781.3573737080931
 23
1787.478849133927
 33
0.0
 14
-1655.357373708099
 24
1642.478849133897
 34
0.0
 50
90.0
1001
ACAD
1000
DSTYLE
1002
{
1070
   148
1040
0.0000001
1070
   147
1040
8.0
1002
}
  0
DIMENSION
  5
4A8
  8
KERA4
  6
DURCHGEHEND
  2
*D20
 10
-1197.3573737080969
 20
1108.003451022425
 30
0.0
 11
-1431.3573737080969
 21
1108.003451022425
 31
0.0
 70
     1
  1
<>
 13
-1665.3573737080969
 23
1302.478849133958
 33
0.0
 14
-1197.3573737080969
 24
1302.478849133958
 34
0.0
1001
ACAD
1000
DSTYLE
1002
{
1070
   148
1040
0.0000001
1070
   147
1040
8.0
1002
}
  0
LINE
  5
4A9
  8
KERA4
 10
-1211.357373708096
 20
1108.0034510224209
 30
0.0
 11
-1261.357373708096
 21
1108.0034510224209
 31
0.0
1001
ACAD
1000
TCW40_DEV_WIDTH
1002
{
1040
-3.0
1002
}
  0
LINE
  5
4AA
  8
KERA4
 10
-1391.357373707955
 20
1702.478849134053
 30
0.0
 11
-914.55570729207614
 21
1702.4788491340521
 31
0.0
1001
ACAD
1000
TCW40_DEV_WIDTH
1002
{
1040
-3.0
1002
}
  0
LINE
  5
4AB
  8
KERA4
 10
-1416.3573737081031
 20
1642.478849133897
 30
0.0
 11
-914.55570729207614
 21
1642.478849133897
 31
0.0
1001
ACAD
1000
TCW40_DEV_WIDTH
1002
{
1040
-3.0
1002
}
  0
LINE
  5
4AC
  8
KERA4
 10
-929.55570729207591
 20
1592.478849133897
 30
0.0
 11
-929.55570729207591
 21
1542.478849133897
 31
0.0
1001
ACAD
1000
TCW40_DEV_WIDTH
1002
{
1040
-3.0
1002
}
  0
SOLID
  5
4AD
  8
KERA4
 10
-937.88904062540951
 20
1592.478849133897
 30
0.0
 11
-921.22237395874254
 21
1592.478849133897
 31
0.0
 12
-929.55570729207591
 22
1642.478849133897
 32
0.0
 13
-929.55570729207591
 23
1642.478849133897
 33
0.0
  0
INSERT
  5
4AE
  8
0
  6
CONTINUOUS
 62
     7
  2
*U52
 10
0.0
 20
0.0
 30
0.0
  0
DIMENSION
  5
4AF
  8
0
  6
DURCHGEHEND
 62
     1
  2
*D21
 10
-1134.5876444877199
 20
1938.256244540331
 30
0.0
 11
-1433.822344233897
 21
1938.256244540331
 31
0.0
 70
     1
  1
600
 13
-1733.057043980074
 23
1778.443973957658
 33
0.0
 14
-1134.5876444877199
 24
1778.443973957658
 34
0.0
1001
TCAD
1000
TCW_CUSTOM_DATA
1002
{
1000
#$AUX@_ToolInfo Properties
1070
     8
1000
CMD_PARALLELDIM@
1002
}
1001
ACAD
1000
DSTYLE
1002
{
1002
}
  0
POLYLINE
  5
602
  8
LAYER01
  6
CONTINUOUS
 62
     7
 66
     1
 10
0.0
 20
0.0
 30
0.0
 70
     1
  0
VERTEX
  5
931
  8
LAYER01
  6
CONTINUOUS
 62
     7
 10
-2370.5068634285021
 20
999.81472818468512
 30
0.0
  0
VERTEX
  5
932
  8
LAYER01
  6
CONTINUOUS
 62
     7
 10
-2370.5068634285021
 20
3228.8417704246849
 30
0.0
  0
VERTEX
  5
933
  8
LAYER01
  6
CONTINUOUS
 62
     7
 10
1204.402620491501
 20
3228.8417704246849
 30
0.0
  0
VERTEX
  5
934
  8
LAYER01
  6
CONTINUOUS
 62
     7
 10
1204.402620491501
 20
999.81472818468512
 30
0.0
  0
SEQEND
  5
935
  8
LAYER01
  6
CONTINUOUS
 62
     7
  0
INSERT
  5
603
  8
LAYER01
  2
DEFAULT2-G6
 10
-2286.9213211085021
 20
954.43524498468469
 30
0.0
 41
0.7200000000000273
 42
0.7199999999993452
 43
0.72
  0
TEXT
  5
604
  8
LAYER01
  6
VERDECKT
 62
     1
 10
1027.137005531499
 20
1311.284364424685
 30
0.0
 40
10.08
  1
xxx.skd
  7
SIMPLEX
  0
TEXT
  5
605
  8
LAYER01
  6
VERDECKT
 62
     1
 10
700.87530553150089
 20
1246.2902265046851
 30
0.0
 40
25.199999999999999
  1
A. Sprenger GmbH
  7
SIMPLEX
  0
TEXT
  5
606
  8
LAYER01
  6
CONTINUOUS
 62
     7
 10
692.70026785150037
 20
1402.3504684246859
 30
0.0
 40
7.5599999999999987
  1
Diese Zeichnung ist geistiges Eigentum der A. Sprenger GmbH
  7
SIMPLEX
  0
TEXT
  5
607
  8
LAYER01
  6
CONTINUOUS
 62
     7
 10
692.70026785150037
 20
1389.3904684246841
 30
0.0
 40
7.5599999999999987
  1
und urheberrechtlich geschützt. Ohne unsere Zustimmung darf 
  7
SIMPLEX
  0
TEXT
  5
608
  8
LAYER01
  6
CONTINUOUS
 62
     7
 10
692.70026785150037
 20
1376.4304684246849
 30
0.0
 40
7.5599999999999987
  1
sie in keiner Form verwendet oder Dritten zugänglich gemacht
  7
SIMPLEX
  0
TEXT
  5
609
  8
LAYER01
  6
CONTINUOUS
 62
     7
 10
692.70026785150037
 20
1363.470468424684
 30
0.0
 40
7.5599999999999987
  1
werden. (§106 Urheberrecht)
  7
SIMPLEX
  0
TEXT
  5
60A
  8
LAYER01
  6
VERDECKT
 62
     1
 10
467.3559141715009
 20
1187.9423495446849
 30
0.0
 40
10.08
  1
2016
  7
SIMPLEX
  0
TEXT
  5
60B
  8
LAYER01
  6
VERDECKT
 62
     1
 10
700.87530553150089
 20
1147.321879144685
 30
0.0
 40
35.280000000000001
  1
Agilo EWT
  7
SIMPLEX
  0
INSERT
  5
60C
  8
LAYER01
  6
CONTINUOUS
 62
     7
  2
WMF0
 10
-200.3254089980876
 20
355.34025244446372
 30
0.0
 41
0.17999999999995
 42
0.180000000000291
 43
0.18
  0
INSERT
  5
60D
  8
KERA4
  2
*U25
 10
2460.0100339656619
 20
1716.481794729727
 30
0.0
 41
0.7139039846391598
 42
0.7139039846397282
 43
0.7139039846400002
  0
ENDSEC
  0
EOF
